Subcategories

Various - Serve Chilled (2 CD)

Posted By: FLESH
Various - Serve Chilled (2 CD)

Various - Serve Chilled (2 CD)
Electronic, Lounge, Downtempo, Jazzdance, Ambient
FLAC+cue+log | 0.9 Gb | MP3, 192 Kbps | 202.8 Mb | Covers
Label: Hed Kandi Records | Catalog#: HEDK059 | Country: UK | Released: 29 May 2006

Tracklisting:
CD1
01 4 Hero Conceptions (5:37)
02 Jazzanova Bohemian Sunset (6:49)
03 Bent Beautiful Otherness (4:52)
04 Lars Bartkuhn & His Passion Dance Orchestra Thought Of You (7:29)
05 Secret Stealth Dream Of You (5:52)
06 Ganga Hi-Fi Love (Kenneth Bager Re-Edit) (6:30)
07 True Stories Crazy Girls (4:42)
08 Funky Lowlives* Float Through Stars (Boozoo Bajou Mix) (4:11)
09 Chris Coco & Sacha Puttnam Starlight (4:09)
10 Ganga Sweet Morning (4:49)
11 Jeff Bennett's Lounge Experience Let's Come Together (4:42)
12 Frontera Rouge (6:29)
13 Tennishero Alone (4:36)
14 Cagedbaby Hello There (3:14)
CD2
01 Henry Mancini Lujon (2:36)
02 Nouvelle Vague (This Is Not) A Love Song (3:47)
03 Rae & Christian Get A Life (3:39)
04 Max Sedgley Slowly (5:19)
05 Crazy P* Sweet Feeling (5:40)
06 Hey Negrita Losing You (Nick Franglin Of Lemon Jelly Mix) (6:40)
07 Fenomenon Pacific Memories (6:39)
08 Christophe Goze Mañana (Afterlife Mix) (5:39)
09 Sandboy Viver (Butti 49 Re-fusion) (6:54)
10 Bah Samba Calma (3:56)
11 Dalminjo Love Affair (6:32)
12 Teddy Rok Seven Feel (Afterlife Remix) (5:22)
13 Amberflame Rise Hour (7:03)
14 Defender (3) Bliss (4:32)

Exact Audio Copy V0.99 prebeta 4 from 23. January 2008

Отчёт EAC об извлечении, выполненном 23. апреля 2009, 15:05

Hed Kandi / Serve Chilled 06.06 (CD1) [HEDK059]

Дисковод: TOSHIBA DVD-ROM SD-R1312 Adapter: 1 ID: 0

Режим чтения : Достоверность
Использование точного потока : Да
Отключение кэша аудио : Да
Использование указателей C2 : Нет

Коррекция смещения при чтении : 116
Способность читать области Lead-in и Lead-out : Нет
Заполнение пропущенных сэмплов тишиной : Да
Удаление блоков с тишиной в начале и конце : Нет
При вычислениях CRC использовались нулевые сэмплы : Да
Интерфейс : Установленный внешний ASPI-интерфейс

Выходной формат : Внутренние WAV-операции
Формат сэмплов : 44.100 Гц; 16 бит; стерео


TOC извлечённого CD

Трек | Старт | Длительность | Начальный сектор | Конечный сектор
––––––––––––––––––––––––––––––––––-
1 | 0:00.00 | 5:37.52 | 0 | 25326
2 | 5:37.52 | 6:49.73 | 25327 | 56074
3 | 12:27.50 | 4:52.01 | 56075 | 77975
4 | 17:19.51 | 7:29.25 | 77976 | 111675
5 | 24:49.01 | 5:52.22 | 111676 | 138097
6 | 30:41.23 | 6:30.65 | 138098 | 167412
7 | 37:12.13 | 4:42.02 | 167413 | 188564
8 | 41:54.15 | 4:11.20 | 188565 | 207409
9 | 46:05.35 | 4:09.44 | 207410 | 226128
10 | 50:15.04 | 4:49.25 | 226129 | 247828
11 | 55:04.29 | 4:42.67 | 247829 | 269045
12 | 59:47.21 | 6:29.12 | 269046 | 298232
13 | 66:16.33 | 4:36.19 | 298233 | 318951
14 | 70:52.52 | 3:12.74 | 318952 | 333425
15 | 76:37.51 | 0:09.34 | 344826 | 345534


Характеристики диапазона извлечения и сообщения об ошибках

Выбранный диапазон

Имя файла F:\Lossless\Hed Kandi\Serve Chilled series\Serve Chilled - A Return To The Brighter Side Of Chill\CD1\Hed Kandi - Serve Chilled 06.06 (CD1) [HEDK059].wav

Пиковый уровень 100.0 %
Качество диапазона 99.9 %
CRC копии CDA8A876
Копирование… OK

Ошибок не произошло


AccurateRip: сводка

Трек 1 точное извлечение (доверие 9) [4C9B36F9]
Трек 2 точное извлечение (доверие 8) [ED779E4C]
Трек 3 точное извлечение (доверие 9) [89F4DA6D]
Трек 4 точное извлечение (доверие 8) [696B8DE8]
Трек 5 точное извлечение (доверие 9) [65B0A47E]
Трек 6 точное извлечение (доверие 9) [ABFF7934]
Трек 7 точное извлечение (доверие 9) [243CF962]
Трек 8 точное извлечение (доверие 9) [3702F801]
Трек 9 точное извлечение (доверие 9) [8AC4AA5A]
Трек 10 точное извлечение (доверие 9) [F8BDD282]
Трек 11 точное извлечение (доверие 9) [61039CA3]
Трек 12 точное извлечение (доверие 9) [A6B432BF]
Трек 13 точное извлечение (доверие 9) [3B2CBC54]
Трек 14 точное извлечение (доверие 9) [54B8BCF6]

Все треки извлечены точно

Конец отчёта

Exact Audio Copy V0.99 prebeta 4 from 23. January 2008

Отчёт EAC об извлечении, выполненном 23. апреля 2009, 15:23

Hed Kandi / Serve Chilled 06.06 (CD2) [HEDK059]

Дисковод: TOSHIBA DVD-ROM SD-R1312 Adapter: 1 ID: 0

Режим чтения : Достоверность
Использование точного потока : Да
Отключение кэша аудио : Да
Использование указателей C2 : Нет

Коррекция смещения при чтении : 116
Способность читать области Lead-in и Lead-out : Нет
Заполнение пропущенных сэмплов тишиной : Да
Удаление блоков с тишиной в начале и конце : Нет
При вычислениях CRC использовались нулевые сэмплы : Да
Интерфейс : Установленный внешний ASPI-интерфейс

Выходной формат : Внутренние WAV-операции
Формат сэмплов : 44.100 Гц; 16 бит; стерео


TOC извлечённого CD

Трек | Старт | Длительность | Начальный сектор | Конечный сектор
––––––––––––––––––––––––––––––––––-
1 | 0:00.00 | 2:36.73 | 0 | 11772
2 | 2:36.73 | 3:47.59 | 11773 | 28856
3 | 6:24.57 | 3:39.38 | 28857 | 45319
4 | 10:04.20 | 5:19.24 | 45320 | 69268
5 | 15:23.44 | 5:40.41 | 69269 | 94809
6 | 21:04.10 | 6:40.63 | 94810 | 124872
7 | 27:44.73 | 6:39.27 | 124873 | 154824
8 | 34:24.25 | 5:39.57 | 154825 | 180306
9 | 40:04.07 | 6:54.13 | 180307 | 211369
10 | 46:58.20 | 3:56.41 | 211370 | 229110
11 | 50:54.61 | 6:32.51 | 229111 | 258561
12 | 57:27.37 | 5:22.61 | 258562 | 282772
13 | 62:50.23 | 7:03.08 | 282773 | 314505
14 | 69:53.31 | 4:32.44 | 314506 | 334949


Характеристики диапазона извлечения и сообщения об ошибках

Выбранный диапазон

Имя файла F:\Lossless\Hed Kandi\Serve Chilled series\Serve Chilled - A Return To The Brighter Side Of Chill\CD2\Hed Kandi - Serve Chilled 06.06 (CD2) [HEDK059].wav

Пиковый уровень 100.0 %
Качество диапазона 100.0 %
CRC копии E0706394
Копирование… OK

Ошибок не произошло


AccurateRip: сводка

Трек 1 точное извлечение (доверие 9) [91B91901]
Трек 2 точное извлечение (доверие 9) [8FB12F14]
Трек 3 точное извлечение (доверие 9) [C842759D]
Трек 4 точное извлечение (доверие 9) [B0806A25]
Трек 5 точное извлечение (доверие 9) [9312A12C]
Трек 6 точное извлечение (доверие 9) [E45F8D20]
Трек 7 точное извлечение (доверие 9) [3784B687]
Трек 8 точное извлечение (доверие 9) [2FEAE841]
Трек 9 точное извлечение (доверие 9) [6072DD8F]
Трек 10 точное извлечение (доверие 9) [5C864782]
Трек 11 точное извлечение (доверие 9) [6422C4B1]
Трек 12 точное извлечение (доверие 9) [8BB6D913]
Трек 13 точное извлечение (доверие 10) [2E94C3FE]
Трек 14 точное извлечение (доверие 9) [6A7BB663]

Все треки извлечены точно

Конец отчёта


lossless
Скачать с RapidShare
CD1
Part 1 | Part 2 | Part 3 | Part 4 | Part 5

CD2
Part 1 | Part 2 | Part 3 | Part 4 | Part 5 | Part 6

MP3
CD1
Скачать с DepositFiles
Part 1 | Part 2
Скачать с RapidShare
Part 1 | Part 2

CD2
Скачать с DepositFiles
Part 1 | Part 1
Скачать с RapidShare
Part 1 | Part 2

Covers
Covers

Folder Music DepositFiles | Folder1 Music RapidShare | Folder2 Music RapidShare

Welcome to my Blog