Tags
Language
Tags

Various Artists - 101 Romantic Classics (2016) {6CD Box Set Decca 478 4006 rel 2012}

Posted By: ruskaval
Various Artists - 101 Romantic Classics (2016) {6CD Box Set Decca 478 4006 rel 2012}

Various Artists - 101 Romantic Classics (2016) {6CD Box Set Decca 478 4006 rel 2012}
EAC rip (secure mode) | FLAC (tracks)+CUE+LOG -> 1.74 Gb | MP3 @320 -> 1.04 Gb
Full Artwork @ 300 dpi (png) -> 79 Mb | 5% repair rar
© 2012, 2016 Decca Music | 478 4006
Classical

Classical music captures the spirit of romance like no other music and this charming collection of perennial favorites includes music from the most romantic of composers - Chopin, Rachmaninov, Tchaikovsky, Puccini and many more.

The set is themed for every romantic mood, with the first two discs devoted to the stirring passion of orchestral music, the second two to the intimacy of solo piano music, and the last two to the wide-ranging emotions of opera.

Includes music from three works written for the greatest love story ever told, Shakespeares Romeo and Juliet, with music from Tchaikovskys overture, Prokofievs ballet and the main theme from the soundtrack to Franco Zeffirellis film, by Nino Rota.

Recordings from some of the world s greatest artists including Luciano Pavarotti, Joan Sutherland, Sir Georg Solti, Herbert von Karajan, Vladimir Ashkenazy, Radu Lupu, Nigel Kennedy and Bryn Terfel.

Decca INFO

personnel & tracklist:
CD1

01 - Jean-Yves Thibaudet - Rachmaninov - Piano Concerto No. 2 in C minor, op.18 - II. Adagio sostenuto
02 - Nigel Kennedy - Massenet - Meditation Thais
03 - Orchestre symphonique de Montreal - Bizet - Intermezzo Carmen Suite No. 1
04 - Academy of St. Martin in the Fields - Mozart - Serenade in G major, K525 'Eine Kleine Nachmusik' - II. Romance
05 - Prague Philharmonia - Rota - Love Theme from Romeo and Juliet
06 - Wiener Philharmoniker - Tchaikovsky - The Sleeping Beauty, op.66 - Pas d'action (Andante - 'Rose Adagio')
07 - Pascal Roge - Saint-Saens - Aquarium Le Carnival des animaux
08 - Orchestre symphonique de Montreal - Satie - Gymnopedies 1 and 3
09 - Julian Lloyd Webber - Elgar - Cello Concerto in E minor, op.85 - III. Adagio
10 - Academy of St. Martin in the Fields - Tchaikovsky - String Quartet No. 1 in D major, op11 - II. Andante cantabile
11 - Jean-Yves Thibaudet - Rachmaninov - Rhapsody on a Theme of Paganini, op.43 - Variation 18
12 - Academy of St. Martin in the Fields - Rachmaninov - Vocalise, op.34 no.14
13 - Royal Philharmonic Orchestra - Prokofiev - Romeo and Juliet - Balcony Scene
14 - Royal Philharmonic Orchestra - Prokofiev - Romeo and Juliet - Romeo's Variation
15 - Royal Philharmonic Orchestra - Prokofiev - Romeo and Juliet - Love Dance

Various Artists - 101 Romantic Classics (2016) {6CD Box Set Decca 478 4006 rel 2012}


CD2
01 - National Philharmonic Orchestra - Verdi - La traviata - Act One. Prelude
02 - Wiener Philharmoniker - Khachaturian - Spartacus - Adagio of Spartacus and Phrygia
03 - William Bennett - Bach - Harpsichord Concerto in F minor, BWV 1056 - II. Largo
04 - Alexandre Lagoya - Marcello - Oboe Concerto in D minor - II. Andante sostenuto
05 - Radu Lupu - Mozart - Piano Concerto No. 21 in C major, K467 - II. Andante
06 - National Philharmonic Orchestra - Mascagni - Cavalleria rusticana - Intermezzo
07 - Janine Jansen - Shostakovich - Romance The Gadfly
08 - Jascha Silberstein - Saint-Saens - Le Cygne Le Carnaval des animaux
09 - Prague Philharmonia - Horner - My Heart Will Go On
10 - English Chamber Orchestra - Grieg - Notturno Lyric Suite
11 - Peter Hurford - Saint-Saens - Symphony No. 3 in C minor, op.78 'Organ Symphony' - Ib. Poco adagio
12 - Wiener Philharmoniker - Tchaikovsky - The Sleeping Beauty, op.66 - Panorama
13 - Vladimir Ashkenazy - Tchaikovsky - Piano Concerto No. 1 in B flat minor, op.23 - II. Andantino semplice
14 - Orchestre symphonique de Montreal - Bizet - L'Arlesienne Suite No. 1 - Adagietto
15 - Royal Philharmonic Orchestra - Elgar - Variations on an Original Theme, op.36 'Enigma' - Theme
16 - The Cleveland Orchestra - Prokofiev - Cinderella, op.87 - Duet of the Prince and Cinderella
17 - Wiener Philharmoniker - Tchaikovsky - Romeo and Juliet, Fantasy Overture - Love Theme

Various Artists - 101 Romantic Classics (2016) {6CD Box Set Decca 478 4006 rel 2012}


CD3
01 - Wiener Philharmoniker - Beethoven - Piano Sonata No. 14 in C sharp minor, op.27 no.2 'Moonlight' - I. Adagio sostenuto
02 - Vladimir Ashkenazy - Chopin - Nocturne in E flat major, op.9 no.2
03 - Vladimir Ashkenazy - Chopin - Nocturne in D flat major, op.57
04 - Radu Lupu - Traumerei Kinderszenen
05 - Jorge Bolet - Liszt - Sonetto 104 del Petrarca - Annees de pelerinage
06 - Pascal Roge - Satie - Gnossienne No. 1
07 - Pascal Roge - Satie - Gnossienne No. 3
08 - Vladimir Ashkenazy - Chopin - Nocturne in C minor
09 - Vladimir Ashkenazy - Chopin - Waltz in C sharp minor, op.64 no.2
10 - Pascal Roge - Faure - Nocturne No. 1 in E flat major, op.33 no.1
11 - Vladimir Ashkenazy - Chopin - Nocturne in D flat major, op.27 no.2
12 - Vladimir Ashkenazy - Chopin - Mazurka in G minor, op.67 no.2
13 - Jorge Bolet - Liszt - Consolation No. 3
14 - Wiener Philharmoniker - Tchaikovsky - June - Barcarolle - The Seasons
15 - Vladimir Ashkenazy - Chopin - Nocturne in B flat minor, op.9 no.1
16 - Vladimir Ashkenazy - Chopin - Ballade No. 4 in F minor, op.52

Various Artists - 101 Romantic Classics (2016) {6CD Box Set Decca 478 4006 rel 2012}


CD4
01 - Pascal Roge - Debussy - Clair de Lune Suite bergamasque
02 - Vladimir Ashkenazy - Chopin - Nocturne in C sharp minor, op.posth.
03 - Pascal Roge - Satie - Gnossienne No. 4
04 - Pascal Roge - Satie - Je te veux
05 - Vladimir Ashkenazy - Chopin - Prelude in A major, op.28 no.7
06 - Jorge Bolet - Chopin - Nocturne in F minor, op.55 no.1
07 - Vladimir Ashkenazy - Liszt - Liebestraum No. 3 in A flat major, S541
08 - Vladimir Ashkenazy - Chopin - Nocturne in F sharp major, op.15 no.2
09 - Vladimir Ashkenazy - Chopin - Nocturne in B major, op.32 no.1
10 - Vladimir Ashkenazy - Tchaikovsky - October - To Autumn - The Seasons
11 - Joseph Cooper - Macdowell - To a Wild Rose, op.51 no.1
12 - Shura Cherkassky - Rubinstein - Melody in F major, op.3 no.1
13 - Vladimir Ashkenazy - Chopin - Etude in E major, op.10 no.3 'Tristesse'
14 - Vladimir Ashkenazy - Chopin - Waltz in B minor, op.69 no.2
15 - Vladimir Ashkenazy - Beethoven - Piano Sonata No. 8 in C minor, op.13 'Pathetique' - II. Adagio cantabile
16 - Jorge Bolet - Liszt - Un sospiro, S144 no.3
17 - Radu Lupu - Schubert - Impromptu in G flat major, op.90 no.3
18 - Vladimir Ashkenazy - Chopin - Mazurka in C major, op.67 no.3
19 - Vladimir Ashkenazy - Chopin - Waltz in A flat major, op.69 no.1 'Farewell'

Various Artists - 101 Romantic Classics (2016) {6CD Box Set Decca 478 4006 rel 2012}


CD5
01 - Luciano Pavarotti - Puccini - Che gelida manina (La Boheme)
02 - Joan Sutherland - Verdi - Gualtier Malde … Caro nome (Rigoletto)
03 - Leontyne Price - Puccini - Ah, quegli occhi … Qual occhio al mondo puo star di paro (Tosca)
04 - Marilyn Horne - Bizet - L'amour est un oiseau rebelle (Havanaise) (Carmen)
05 - Jose Carreras - Puccini - Donna non vidi mai (Manon Lescaut)
06 - Carlo Cossutta - Verdi - Gia nella notte densa … Venga la morte (Otello)
07 - Jon Vickers - Verdi - Se quel guerruier io fossi! … Celeste Aida (Aida)
08 - Regine Crespin - Puccini - Un del di vedremo (Madama Butterfly)
09 - Placido Domingo - Bizet - La fleur que tu m'avais jetee (Flower Song) (Carmen)
10 - Joan Sutherland - Offenbach - Belle nuit, o nuit d'amour (Barcarolle) (Les Contes d'Hoffmann)
11 - Montserrat Caballe - Puccini - Signore, ascolta (Turandot)
12 - Bryn Terfel - Mozart - Deh! vieni alla finestra (Don Giovanni)
13 - Kiri Te Kanawa - Puccini - Vissi d'arte, vissi d'amore (Tosca)
14 - Kiri Te Kanawa - Puccini - Oh, saro la piu bella! … Tu, Tu, amore tu (Manon Lescaut)
15 - Regina Resnik - Saint Saens - Mon caeur s'ouvre a ta voix (Samson et Dalila)
16 - Luciano Pavarotti - Puccini - O soave fanciulla (La Boheme)

Various Artists - 101 Romantic Classics (2016) {6CD Box Set Decca 478 4006 rel 2012}


CD6
01 - Wiener Haydn Orchestra - Mozart - La ci darem la mano (Don Giovanni)
02 - Pilar Lorengar - Mesicku na nebi hlubokem (Song to the Moon) (Rusalka)
03 - Orchestre symphonique de Montreal - Berlioz - Nuit d'ivresse et d'extase (Les Troyens)
04 - Roberto Alagna - Donizetti - Una furtiva lagrima (L'elisir d'amore)
05 - Maria Chiara - Catalani - Amor, celeste ebbrezza (Loreley)
06 - Luciano Pavarotti - Massenet - Pourquoi me reveiller, o souffle du printemps (Werther)
07 - Frank Lopardo - Verdi - Parigi, a caro, noi lasceremo (La Traviata)
08 - Carlo Bergonzi - Verdi - Quando le sere al placido chiaror d'un ciel stallato (Luisa Miller)
09 - Fiorenza Cossotto - Donizetti - O mio Fernando, della terra il trono (La Favorita)
10 - Jussi Bjorling - Giodano - Amor ti vieta (Fedora)
11 - Joan Sutherland - Donizetti - Verranno a te sull'aure (Lucia di Lammermoor)
12 - Renata Tebaldi - Puccini - O mio babbino caro (Gianni Schicchi)
13 - Franco Corelli - Puccini - E lucevan le stelle (Tosca)
14 - Maria Chiara - Mascagni - Son pochi fiori (L'amico Fritz)
15 - Giuseppe di Stefano - Gounod - Quel trouble inconnu … Salut! demeure chaste et pure (Faust)
16 - Elizabeth Harwood - Puccini - Quando me n'vo (La Boheme)
17 - Luciano Pavarotti - Ponchielli - Cielo e mar! (La Gioconda)
18 - Renata Tebaldi - Puccini - Vagliatemi bene (Madama Butterfly)

Various Artists - 101 Romantic Classics (2016) {6CD Box Set Decca 478 4006 rel 2012}


Exact Audio Copy V1.3 from 2. September 2016

EAC extraction logfile from 23. January 2017, 20:36

Various Artists / Romantic Classics (CD1)

Used drive : ASUS DRW-24B1ST i Adapter: 1 ID: 0

Read mode : Secure
Utilize accurate stream : Yes
Defeat audio cache : Yes
Make use of C2 pointers : No

Read offset correction : 6
Overread into Lead-In and Lead-Out : No
Fill up missing offset samples with silence : Yes
Delete leading and trailing silent blocks : No
Null samples used in CRC calculations : Yes
Used interface : Native Win32 interface for Win NT & 2000
Gap handling : Appended to previous track

Used output format : User Defined Encoder
Selected bitrate : 128 kBit/s
Quality : High
Add ID3 tag : No
Command line compressor : C:\Program Files (x86)\Exact Audio Copy\Flac\flac.exe
Additional command line options : -8 -V -T "ARTIST=%artist%" -T "TITLE=%title%" -T "ALBUM=%albumtitle%" -T "DATE=%year%" -T "TRACKNUMBER=%tracknr%" -T "TOTALTRACKS=%numtracks%" -T "GENRE=%genre%" -T "ALBUMARTIST=%albumartist%" -T "ALBUM ARTIST=%albumartist%" -T "COMMENT=EAC Secure Mode, Test & Copy, AccurateRip, FLAC -8" %source%


TOC of the extracted CD

Track | Start | Length | Start sector | End sector
––––––––––––––––––––––––––––-
1 | 0:00.00 | 11:29.63 | 0 | 51737
2 | 11:29.63 | 5:44.39 | 51738 | 77576
3 | 17:14.27 | 2:37.37 | 77577 | 89388
4 | 19:51.64 | 6:07.24 | 89389 | 116937
5 | 25:59.13 | 3:22.01 | 116938 | 132088
6 | 29:21.14 | 6:34.10 | 132089 | 161648
7 | 35:55.24 | 2:35.27 | 161649 | 173300
8 | 38:30.51 | 6:27.11 | 173301 | 202336
9 | 44:57.62 | 5:18.61 | 202337 | 226247
10 | 50:16.48 | 6:31.14 | 226248 | 255586
11 | 56:47.62 | 3:06.01 | 255587 | 269537
12 | 59:53.63 | 6:08.52 | 269538 | 297189
13 | 66:02.40 | 3:12.25 | 297190 | 311614
14 | 69:14.65 | 1:05.15 | 311615 | 316504
15 | 70:20.05 | 5:17.15 | 316505 | 340294


Track 1

Filename D:\_Post\101 Relaxing\CD1\01 - Jean-Yves Thibaudet - Rachmaninov - Piano Concerto No. 2 in C minor, op.18 - II. Adagio sostenuto.wav

Pre-gap length 0:00:02.00

Peak level 72.2 %
Extraction speed 5.9 X
Track quality 100.0 %
Test CRC E04E62F6
Copy CRC E04E62F6
Accurately ripped (confidence 2) [1E451C93] (AR v2)
Copy OK

Track 2

Filename D:\_Post\101 Relaxing\CD1\02 - Nigel Kennedy - Massenet - Meditation Thais.wav

Pre-gap length 0:00:02.05

Peak level 62.5 %
Extraction speed 6.4 X
Track quality 100.0 %
Test CRC 5ED62026
Copy CRC 5ED62026
Accurately ripped (confidence 2) [953321F0] (AR v2)
Copy OK

Track 3

Filename D:\_Post\101 Relaxing\CD1\03 - Orchestre symphonique de Montreal - Bizet - Intermezzo Carmen Suite No. 1.wav

Pre-gap length 0:00:02.32

Peak level 41.2 %
Extraction speed 6.0 X
Track quality 100.0 %
Test CRC D2E93597
Copy CRC D2E93597
Accurately ripped (confidence 2) [617AF0CE] (AR v2)
Copy OK

Track 4

Filename D:\_Post\101 Relaxing\CD1\04 - Academy of St. Martin in the Fields - Mozart - Serenade in G major, K525 'Eine Kleine Nachmusik' - II. Romance.wav

Pre-gap length 0:00:02.56

Peak level 60.3 %
Extraction speed 7.1 X
Track quality 100.0 %
Test CRC D46F968C
Copy CRC D46F968C
Accurately ripped (confidence 2) [0849C1CE] (AR v2)
Copy OK

Track 5

Filename D:\_Post\101 Relaxing\CD1\05 - Prague Philharmonia - Rota - Love Theme from Romeo and Juliet.wav

Pre-gap length 0:00:02.29

Peak level 34.2 %
Extraction speed 7.2 X
Track quality 100.0 %
Test CRC 1B58208E
Copy CRC 1B58208E
Accurately ripped (confidence 2) [3B91E234] (AR v2)
Copy OK

Track 6

Filename D:\_Post\101 Relaxing\CD1\06 - Wiener Philharmoniker - Tchaikovsky - The Sleeping Beauty, op.66 - Pas d'action (Andante - 'Rose Adagio').wav

Pre-gap length 0:00:02.31

Peak level 84.3 %
Extraction speed 7.9 X
Track quality 100.0 %
Test CRC D5CB7B42
Copy CRC D5CB7B42
Accurately ripped (confidence 2) [E9A3615D] (AR v2)
Copy OK

Track 7

Filename D:\_Post\101 Relaxing\CD1\07 - Pascal Roge - Saint-Saens - Aquarium Le Carnival des animaux.wav

Pre-gap length 0:00:02.40

Peak level 22.8 %
Extraction speed 6.0 X
Track quality 99.9 %
Test CRC BC9B55DF
Copy CRC BC9B55DF
Accurately ripped (confidence 2) [16DFAF82] (AR v2)
Copy OK

Track 8

Filename D:\_Post\101 Relaxing\CD1\08 - Orchestre symphonique de Montreal - Satie - Gymnopedies 1 and 3.wav

Pre-gap length 0:00:02.46

Peak level 16.0 %
Extraction speed 8.6 X
Track quality 100.0 %
Test CRC 5477D560
Copy CRC 5477D560
Accurately ripped (confidence 2) [5824C8E5] (AR v2)
Copy OK

Track 9

Filename D:\_Post\101 Relaxing\CD1\09 - Julian Lloyd Webber - Elgar - Cello Concerto in E minor, op.85 - III. Adagio.wav

Pre-gap length 0:00:02.03

Peak level 60.6 %
Extraction speed 8.7 X
Track quality 100.0 %
Test CRC 6BA52B30
Copy CRC 6BA52B30
Accurately ripped (confidence 2) [8B4BB7A5] (AR v2)
Copy OK

Track 10

Filename D:\_Post\101 Relaxing\CD1\10 - Academy of St. Martin in the Fields - Tchaikovsky - String Quartet No. 1 in D major, op11 - II. Andante cantabile.wav

Pre-gap length 0:00:02.68

Peak level 36.0 %
Extraction speed 10.1 X
Track quality 100.0 %
Test CRC 0B248BAC
Copy CRC 0B248BAC
Accurately ripped (confidence 2) [23F0C8E7] (AR v2)
Copy OK

Track 11

Filename D:\_Post\101 Relaxing\CD1\11 - Jean-Yves Thibaudet - Rachmaninov - Rhapsody on a Theme of Paganini, op.43 - Variation 18.wav

Pre-gap length 0:00:02.26

Peak level 64.0 %
Extraction speed 9.0 X
Track quality 100.0 %
Test CRC 7900F38F
Copy CRC 7900F38F
Accurately ripped (confidence 2) [6222248E] (AR v2)
Copy OK

Track 12

Filename D:\_Post\101 Relaxing\CD1\12 - Academy of St. Martin in the Fields - Rachmaninov - Vocalise, op.34 no.14.wav

Pre-gap length 0:00:02.30

Peak level 54.9 %
Extraction speed 10.5 X
Track quality 100.0 %
Test CRC 92D84F26
Copy CRC 92D84F26
Accurately ripped (confidence 2) [63F91917] (AR v2)
Copy OK

Track 13

Filename D:\_Post\101 Relaxing\CD1\13 - Royal Philharmonic Orchestra - Prokofiev - Romeo and Juliet - Balcony Scene.wav

Pre-gap length 0:00:02.45

Peak level 34.7 %
Extraction speed 9.6 X
Track quality 100.0 %
Test CRC 53B7F431
Copy CRC 53B7F431
Accurately ripped (confidence 2) [1C6DB9AF] (AR v2)
Copy OK

Track 14

Filename D:\_Post\101 Relaxing\CD1\14 - Royal Philharmonic Orchestra - Prokofiev - Romeo and Juliet - Romeo's Variation.wav

Peak level 62.9 %
Extraction speed 7.2 X
Track quality 100.0 %
Test CRC BD4E93C7
Copy CRC BD4E93C7
Accurately ripped (confidence 2) [8680B347] (AR v2)
Copy OK

Track 15

Filename D:\_Post\101 Relaxing\CD1\15 - Royal Philharmonic Orchestra - Prokofiev - Romeo and Juliet - Love Dance.wav

Peak level 80.1 %
Extraction speed 10.8 X
Track quality 100.0 %
Test CRC 4042EAC2
Copy CRC 4042EAC2
Accurately ripped (confidence 2) [76BF4CF0] (AR v2)
Copy OK


All tracks accurately ripped

No errors occurred

End of status report

–– CUETools DB Plugin V2.1.6

[CTDB TOCID: c.hkrlfc1sTfrqdnaszrtjLTDSg-] found
Submit result: c.hkrlfc1sTfrqdnaszrtjLTDSg- has been confirmed
Track | CTDB Status
1 | (6/6) Accurately ripped
2 | (6/6) Accurately ripped
3 | (6/6) Accurately ripped
4 | (6/6) Accurately ripped
5 | (6/6) Accurately ripped
6 | (6/6) Accurately ripped
7 | (6/6) Accurately ripped
8 | (6/6) Accurately ripped
9 | (6/6) Accurately ripped
10 | (6/6) Accurately ripped
11 | (6/6) Accurately ripped
12 | (6/6) Accurately ripped
13 | (6/6) Accurately ripped
14 | (6/6) Accurately ripped
15 | (6/6) Accurately ripped


==== Log checksum 550540A99EEBFAEBB5D52D5D722E71A927D6A2E239799D8938CE6B93448CD33B ====

Exact Audio Copy V1.3 from 2. September 2016

EAC extraction logfile from 23. January 2017, 21:23

Various Artists / 101 Romantic Classics (CD2)

Used drive : ASUS DRW-24B1ST i Adapter: 1 ID: 0

Read mode : Secure
Utilize accurate stream : Yes
Defeat audio cache : Yes
Make use of C2 pointers : No

Read offset correction : 6
Overread into Lead-In and Lead-Out : No
Fill up missing offset samples with silence : Yes
Delete leading and trailing silent blocks : No
Null samples used in CRC calculations : Yes
Used interface : Native Win32 interface for Win NT & 2000
Gap handling : Appended to previous track

Used output format : User Defined Encoder
Selected bitrate : 128 kBit/s
Quality : High
Add ID3 tag : No
Command line compressor : C:\Program Files (x86)\Exact Audio Copy\Flac\flac.exe
Additional command line options : -8 -V -T "ARTIST=%artist%" -T "TITLE=%title%" -T "ALBUM=%albumtitle%" -T "DATE=%year%" -T "TRACKNUMBER=%tracknr%" -T "TOTALTRACKS=%numtracks%" -T "GENRE=%genre%" -T "ALBUMARTIST=%albumartist%" -T "ALBUM ARTIST=%albumartist%" -T "COMMENT=EAC Secure Mode, Test & Copy, AccurateRip, FLAC -8" %source%


TOC of the extracted CD

Track | Start | Length | Start sector | End sector
––––––––––––––––––––––––––––-
1 | 0:00.00 | 4:08.39 | 0 | 18638
2 | 4:08.39 | 9:09.04 | 18639 | 59817
3 | 13:17.43 | 3:17.27 | 59818 | 74619
4 | 16:34.70 | 4:25.20 | 74620 | 94514
5 | 21:00.15 | 7:16.51 | 94515 | 127265
6 | 28:16.66 | 3:17.24 | 127266 | 142064
7 | 31:34.15 | 2:39.27 | 142065 | 154016
8 | 34:13.42 | 3:20.74 | 154017 | 169090
9 | 37:34.41 | 3:30.00 | 169091 | 184840
10 | 41:04.41 | 4:29.57 | 184841 | 205072
11 | 45:34.23 | 3:53.43 | 205073 | 222590
12 | 49:27.66 | 3:35.73 | 222591 | 238788
13 | 53:03.64 | 6:48.50 | 238789 | 269438
14 | 59:52.39 | 3:13.14 | 269439 | 283927
15 | 63:05.53 | 3:43.36 | 283928 | 300688
16 | 66:49.14 | 4:43.49 | 300689 | 321962
17 | 71:32.63 | 3:13.62 | 321963 | 336499


Track 1

Filename D:\_Post\101 Romantic\CD2\01 - National Philharmonic Orchestra - Verdi - La traviata - Act One. Prelude.wav

Pre-gap length 0:00:02.00

Peak level 54.2 %
Extraction speed 5.6 X
Track quality 100.0 %
Test CRC A9A5E422
Copy CRC A9A5E422
Accurately ripped (confidence 2) [1B8C384C] (AR v2)
Copy OK

Track 2

Filename D:\_Post\101 Romantic\CD2\02 - Wiener Philharmoniker - Khachaturian - Spartacus - Adagio of Spartacus and Phrygia.wav

Pre-gap length 0:00:02.60

Peak level 78.3 %
Extraction speed 6.5 X
Track quality 100.0 %
Test CRC 466C19ED
Copy CRC 466C19ED
Accurately ripped (confidence 2) [415E0ECA] (AR v2)
Copy OK

Track 3

Filename D:\_Post\101 Romantic\CD2\03 - William Bennett - Bach - Harpsichord Concerto in F minor, BWV 1056 - II. Largo.wav

Pre-gap length 0:00:02.36

Peak level 40.5 %
Extraction speed 6.4 X
Track quality 100.0 %
Test CRC 68FF8A14
Copy CRC 68FF8A14
Accurately ripped (confidence 2) [3837A9DD] (AR v2)
Copy OK

Track 4

Filename D:\_Post\101 Romantic\CD2\04 - Alexandre Lagoya - Marcello - Oboe Concerto in D minor - II. Andante sostenuto.wav

Pre-gap length 0:00:02.31

Peak level 42.1 %
Extraction speed 6.1 X
Track quality 99.9 %
Test CRC CC5D44DE
Copy CRC CC5D44DE
Accurately ripped (confidence 2) [2E1D8593] (AR v2)
Copy OK

Track 5

Filename D:\_Post\101 Romantic\CD2\05 - Radu Lupu - Mozart - Piano Concerto No. 21 in C major, K467 - II. Andante.wav

Pre-gap length 0:00:02.50

Peak level 42.8 %
Extraction speed 8.1 X
Track quality 100.0 %
Test CRC D99C84B3
Copy CRC D99C84B3
Accurately ripped (confidence 2) [364C1518] (AR v2)
Copy OK

Track 6

Filename D:\_Post\101 Romantic\CD2\06 - National Philharmonic Orchestra - Mascagni - Cavalleria rusticana - Intermezzo.wav

Pre-gap length 0:00:02.19

Peak level 46.0 %
Extraction speed 8.0 X
Track quality 100.0 %
Test CRC FC227426
Copy CRC FC227426
Accurately ripped (confidence 2) [0B9AF578] (AR v2)
Copy OK

Track 7

Filename D:\_Post\101 Romantic\CD2\07 - Janine Jansen - Shostakovich - Romance The Gadfly.wav

Pre-gap length 0:00:02.42

Peak level 54.2 %
Extraction speed 6.2 X
Track quality 99.9 %
Test CRC 53A5392C
Copy CRC 53A5392C
Accurately ripped (confidence 2) [D6890326] (AR v2)
Copy OK

Track 8

Filename D:\_Post\101 Romantic\CD2\08 - Jascha Silberstein - Saint-Saens - Le Cygne Le Carnaval des animaux.wav

Pre-gap length 0:00:02.04

Peak level 33.6 %
Extraction speed 8.3 X
Track quality 100.0 %
Test CRC 0C3BF28B
Copy CRC 0C3BF28B
Accurately ripped (confidence 2) [97AEC2F7] (AR v2)
Copy OK

Track 9

Filename D:\_Post\101 Romantic\CD2\09 - Prague Philharmonia - Horner - My Heart Will Go On.wav

Pre-gap length 0:00:02.23

Peak level 44.0 %
Extraction speed 8.6 X
Track quality 100.0 %
Test CRC 535BEB48
Copy CRC 535BEB48
Accurately ripped (confidence 2) [ACC2203C] (AR v2)
Copy OK

Track 10

Filename D:\_Post\101 Romantic\CD2\10 - English Chamber Orchestra - Grieg - Notturno Lyric Suite.wav

Pre-gap length 0:00:02.41

Peak level 68.6 %
Extraction speed 8.7 X
Track quality 100.0 %
Test CRC D0179DD4
Copy CRC D0179DD4
Accurately ripped (confidence 2) [62FBE84E] (AR v2)
Copy OK

Track 11

Filename D:\_Post\101 Romantic\CD2\11 - Peter Hurford - Saint-Saens - Symphony No. 3 in C minor, op.78 'Organ Symphony' - Ib. Poco adagio.wav

Pre-gap length 0:00:02.20

Peak level 50.8 %
Extraction speed 9.4 X
Track quality 100.0 %
Test CRC AA07CBFA
Copy CRC AA07CBFA
Accurately ripped (confidence 2) [F34BAE61] (AR v2)
Copy OK

Track 12

Filename D:\_Post\101 Romantic\CD2\12 - Wiener Philharmoniker - Tchaikovsky - The Sleeping Beauty, op.66 - Panorama.wav

Pre-gap length 0:00:02.26

Peak level 60.2 %
Extraction speed 9.3 X
Track quality 100.0 %
Test CRC 04E4BFD8
Copy CRC 04E4BFD8
Accurately ripped (confidence 2) [2FBE5A9E] (AR v2)
Copy OK

Track 13

Filename D:\_Post\101 Romantic\CD2\13 - Vladimir Ashkenazy - Tchaikovsky - Piano Concerto No. 1 in B flat minor, op.23 - II. Andantino semplice.wav

Pre-gap length 0:00:02.30

Peak level 89.4 %
Extraction speed 9.2 X
Track quality 99.9 %
Test CRC 5A9F55DB
Copy CRC 5A9F55DB
Accurately ripped (confidence 2) [988B5AE2] (AR v2)
Copy OK

Track 14

Filename D:\_Post\101 Romantic\CD2\14 - Orchestre symphonique de Montreal - Bizet - L'Arlesienne Suite No. 1 - Adagietto.wav

Pre-gap length 0:00:02.53

Peak level 33.4 %
Extraction speed 8.2 X
Track quality 99.9 %
Test CRC D31AF533
Copy CRC D31AF533
Accurately ripped (confidence 2) [23405DF0] (AR v2)
Copy OK

Track 15

Filename D:\_Post\101 Romantic\CD2\15 - Royal Philharmonic Orchestra - Elgar - Variations on an Original Theme, op.36 'Enigma' - Theme.wav

Pre-gap length 0:00:02.40

Peak level 93.0 %
Extraction speed 10.6 X
Track quality 100.0 %
Test CRC 06D16CF3
Copy CRC 06D16CF3
Accurately ripped (confidence 2) [D2E071AC] (AR v2)
Copy OK

Track 16

Filename D:\_Post\101 Romantic\CD2\16 - The Cleveland Orchestra - Prokofiev - Cinderella, op.87 - Duet of the Prince and Cinderella.wav

Pre-gap length 0:00:02.00

Peak level 81.4 %
Extraction speed 10.9 X
Track quality 100.0 %
Test CRC B8EE5F19
Copy CRC B8EE5F19
Accurately ripped (confidence 2) [B15E6E00] (AR v2)
Copy OK

Track 17

Filename D:\_Post\101 Romantic\CD2\17 - Wiener Philharmoniker - Tchaikovsky - Romeo and Juliet, Fantasy Overture - Love Theme.wav

Pre-gap length 0:00:02.48

Peak level 30.2 %
Extraction speed 10.2 X
Track quality 100.0 %
Test CRC 29BF3F8E
Copy CRC 29BF3F8E
Accurately ripped (confidence 2) [26087F9A] (AR v2)
Copy OK


All tracks accurately ripped

No errors occurred

End of status report

–– CUETools DB Plugin V2.1.6

[CTDB TOCID: TZrcQ9dN2i8vo1uWVQkO9q7AMdo-] found
Submit result: TZrcQ9dN2i8vo1uWVQkO9q7AMdo- has been confirmed
Track | CTDB Status
1 | (6/6) Accurately ripped
2 | (6/6) Accurately ripped
3 | (6/6) Accurately ripped
4 | (6/6) Accurately ripped
5 | (6/6) Accurately ripped
6 | (6/6) Accurately ripped
7 | (6/6) Accurately ripped
8 | (6/6) Accurately ripped
9 | (6/6) Accurately ripped
10 | (6/6) Accurately ripped
11 | (6/6) Accurately ripped
12 | (6/6) Accurately ripped
13 | (6/6) Accurately ripped
14 | (6/6) Accurately ripped
15 | (6/6) Accurately ripped
16 | (6/6) Accurately ripped
17 | (6/6) Accurately ripped


==== Log checksum B2B07F7BFF7EAABD77BAB3F0C3E21AAB862E82B21FCACAF4DAC14A8316314CFD ====

Exact Audio Copy V1.3 from 2. September 2016

EAC extraction logfile from 23. January 2017, 21:53

Various Artists / 101 Romantic Classics (CD3)

Used drive : ASUS DRW-24B1ST i Adapter: 1 ID: 0

Read mode : Secure
Utilize accurate stream : Yes
Defeat audio cache : Yes
Make use of C2 pointers : No

Read offset correction : 6
Overread into Lead-In and Lead-Out : No
Fill up missing offset samples with silence : Yes
Delete leading and trailing silent blocks : No
Null samples used in CRC calculations : Yes
Used interface : Native Win32 interface for Win NT & 2000
Gap handling : Appended to previous track

Used output format : User Defined Encoder
Selected bitrate : 128 kBit/s
Quality : High
Add ID3 tag : No
Command line compressor : C:\Program Files (x86)\Exact Audio Copy\Flac\flac.exe
Additional command line options : -8 -V -T "ARTIST=%artist%" -T "TITLE=%title%" -T "ALBUM=%albumtitle%" -T "DATE=%year%" -T "TRACKNUMBER=%tracknr%" -T "TOTALTRACKS=%numtracks%" -T "GENRE=%genre%" -T "ALBUMARTIST=%albumartist%" -T "ALBUM ARTIST=%albumartist%" -T "COMMENT=EAC Secure Mode, Test & Copy, AccurateRip, FLAC -8" %source%


TOC of the extracted CD

Track | Start | Length | Start sector | End sector
––––––––––––––––––––––––––––-
1 | 0:00.00 | 6:11.33 | 0 | 27857
2 | 6:11.33 | 4:04.07 | 27858 | 46164
3 | 10:15.40 | 5:03.17 | 46165 | 68906
4 | 15:18.57 | 2:31.23 | 68907 | 80254
5 | 17:50.05 | 7:00.42 | 80255 | 111796
6 | 24:50.47 | 3:44.61 | 111797 | 128657
7 | 28:35.33 | 3:12.19 | 128658 | 143076
8 | 31:47.52 | 3:02.53 | 143077 | 156779
9 | 34:50.30 | 3:29.51 | 156780 | 172505
10 | 38:20.06 | 7:45.02 | 172506 | 207382
11 | 46:05.08 | 5:50.26 | 207383 | 233658
12 | 51:55.34 | 1:59.54 | 233659 | 242637
13 | 53:55.13 | 3:52.69 | 242638 | 260106
14 | 57:48.07 | 5:27.67 | 260107 | 284698
15 | 63:15.74 | 5:48.36 | 284699 | 310834
16 | 69:04.35 | 11:22.66 | 310835 | 362050


Track 1

Filename D:\_Post\101 Romantic\CD3\01 - Wiener Philharmoniker - Beethoven - Piano Sonata No. 14 in C sharp minor, op.27 no.2 'Moonlight' - I. Adagio sostenuto.wav

Pre-gap length 0:00:02.00

Peak level 21.8 %
Extraction speed 5.8 X
Track quality 100.0 %
Test CRC 32DBFFB5
Copy CRC 32DBFFB5
Accurately ripped (confidence 2) [DD6C38AB] (AR v2)
Copy OK

Track 2

Filename D:\_Post\101 Romantic\CD3\02 - Vladimir Ashkenazy - Chopin - Nocturne in E flat major, op.9 no.2.wav

Pre-gap length 0:00:02.61

Peak level 63.8 %
Extraction speed 6.1 X
Track quality 100.0 %
Test CRC 2A68C7EB
Copy CRC 2A68C7EB
Accurately ripped (confidence 2) [0AC3B4BE] (AR v2)
Copy OK

Track 3

Filename D:\_Post\101 Romantic\CD3\03 - Vladimir Ashkenazy - Chopin - Nocturne in D flat major, op.57.wav

Pre-gap length 0:00:02.58

Peak level 23.7 %
Extraction speed 6.6 X
Track quality 100.0 %
Test CRC 9F27C5F5
Copy CRC 9F27C5F5
Accurately ripped (confidence 2) [36A6770D] (AR v2)
Copy OK

Track 4

Filename D:\_Post\101 Romantic\CD3\04 - Radu Lupu - Traumerei Kinderszenen.wav

Pre-gap length 0:00:02.61

Peak level 21.8 %
Extraction speed 6.4 X
Track quality 100.0 %
Test CRC 8AF105F9
Copy CRC 8AF105F9
Accurately ripped (confidence 2) [3AE7AFAB] (AR v2)
Copy OK

Track 5

Filename D:\_Post\101 Romantic\CD3\05 - Jorge Bolet - Liszt - Sonetto 104 del Petrarca - Annees de pelerinage.wav

Pre-gap length 0:00:02.65

Peak level 70.5 %
Extraction speed 7.2 X
Track quality 100.0 %
Test CRC E9B3EACE
Copy CRC E9B3EACE
Accurately ripped (confidence 2) [8091B323] (AR v2)
Copy OK

Track 6

Filename D:\_Post\101 Romantic\CD3\06 - Pascal Roge - Satie - Gnossienne No. 1.wav

Pre-gap length 0:00:02.31

Peak level 31.5 %
Extraction speed 7.2 X
Track quality 100.0 %
Test CRC 4A908D23
Copy CRC 4A908D23
Accurately ripped (confidence 2) [044F0391] (AR v2)
Copy OK

Track 7

Filename D:\_Post\101 Romantic\CD3\07 - Pascal Roge - Satie - Gnossienne No. 3.wav

Pre-gap length 0:00:02.49

Peak level 29.8 %
Extraction speed 5.9 X
Track quality 99.9 %
Test CRC 93FFFE2A
Copy CRC 93FFFE2A
Accurately ripped (confidence 2) [4A725F87] (AR v2)
Copy OK

Track 8

Filename D:\_Post\101 Romantic\CD3\08 - Vladimir Ashkenazy - Chopin - Nocturne in C minor.wav

Pre-gap length 0:00:02.46

Peak level 42.6 %
Extraction speed 7.7 X
Track quality 100.0 %
Test CRC 225FA9D5
Copy CRC 225FA9D5
Accurately ripped (confidence 2) [46946288] (AR v2)
Copy OK

Track 9

Filename D:\_Post\101 Romantic\CD3\09 - Vladimir Ashkenazy - Chopin - Waltz in C sharp minor, op.64 no.2.wav

Pre-gap length 0:00:02.06

Peak level 60.5 %
Extraction speed 7.9 X
Track quality 100.0 %
Test CRC 813DD075
Copy CRC 813DD075
Accurately ripped (confidence 2) [FE5E14A4] (AR v2)
Copy OK

Track 10

Filename D:\_Post\101 Romantic\CD3\10 - Pascal Roge - Faure - Nocturne No. 1 in E flat major, op.33 no.1.wav

Pre-gap length 0:00:02.46

Peak level 70.1 %
Extraction speed 9.1 X
Track quality 100.0 %
Test CRC 1D65DF01
Copy CRC 1D65DF01
Accurately ripped (confidence 2) [B413D211] (AR v2)
Copy OK

Track 11

Filename D:\_Post\101 Romantic\CD3\11 - Vladimir Ashkenazy - Chopin - Nocturne in D flat major, op.27 no.2.wav

Pre-gap length 0:00:02.01

Peak level 54.6 %
Extraction speed 9.3 X
Track quality 100.0 %
Test CRC AB5EB4AD
Copy CRC AB5EB4AD
Accurately ripped (confidence 2) [93030FF0] (AR v2)
Copy OK

Track 12

Filename D:\_Post\101 Romantic\CD3\12 - Vladimir Ashkenazy - Chopin - Mazurka in G minor, op.67 no.2.wav

Pre-gap length 0:00:02.57

Peak level 39.6 %
Extraction speed 8.4 X
Track quality 100.0 %
Test CRC 331A336C
Copy CRC 331A336C
Accurately ripped (confidence 2) [3C1DA78D] (AR v2)
Copy OK

Track 13

Filename D:\_Post\101 Romantic\CD3\13 - Jorge Bolet - Liszt - Consolation No. 3.wav

Pre-gap length 0:00:02.16

Peak level 38.6 %
Extraction speed 9.4 X
Track quality 100.0 %
Test CRC 10AE5953
Copy CRC 10AE5953
Accurately ripped (confidence 2) [4FFDE33C] (AR v2)
Copy OK

Track 14

Filename D:\_Post\101 Romantic\CD3\14 - Wiener Philharmoniker - Tchaikovsky - June - Barcarolle - The Seasons.wav

Pre-gap length 0:00:02.29

Peak level 40.8 %
Extraction speed 10.0 X
Track quality 100.0 %
Test CRC 33B4535E
Copy CRC 33B4535E
Accurately ripped (confidence 2) [A1A90B92] (AR v2)
Copy OK

Track 15

Filename D:\_Post\101 Romantic\CD3\15 - Vladimir Ashkenazy - Chopin - Nocturne in B flat minor, op.9 no.1.wav

Pre-gap length 0:00:02.48

Peak level 41.3 %
Extraction speed 10.2 X
Track quality 100.0 %
Test CRC 50D2BB22
Copy CRC 50D2BB22
Accurately ripped (confidence 2) [AF6FB089] (AR v2)
Copy OK

Track 16

Filename D:\_Post\101 Romantic\CD3\16 - Vladimir Ashkenazy - Chopin - Ballade No. 4 in F minor, op.52.wav

Pre-gap length 0:00:02.38

Peak level 88.9 %
Extraction speed 11.4 X
Track quality 100.0 %
Test CRC 8F6FBE2A
Copy CRC 8F6FBE2A
Accurately ripped (confidence 2) [E1F1FB8C] (AR v2)
Copy OK


All tracks accurately ripped

No errors occurred

End of status report

–– CUETools DB Plugin V2.1.6

[CTDB TOCID: KJKeC_W4yjlebLBQhCG3bRQofcY-] found
Submit result: KJKeC_W4yjlebLBQhCG3bRQofcY- has been confirmed
Track | CTDB Status
1 | (6/6) Accurately ripped
2 | (6/6) Accurately ripped
3 | (6/6) Accurately ripped
4 | (6/6) Accurately ripped
5 | (6/6) Accurately ripped
6 | (6/6) Accurately ripped
7 | (6/6) Accurately ripped
8 | (6/6) Accurately ripped
9 | (6/6) Accurately ripped
10 | (6/6) Accurately ripped
11 | (6/6) Accurately ripped
12 | (6/6) Accurately ripped
13 | (6/6) Accurately ripped
14 | (6/6) Accurately ripped
15 | (6/6) Accurately ripped
16 | (6/6) Accurately ripped


==== Log checksum EDA17DE8B5D212FBCB7197453104BED907F6D105C51F39568B6C6B06A0B8686F ====

Exact Audio Copy V1.3 from 2. September 2016

EAC extraction logfile from 23. January 2017, 22:26

Various Artists / Romantic Classics (CD4)

Used drive : ASUS DRW-24B1ST i Adapter: 1 ID: 0

Read mode : Secure
Utilize accurate stream : Yes
Defeat audio cache : Yes
Make use of C2 pointers : No

Read offset correction : 6
Overread into Lead-In and Lead-Out : No
Fill up missing offset samples with silence : Yes
Delete leading and trailing silent blocks : No
Null samples used in CRC calculations : Yes
Used interface : Native Win32 interface for Win NT & 2000
Gap handling : Appended to previous track

Used output format : User Defined Encoder
Selected bitrate : 128 kBit/s
Quality : High
Add ID3 tag : No
Command line compressor : C:\Program Files (x86)\Exact Audio Copy\Flac\flac.exe
Additional command line options : -8 -V -T "ARTIST=%artist%" -T "TITLE=%title%" -T "ALBUM=%albumtitle%" -T "DATE=%year%" -T "TRACKNUMBER=%tracknr%" -T "TOTALTRACKS=%numtracks%" -T "GENRE=%genre%" -T "ALBUMARTIST=%albumartist%" -T "ALBUM ARTIST=%albumartist%" -T "COMMENT=EAC Secure Mode, Test & Copy, AccurateRip, FLAC -8" %source%


TOC of the extracted CD

Track | Start | Length | Start sector | End sector
––––––––––––––––––––––––––––-
1 | 0:00.00 | 5:34.39 | 0 | 25088
2 | 5:34.39 | 4:03.53 | 25089 | 43366
3 | 9:38.17 | 3:33.62 | 43367 | 59403
4 | 13:12.04 | 5:13.53 | 59404 | 82931
5 | 18:25.57 | 0:59.44 | 82932 | 87400
6 | 19:25.26 | 4:54.62 | 87401 | 109512
7 | 24:20.13 | 4:57.01 | 109513 | 131788
8 | 29:17.14 | 3:50.00 | 131789 | 149038
9 | 33:07.14 | 5:07.72 | 149039 | 172135
10 | 38:15.11 | 5:17.72 | 172136 | 195982
11 | 43:33.08 | 2:07.27 | 195983 | 205534
12 | 45:40.35 | 4:17.56 | 205535 | 224865
13 | 49:58.16 | 4:24.05 | 224866 | 244670
14 | 54:22.21 | 3:44.54 | 244671 | 261524
15 | 58:07.00 | 5:01.18 | 261525 | 284117
16 | 63:08.18 | 5:35.56 | 284118 | 309298
17 | 68:43.74 | 6:34.69 | 309299 | 338917
18 | 75:18.68 | 1:29.52 | 338918 | 345644
19 | 76:48.45 | 4:01.05 | 345645 | 363724


Track 1

Filename D:\_Post\101 Romantic\CD4\01 - Pascal Roge - Debussy - Clair de Lune Suite bergamasque.wav

Pre-gap length 0:00:02.00

Peak level 63.1 %
Extraction speed 5.7 X
Track quality 100.0 %
Test CRC 2250DB6C
Copy CRC 2250DB6C
Accurately ripped (confidence 2) [3DBD6182] (AR v2)
Copy OK

Track 2

Filename D:\_Post\101 Romantic\CD4\02 - Vladimir Ashkenazy - Chopin - Nocturne in C sharp minor, op.posth..wav

Pre-gap length 0:00:02.65

Peak level 40.3 %
Extraction speed 5.0 X
Track quality 99.9 %
Test CRC 3D384EB6
Copy CRC 3D384EB6
Accurately ripped (confidence 2) [4728842F] (AR v2)
Copy OK

Track 3

Filename D:\_Post\101 Romantic\CD4\03 - Pascal Roge - Satie - Gnossienne No. 4.wav

Pre-gap length 0:00:02.63

Peak level 38.9 %
Extraction speed 6.1 X
Track quality 100.0 %
Test CRC E3CD66F2
Copy CRC E3CD66F2
Accurately ripped (confidence 2) [418E3F8C] (AR v2)
Copy OK

Track 4

Filename D:\_Post\101 Romantic\CD4\04 - Pascal Roge - Satie - Je te veux.wav

Pre-gap length 0:00:02.54

Peak level 73.1 %
Extraction speed 5.9 X
Track quality 99.9 %
Test CRC 15327DAF
Copy CRC 15327DAF
Accurately ripped (confidence 2) [109B9FDA] (AR v2)
Copy OK

Track 5

Filename D:\_Post\101 Romantic\CD4\05 - Vladimir Ashkenazy - Chopin - Prelude in A major, op.28 no.7.wav

Pre-gap length 0:00:02.46

Peak level 17.2 %
Extraction speed 5.0 X
Track quality 100.0 %
Test CRC 16A6842F
Copy CRC 16A6842F
Accurately ripped (confidence 2) [7C4C067D] (AR v2)
Copy OK

Track 6

Filename D:\_Post\101 Romantic\CD4\06 - Jorge Bolet - Chopin - Nocturne in F minor, op.55 no.1.wav

Pre-gap length 0:00:02.40

Peak level 76.5 %
Extraction speed 6.4 X
Track quality 99.9 %
Test CRC A027DBF6
Copy CRC A027DBF6
Accurately ripped (confidence 2) [8EE14D35] (AR v2)
Copy OK

Track 7

Filename D:\_Post\101 Romantic\CD4\07 - Vladimir Ashkenazy - Liszt - Liebestraum No. 3 in A flat major, S541.wav

Pre-gap length 0:00:02.22

Peak level 90.5 %
Extraction speed 7.7 X
Track quality 100.0 %
Test CRC BDAAA938
Copy CRC BDAAA938
Accurately ripped (confidence 2) [6684ADF1] (AR v2)
Copy OK

Track 8

Filename D:\_Post\101 Romantic\CD4\08 - Vladimir Ashkenazy - Chopin - Nocturne in F sharp major, op.15 no.2.wav

Pre-gap length 0:00:02.29

Peak level 54.6 %
Extraction speed 7.7 X
Track quality 100.0 %
Test CRC 729BB181
Copy CRC 729BB181
Accurately ripped (confidence 2) [8290812D] (AR v2)
Copy OK

Track 9

Filename D:\_Post\101 Romantic\CD4\09 - Vladimir Ashkenazy - Chopin - Nocturne in B major, op.32 no.1.wav

Pre-gap length 0:00:02.16

Peak level 69.1 %
Extraction speed 8.5 X
Track quality 100.0 %
Test CRC 203ECB0F
Copy CRC 203ECB0F
Accurately ripped (confidence 2) [7B57ABB0] (AR v2)
Copy OK

Track 10

Filename D:\_Post\101 Romantic\CD4\10 - Vladimir Ashkenazy - Tchaikovsky - October - To Autumn - The Seasons.wav

Pre-gap length 0:00:02.42

Peak level 34.8 %
Extraction speed 8.4 X
Track quality 100.0 %
Test CRC C0569F02
Copy CRC C0569F02
Accurately ripped (confidence 2) [31B9D47C] (AR v2)
Copy OK

Track 11

Filename D:\_Post\101 Romantic\CD4\11 - Joseph Cooper - Macdowell - To a Wild Rose, op.51 no.1.wav

Pre-gap length 0:00:02.16

Peak level 55.3 %
Extraction speed 7.9 X
Track quality 100.0 %
Test CRC D7C6BE50
Copy CRC D7C6BE50
Accurately ripped (confidence 2) [8581A19C] (AR v2)
Copy OK

Track 12

Filename D:\_Post\101 Romantic\CD4\12 - Shura Cherkassky - Rubinstein - Melody in F major, op.3 no.1.wav

Pre-gap length 0:00:02.37

Peak level 62.9 %
Extraction speed 9.0 X
Track quality 100.0 %
Test CRC 4457BDE3
Copy CRC 4457BDE3
Accurately ripped (confidence 2) [B57D1BF1] (AR v2)
Copy OK

Track 13

Filename D:\_Post\101 Romantic\CD4\13 - Vladimir Ashkenazy - Chopin - Etude in E major, op.10 no.3 'Tristesse'.wav

Pre-gap length 0:00:02.01

Peak level 88.1 %
Extraction speed 9.6 X
Track quality 100.0 %
Test CRC 702A051E
Copy CRC 702A051E
Accurately ripped (confidence 2) [258DB9F5] (AR v2)
Copy OK

Track 14

Filename D:\_Post\101 Romantic\CD4\14 - Vladimir Ashkenazy - Chopin - Waltz in B minor, op.69 no.2.wav

Pre-gap length 0:00:02.27

Peak level 46.1 %
Extraction speed 9.7 X
Track quality 100.0 %
Test CRC 1BD526EA
Copy CRC 1BD526EA
Accurately ripped (confidence 2) [1DCA658F] (AR v2)
Copy OK

Track 15

Filename D:\_Post\101 Romantic\CD4\15 - Vladimir Ashkenazy - Beethoven - Piano Sonata No. 8 in C minor, op.13 'Pathetique' - II. Adagio cantabile.wav

Pre-gap length 0:00:02.43

Peak level 47.7 %
Extraction speed 9.5 X
Track quality 100.0 %
Test CRC 50F9AC36
Copy CRC 50F9AC36
Accurately ripped (confidence 2) [886A6D3B] (AR v2)
Copy OK

Track 16

Filename D:\_Post\101 Romantic\CD4\16 - Jorge Bolet - Liszt - Un sospiro, S144 no.3.wav

Pre-gap length 0:00:02.54

Peak level 67.8 %
Extraction speed 10.2 X
Track quality 100.0 %
Test CRC C71C98A0
Copy CRC C71C98A0
Accurately ripped (confidence 2) [3AC47EAE] (AR v2)
Copy OK

Track 17

Filename D:\_Post\101 Romantic\CD4\17 - Radu Lupu - Schubert - Impromptu in G flat major, op.90 no.3.wav

Pre-gap length 0:00:02.37

Peak level 48.0 %
Extraction speed 10.8 X
Track quality 100.0 %
Test CRC 3E3AC0D8
Copy CRC 3E3AC0D8
Accurately ripped (confidence 2) [D9F1060B] (AR v2)
Copy OK

Track 18

Filename D:\_Post\101 Romantic\CD4\18 - Vladimir Ashkenazy - Chopin - Mazurka in C major, op.67 no.3.wav

Pre-gap length 0:00:02.58

Peak level 57.2 %
Extraction speed 7.9 X
Track quality 100.0 %
Test CRC 9B84A00C
Copy CRC 9B84A00C
Accurately ripped (confidence 2) [5B0F56C9] (AR v2)
Copy OK

Track 19

Filename D:\_Post\101 Romantic\CD4\19 - Vladimir Ashkenazy - Chopin - Waltz in A flat major, op.69 no.1 'Farewell'.wav

Pre-gap length 0:00:02.28

Peak level 55.4 %
Extraction speed 11.2 X
Track quality 100.0 %
Test CRC 82A98FA7
Copy CRC 82A98FA7
Accurately ripped (confidence 2) [2C047145] (AR v2)
Copy OK


All tracks accurately ripped

No errors occurred

End of status report

–– CUETools DB Plugin V2.1.6

[CTDB TOCID: DE76MRLyffVgATpJWmGXcUs3x6M-] found
Submit result: DE76MRLyffVgATpJWmGXcUs3x6M- has been confirmed
Track | CTDB Status
1 | (5/5) Accurately ripped
2 | (5/5) Accurately ripped
3 | (5/5) Accurately ripped
4 | (5/5) Accurately ripped
5 | (5/5) Accurately ripped
6 | (5/5) Accurately ripped
7 | (5/5) Accurately ripped
8 | (5/5) Accurately ripped
9 | (5/5) Accurately ripped
10 | (5/5) Accurately ripped
11 | (5/5) Accurately ripped
12 | (5/5) Accurately ripped
13 | (5/5) Accurately ripped
14 | (5/5) Accurately ripped
15 | (5/5) Accurately ripped
16 | (5/5) Accurately ripped
17 | (5/5) Accurately ripped
18 | (5/5) Accurately ripped
19 | (5/5) Accurately ripped


==== Log checksum 0A1BAACD0645DE96ABE82CEC32FCCC100CE9D4AD9D3C8FDD7DAF15742C1CBB1E ====

Exact Audio Copy V1.3 from 2. September 2016

EAC extraction logfile from 23. January 2017, 23:02

Various Artists / 101 Romantic Classics (CD5)

Used drive : ASUS DRW-24B1ST i Adapter: 1 ID: 0

Read mode : Secure
Utilize accurate stream : Yes
Defeat audio cache : Yes
Make use of C2 pointers : No

Read offset correction : 6
Overread into Lead-In and Lead-Out : No
Fill up missing offset samples with silence : Yes
Delete leading and trailing silent blocks : No
Null samples used in CRC calculations : Yes
Used interface : Native Win32 interface for Win NT & 2000
Gap handling : Appended to previous track

Used output format : User Defined Encoder
Selected bitrate : 128 kBit/s
Quality : High
Add ID3 tag : No
Command line compressor : C:\Program Files (x86)\Exact Audio Copy\Flac\flac.exe
Additional command line options : -8 -V -T "ARTIST=%artist%" -T "TITLE=%title%" -T "ALBUM=%albumtitle%" -T "DATE=%year%" -T "TRACKNUMBER=%tracknr%" -T "TOTALTRACKS=%numtracks%" -T "GENRE=%genre%" -T "ALBUMARTIST=%albumartist%" -T "ALBUM ARTIST=%albumartist%" -T "COMMENT=EAC Secure Mode, Test & Copy, AccurateRip, FLAC -8" %source%


TOC of the extracted CD

Track | Start | Length | Start sector | End sector
––––––––––––––––––––––––––––-
1 | 0:00.00 | 4:42.53 | 0 | 21202
2 | 4:42.53 | 6:14.46 | 21203 | 49298
3 | 10:57.24 | 5:16.07 | 49299 | 73005
4 | 16:13.31 | 4:20.26 | 73006 | 92531
5 | 20:33.57 | 2:12.51 | 92532 | 102482
6 | 22:46.33 | 9:35.00 | 102483 | 145607
7 | 32:21.33 | 4:43.31 | 145608 | 166863
8 | 37:04.64 | 4:25.42 | 166864 | 186780
9 | 41:30.31 | 3:58.44 | 186781 | 204674
10 | 45:29.00 | 4:12.34 | 204675 | 223608
11 | 49:41.34 | 2:44.41 | 223609 | 235949
12 | 52:26.00 | 2:15.46 | 235950 | 246120
13 | 54:41.46 | 3:20.68 | 246121 | 261188
14 | 58:02.39 | 8:36.24 | 261189 | 299912
15 | 66:38.63 | 5:39.32 | 299913 | 325369
16 | 72:18.20 | 4:12.57 | 325370 | 344326


Track 1

Filename D:\_Post\101 Romantic\CD5\01 - Luciano Pavarotti - Puccini - Che gelida manina (La Boheme).wav

Pre-gap length 0:00:02.00

Peak level 95.3 %
Extraction speed 5.5 X
Track quality 100.0 %
Test CRC 8E372182
Copy CRC 8E372182
Accurately ripped (confidence 4) [CFA12E10] (AR v2)
Copy OK

Track 2

Filename D:\_Post\101 Romantic\CD5\02 - Joan Sutherland - Verdi - Gualtier Malde … Caro nome (Rigoletto).wav

Pre-gap length 0:00:02.01

Peak level 45.5 %
Extraction speed 6.1 X
Track quality 100.0 %
Test CRC DF1347DD
Copy CRC DF1347DD
Accurately ripped (confidence 4) [DA923C8E] (AR v2)
Copy OK

Track 3

Filename D:\_Post\101 Romantic\CD5\03 - Leontyne Price - Puccini - Ah, quegli occhi … Qual occhio al mondo puo star di paro (Tosca).wav

Pre-gap length 0:00:02.01

Peak level 79.9 %
Extraction speed 6.7 X
Track quality 100.0 %
Test CRC 915D5B92
Copy CRC 915D5B92
Accurately ripped (confidence 4) [2CF00A16] (AR v2)
Copy OK

Track 4

Filename D:\_Post\101 Romantic\CD5\04 - Marilyn Horne - Bizet - L'amour est un oiseau rebelle (Havanaise) (Carmen).wav

Pre-gap length 0:00:02.01

Peak level 75.8 %
Extraction speed 7.3 X
Track quality 100.0 %
Test CRC 7188FB15
Copy CRC 7188FB15
Accurately ripped (confidence 4) [27C62376] (AR v2)
Copy OK

Track 5

Filename D:\_Post\101 Romantic\CD5\05 - Jose Carreras - Puccini - Donna non vidi mai (Manon Lescaut).wav

Pre-gap length 0:00:02.01

Peak level 88.8 %
Extraction speed 6.9 X
Track quality 100.0 %
Test CRC 28ABFDD1
Copy CRC 28ABFDD1
Accurately ripped (confidence 4) [88B2D02E] (AR v2)
Copy OK

Track 6

Filename D:\_Post\101 Romantic\CD5\06 - Carlo Cossutta - Verdi - Gia nella notte densa … Venga la morte (Otello).wav

Pre-gap length 0:00:02.01

Peak level 65.6 %
Extraction speed 7.6 X
Track quality 99.9 %
Test CRC 35544F69
Copy CRC 35544F69
Accurately ripped (confidence 4) [078B17B2] (AR v2)
Copy OK

Track 7

Filename D:\_Post\101 Romantic\CD5\07 - Jon Vickers - Verdi - Se quel guerruier io fossi! … Celeste Aida (Aida).wav

Pre-gap length 0:00:02.01

Peak level 78.8 %
Extraction speed 8.4 X
Track quality 100.0 %
Test CRC 0694426C
Copy CRC 0694426C
Accurately ripped (confidence 4) [D0CC5C5F] (AR v2)
Copy OK

Track 8

Filename D:\_Post\101 Romantic\CD5\08 - Regine Crespin - Puccini - Un del di vedremo (Madama Butterfly).wav

Pre-gap length 0:00:02.01

Peak level 74.3 %
Extraction speed 8.9 X
Track quality 100.0 %
Test CRC 5CEBBE82
Copy CRC 5CEBBE82
Accurately ripped (confidence 4) [BD46EA76] (AR v2)
Copy OK

Track 9

Filename D:\_Post\101 Romantic\CD5\09 - Placido Domingo - Bizet - La fleur que tu m'avais jetee (Flower Song) (Carmen).wav

Pre-gap length 0:00:02.01

Peak level 61.7 %
Extraction speed 8.2 X
Track quality 100.0 %
Test CRC 297F543A
Copy CRC 297F543A
Accurately ripped (confidence 4) [2721F054] (AR v2)
Copy OK

Track 10

Filename D:\_Post\101 Romantic\CD5\10 - Joan Sutherland - Offenbach - Belle nuit, o nuit d'amour (Barcarolle) (Les Contes d'Hoffmann).wav

Pre-gap length 0:00:02.01

Peak level 50.2 %
Extraction speed 9.0 X
Track quality 100.0 %
Test CRC DD28CD90
Copy CRC DD28CD90
Accurately ripped (confidence 4) [D3C78628] (AR v2)
Copy OK

Track 11

Filename D:\_Post\101 Romantic\CD5\11 - Montserrat Caballe - Puccini - Signore, ascolta (Turandot).wav

Pre-gap length 0:00:02.01

Peak level 81.1 %
Extraction speed 8.8 X
Track quality 100.0 %
Test CRC D1974E90
Copy CRC D1974E90
Accurately ripped (confidence 4) [7A9B1B60] (AR v2)
Copy OK

Track 12

Filename D:\_Post\101 Romantic\CD5\12 - Bryn Terfel - Mozart - Deh! vieni alla finestra (Don Giovanni).wav

Pre-gap length 0:00:01.64

Peak level 48.0 %
Extraction speed 8.6 X
Track quality 100.0 %
Test CRC 5112C01F
Copy CRC 5112C01F
Accurately ripped (confidence 4) [8E64FCFD] (AR v2)
Copy OK

Track 13

Filename D:\_Post\101 Romantic\CD5\13 - Kiri Te Kanawa - Puccini - Vissi d'arte, vissi d'amore (Tosca).wav

Pre-gap length 0:00:02.01

Peak level 99.9 %
Extraction speed 9.1 X
Track quality 100.0 %
Test CRC 6A998AEA
Copy CRC 6A998AEA
Accurately ripped (confidence 4) [BB511261] (AR v2)
Copy OK

Track 14

Filename D:\_Post\101 Romantic\CD5\14 - Kiri Te Kanawa - Puccini - Oh, saro la piu bella! … Tu, Tu, amore tu (Manon Lescaut).wav

Pre-gap length 0:00:02.01

Peak level 99.9 %
Extraction speed 10.2 X
Track quality 100.0 %
Test CRC ACEEEF29
Copy CRC ACEEEF29
Accurately ripped (confidence 4) [20E5694F] (AR v2)
Copy OK

Track 15

Filename D:\_Post\101 Romantic\CD5\15 - Regina Resnik - Saint Saens - Mon caeur s'ouvre a ta voix (Samson et Dalila).wav

Pre-gap length 0:00:02.01

Peak level 62.2 %
Extraction speed 10.5 X
Track quality 100.0 %
Test CRC 7DEB814F
Copy CRC 7DEB814F
Accurately ripped (confidence 4) [A4D2223C] (AR v2)
Copy OK

Track 16

Filename D:\_Post\101 Romantic\CD5\16 - Luciano Pavarotti - Puccini - O soave fanciulla (La Boheme).wav

Pre-gap length 0:00:02.01

Peak level 79.5 %
Extraction speed 10.2 X
Track quality 100.0 %
Test CRC 197803CE
Copy CRC 197803CE
Accurately ripped (confidence 4) [9DBBEBBB] (AR v2)
Copy OK


All tracks accurately ripped

No errors occurred

End of status report

–– CUETools DB Plugin V2.1.6

[CTDB TOCID: 0mtVHYYLbQnfkonxrtrEq2FYah4-] found
Submit result: 0mtVHYYLbQnfkonxrtrEq2FYah4- has been confirmed
Track | CTDB Status
1 | (10/10) Accurately ripped
2 | ( 9/10) Accurately ripped
3 | ( 9/10) Accurately ripped
4 | ( 9/10) Accurately ripped
5 | ( 9/10) Accurately ripped
6 | ( 9/10) Accurately ripped
7 | ( 9/10) Accurately ripped
8 | ( 9/10) Accurately ripped
9 | ( 9/10) Accurately ripped
10 | ( 9/10) Accurately ripped
11 | ( 9/10) Accurately ripped
12 | ( 9/10) Accurately ripped
13 | ( 9/10) Accurately ripped
14 | ( 9/10) Accurately ripped
15 | ( 9/10) Accurately ripped
16 | ( 9/10) Accurately ripped


==== Log checksum 7BC935F7D8930EFF26B19C643A76F7A2882F0D42ED4A52EF3D1B4EC49D713430 ====

Exact Audio Copy V1.3 from 2. September 2016

EAC extraction logfile from 24. January 2017, 6:46

Various Artists / 101 Romantic Classics (CD6)

Used drive : ASUS DRW-24B1ST i Adapter: 1 ID: 0

Read mode : Secure
Utilize accurate stream : Yes
Defeat audio cache : Yes
Make use of C2 pointers : No

Read offset correction : 6
Overread into Lead-In and Lead-Out : No
Fill up missing offset samples with silence : Yes
Delete leading and trailing silent blocks : No
Null samples used in CRC calculations : Yes
Used interface : Native Win32 interface for Win NT & 2000
Gap handling : Appended to previous track

Used output format : User Defined Encoder
Selected bitrate : 128 kBit/s
Quality : High
Add ID3 tag : No
Command line compressor : C:\Program Files (x86)\Exact Audio Copy\Flac\flac.exe
Additional command line options : -8 -V -T "ARTIST=%artist%" -T "TITLE=%title%" -T "ALBUM=%albumtitle%" -T "DATE=%year%" -T "TRACKNUMBER=%tracknr%" -T "TOTALTRACKS=%numtracks%" -T "GENRE=%genre%" -T "ALBUMARTIST=%albumartist%" -T "ALBUM ARTIST=%albumartist%" -T "COMMENT=EAC Secure Mode, Test & Copy, AccurateRip, FLAC -8" %source%


TOC of the extracted CD

Track | Start | Length | Start sector | End sector
––––––––––––––––––––––––––––-
1 | 0:00.00 | 3:26.07 | 0 | 15456
2 | 3:26.07 | 6:12.07 | 15457 | 43363
3 | 9:38.14 | 7:57.38 | 43364 | 79176
4 | 17:35.52 | 3:42.56 | 79177 | 95882
5 | 21:18.33 | 3:02.16 | 95883 | 109548
6 | 24:20.49 | 3:07.01 | 109549 | 123574
7 | 27:27.50 | 4:24.30 | 123575 | 143404
8 | 31:52.05 | 3:21.31 | 143405 | 158510
9 | 35:13.36 | 3:47.36 | 158511 | 175571
10 | 39:00.72 | 1:56.47 | 175572 | 184318
11 | 40:57.44 | 4:27.00 | 184319 | 204343
12 | 45:24.44 | 2:12.64 | 204344 | 214307
13 | 47:37.33 | 3:10.24 | 214308 | 228581
14 | 50:47.57 | 3:27.30 | 228582 | 244136
15 | 54:15.12 | 6:15.41 | 244137 | 272302
16 | 60:30.53 | 2:47.62 | 272303 | 284889
17 | 63:18.40 | 4:46.61 | 284890 | 306400
18 | 68:05.26 | 7:58.67 | 306401 | 342317


Track 1

Filename D:\_Post\101 Romantic\CD6\01 - Wiener Haydn Orchestra - Mozart - La ci darem la mano (Don Giovanni).wav

Pre-gap length 0:00:02.00

Peak level 62.4 %
Extraction speed 2.1 X
Track quality 100.0 %
Test CRC 3462D81B
Copy CRC 3462D81B
Accurately ripped (confidence 2) [A5021125] (AR v2)
Copy OK

Track 2

Filename D:\_Post\101 Romantic\CD6\02 - Pilar Lorengar - Mesicku na nebi hlubokem (Song to the Moon) (Rusalka).wav

Pre-gap length 0:00:02.74

Peak level 93.7 %
Extraction speed 2.5 X
Track quality 100.0 %
Test CRC 9C7BA611
Copy CRC 9C7BA611
Accurately ripped (confidence 2) [C9630293] (AR v2)
Copy OK

Track 3

Filename D:\_Post\101 Romantic\CD6\03 - Orchestre symphonique de Montreal - Berlioz - Nuit d'ivresse et d'extase (Les Troyens).wav

Pre-gap length 0:00:02.74

Peak level 79.0 %
Extraction speed 2.8 X
Track quality 100.0 %
Test CRC 21F74259
Copy CRC 21F74259
Accurately ripped (confidence 2) [57AFBCEF] (AR v2)
Copy OK

Track 4

Filename D:\_Post\101 Romantic\CD6\04 - Roberto Alagna - Donizetti - Una furtiva lagrima (L'elisir d'amore).wav

Pre-gap length 0:00:03.05

Peak level 58.6 %
Extraction speed 2.0 X
Track quality 99.9 %
Test CRC 0680E9AD
Copy CRC 0680E9AD
Accurately ripped (confidence 2) [47466D77] (AR v2)
Copy OK

Track 5

Filename D:\_Post\101 Romantic\CD6\05 - Maria Chiara - Catalani - Amor, celeste ebbrezza (Loreley).wav

Pre-gap length 0:00:03.08

Peak level 87.0 %
Extraction speed 2.8 X
Track quality 100.0 %
Test CRC 97F4AF72
Copy CRC 97F4AF72
Accurately ripped (confidence 2) [A315CC89] (AR v2)
Copy OK

Track 6

Filename D:\_Post\101 Romantic\CD6\06 - Luciano Pavarotti - Massenet - Pourquoi me reveiller, o souffle du printemps (Werther).wav

Pre-gap length 0:00:01.10

Peak level 93.3 %
Extraction speed 2.9 X
Track quality 100.0 %
Test CRC 6CC42D0B
Copy CRC 6CC42D0B
Accurately ripped (confidence 2) [EA425FCB] (AR v2)
Copy OK

Track 7

Filename D:\_Post\101 Romantic\CD6\07 - Frank Lopardo - Verdi - Parigi, a caro, noi lasceremo (La Traviata).wav

Pre-gap length 0:00:01.66

Peak level 62.5 %
Extraction speed 3.2 X
Track quality 100.0 %
Test CRC DFF9B554
Copy CRC DFF9B554
Accurately ripped (confidence 2) [143C0FE8] (AR v2)
Copy OK

Track 8

Filename D:\_Post\101 Romantic\CD6\08 - Carlo Bergonzi - Verdi - Quando le sere al placido chiaror d'un ciel stallato (Luisa Miller).wav

Pre-gap length 0:00:02.31

Peak level 63.0 %
Extraction speed 3.2 X
Track quality 100.0 %
Test CRC D434DF1B
Copy CRC D434DF1B
Accurately ripped (confidence 2) [40CA373A] (AR v2)
Copy OK

Track 9

Filename D:\_Post\101 Romantic\CD6\09 - Fiorenza Cossotto - Donizetti - O mio Fernando, della terra il trono (La Favorita).wav

Pre-gap length 0:00:02.08

Peak level 67.8 %
Extraction speed 3.4 X
Track quality 100.0 %
Test CRC 2B5865A0
Copy CRC 2B5865A0
Accurately ripped (confidence 2) [ADBC8262] (AR v2)
Copy OK

Track 10

Filename D:\_Post\101 Romantic\CD6\10 - Jussi Bjorling - Giodano - Amor ti vieta (Fedora).wav

Pre-gap length 0:00:03.18

Peak level 76.8 %
Extraction speed 3.1 X
Track quality 100.0 %
Test CRC 5C99BF97
Copy CRC 5C99BF97
Accurately ripped (confidence 2) [DDC2694A] (AR v2)
Copy OK

Track 11

Filename D:\_Post\101 Romantic\CD6\11 - Joan Sutherland - Donizetti - Verranno a te sull'aure (Lucia di Lammermoor).wav

Pre-gap length 0:00:02.23

Peak level 91.8 %
Extraction speed 3.5 X
Track quality 100.0 %
Test CRC 648151D9
Copy CRC 648151D9
Accurately ripped (confidence 2) [A2D93F9E] (AR v2)
Copy OK

Track 12

Filename D:\_Post\101 Romantic\CD6\12 - Renata Tebaldi - Puccini - O mio babbino caro (Gianni Schicchi).wav

Pre-gap length 0:00:00.72

Peak level 65.4 %
Extraction speed 3.3 X
Track quality 100.0 %
Test CRC BD3E1058
Copy CRC BD3E1058
Accurately ripped (confidence 2) [A63BB948] (AR v2)
Copy OK

Track 13

Filename D:\_Post\101 Romantic\CD6\13 - Franco Corelli - Puccini - E lucevan le stelle (Tosca).wav

Pre-gap length 0:00:03.30

Peak level 75.8 %
Extraction speed 3.6 X
Track quality 100.0 %
Test CRC 5FA9EF98
Copy CRC 5FA9EF98
Accurately ripped (confidence 2) [10D6F6DF] (AR v2)
Copy OK

Track 14

Filename D:\_Post\101 Romantic\CD6\14 - Maria Chiara - Mascagni - Son pochi fiori (L'amico Fritz).wav

Pre-gap length 0:00:01.71

Peak level 75.0 %
Extraction speed 3.7 X
Track quality 100.0 %
Test CRC 7E181A34
Copy CRC 7E181A34
Accurately ripped (confidence 2) [E2D1455F] (AR v2)
Copy OK

Track 15

Filename D:\_Post\101 Romantic\CD6\15 - Giuseppe di Stefano - Gounod - Quel trouble inconnu … Salut! demeure chaste et pure (Faust).wav

Pre-gap length 0:00:02.17

Peak level 63.0 %
Extraction speed 4.1 X
Track quality 100.0 %
Test CRC 6B62E8AE
Copy CRC 6B62E8AE
Accurately ripped (confidence 2) [5AF3F6B7] (AR v2)
Copy OK

Track 16

Filename D:\_Post\101 Romantic\CD6\16 - Elizabeth Harwood - Puccini - Quando me n'vo (La Boheme).wav

Pre-gap length 0:00:01.39

Peak level 92.0 %
Extraction speed 3.8 X
Track quality 100.0 %
Test CRC FEAD7714
Copy CRC FEAD7714
Accurately ripped (confidence 2) [44B5A61B] (AR v2)
Copy OK

Track 17

Filename D:\_Post\101 Romantic\CD6\17 - Luciano Pavarotti - Ponchielli - Cielo e mar! (La Gioconda).wav

Pre-gap length 0:00:02.74

Peak level 90.6 %
Extraction speed 3.2 X
Track quality 99.9 %
Test CRC 60F47A13
Copy CRC 60F47A13
Accurately ripped (confidence 2) [BB13927E] (AR v2)
Copy OK

Track 18

Filename D:\_Post\101 Romantic\CD6\18 - Renata Tebaldi - Puccini - Vagliatemi bene (Madama Butterfly).wav

Pre-gap length 0:00:02.11

Peak level 84.8 %
Extraction speed 4.4 X
Track quality 100.0 %
Test CRC CD7A254F
Copy CRC CD7A254F
Accurately ripped (confidence 2) [A33B7D79] (AR v2)
Copy OK


All tracks accurately ripped

No errors occurred

End of status report

–– CUETools DB Plugin V2.1.6

[CTDB TOCID: zkpW79vBfLW_0CvHm2dPdDJQXbo-] found
Submit result: zkpW79vBfLW_0CvHm2dPdDJQXbo- has been confirmed
Track | CTDB Status
1 | (5/5) Accurately ripped
2 | (5/5) Accurately ripped
3 | (5/5) Accurately ripped
4 | (5/5) Accurately ripped
5 | (5/5) Accurately ripped
6 | (5/5) Accurately ripped
7 | (5/5) Accurately ripped
8 | (5/5) Accurately ripped
9 | (5/5) Accurately ripped
10 | (5/5) Accurately ripped
11 | (5/5) Accurately ripped
12 | (5/5) Accurately ripped
13 | (5/5) Accurately ripped
14 | (5/5) Accurately ripped
15 | (5/5) Accurately ripped
16 | (5/5) Accurately ripped
17 | (5/5) Accurately ripped
18 | (5/5) Accurately ripped


==== Log checksum 33ADB52E51AAAB007E4527703C3384867F854EDECE6FEEBCF7F64EB48DC8B94E ====


Various Artists - 101 Romantic Classics (2016) {6CD Box Set Decca 478 4006 rel 2012}

Various Artists - 101 Romantic Classics (2016) {6CD Box Set Decca 478 4006 rel 2012}

Various Artists - 101 Romantic Classics (2016) {6CD Box Set Decca 478 4006 rel 2012}


All thanks goes to the original releaser!

see also:
Various Artists - 101 Opera (2...x Set Decca 478 2998 rel 2011}
Various Artists - 101 Guitar (...x Set Decca 478 3655 rel 2012}
Various Artists - 101 Mozart (...x Set Decca 478 2963 rel 2011}



===