Subcategories

Various ‎– La Femme Nikita: Music From The Television Series (1998)

Posted By: gonzalo76
Various ‎– La Femme Nikita: Music From The Television Series (1998)

Various ‎– La Femme Nikita: Music From The Television Series (1998)
EAC rip | FLAC (IMG+CUE+LOG) | 1CD > 498 MB | MP3 CBR @320 > 179 MB | Complete Scans 300 dpi (.png) > 67 MB | RAR 3% Rec.
TV Soundtrack | Label: TVT Soundtrax | Catalog Number: TVT #8170-2 | Country: US | Year: 1998 | Uploaded

La Femme Nikita (French pronunciation: ​[la fam nikita], "The Woman Nikita"; called Nikita in Canada) is a Canadian action/drama television series based on the French film Nikita by Luc Besson. The series was co-produced by Jay Firestone of Fireworks Entertainment and Warner Bros.. It was adapted for television by Joel Surnow. The series was first telecast in North America on the USA Network cable channel on January 13, 1997, and ran for five television seasons—until March 2001. The series was also aired in Canada on the over-the-air CTV Television Network. La Femme Nikita was the highest-rated drama on American basic cable during its first two seasons. It was also distributed in some other countries, and it continues to have a strong cult following.

An official soundtrack, released in June 1998, is still available on CD from TVT Records. It features the title theme from composer Mark Snow, as well as numerous songs heard during the first two seasons of the show from artists like Depeche Mode and Afro Celt Sound System. A "promotional release" in a limited run of 2000 CDs of Emmy-award winning composer Sean Callery's selections from his orchestral score for Nikita was first made available by Callery during the Close Quarters Standby 4 fan convention in May 2001. From Wikipedia, the free encyclopedia
La Femme Nikita earned a cult following as a French film, was a disaster as an American remake titled Point of New Return and then appeared in its (presumably) final incarnation as a cult television show for the cable network, USA. The television show turned out to be a much bigger success than anyone imagined, which meant the appearance of a soundtrack was inevitable. Fortunately, the resulting disc is actually quite enjoyable. Like many late '90s soundtracks, La Femme Nikita's foundation is electronica, particularly trip-hop, balanced by moody alternative pop. The blend of the two genres is quite alluring, even if some of the cuts are a little bland. Nevertheless, cuts by Mono, Morcheeba, Depeche Mode, Curve, Fluke, Gus Gus, Morphine and DJ Keoki, as well as Mark Snow's theme, makes the record worthwhile. Review by Stephen Thomas Erlewine
Album Details:

Label: TVT Soundtrax
Catalogue Number: TVT #8170-2
Format: CD, Compilation
Country: US
Released: June 9, 1998
Genre: Electronic, Pop, Rock, Stage & Screen
Style: Soundtrack, TV Music, Brit Pop, Dub Techno, Broken Beat, Indie Rock
Duration: 01:13:08
Source: Original CD
Codec: FLAC (v.1.2.1) + MP3 (LAME 3.99.5 64bit)
Rip Type: Test & Copy Image + CUE sheet
Scans: Yes (300dpi / .png)
Embedded CUE sheet: Yes

Tracklist:

01. Mark Snow – Main Title (1:03)
02. Enigma – Beyond The Invisible (5:05)
03. Mono – Silicone (4:15)
04. Depeche Mode – The Love Thieves (6:32)
05. Morcheeba – Fear And Love (5:05)
06. Hednoize – Loaded Gun (4:54)
07. DJ Krush – Skin Against Skin (5:51)
08. Beverly Klass – Temple (4:28)
09. Afro Celt Sound System – Inion/Daughter (4:17)
10. Curve – Chinese Burn (4:51)
11. Vibrolux – Drown (4:30)
12. Morphine – Hanging On A Curtain (3:48)
13. Fluke – Absurd (5:49)
14. Gus Gus – Gun (6:10)
15. Keoki – Majick (Cirrus Remix) (6:30)

Total time: 73:08

Credits:

Tom Bocci: Executive in Charge of Music
Robin Glowski: Art Direction
Kevin Hodge: Mastering
Blaine Johnson: Music Supervisor
Patricia Joseph: Producer, Soundtrack Producer
Joel Surnow: Executive Producer

Barcode and Other Identifiers:

Barcode: 0 16581 81702 9
Matrix/Runout: 4R TVT 8170-2 RE-3 01
Mould Code: IFPI 2U3W
Other: Y5864 / M1S3


Exact Audio Copy V1.0 beta 3 from 29. August 2011

EAC extraction logfile from 28. July 2013, 12:59

Various / La Femme Nikita

Used drive : HL-DT-STDVDRWBD CT30N Adapter: 0 ID: 1

Read mode : Secure
Utilize accurate stream : Yes
Defeat audio cache : Yes
Make use of C2 pointers : No

Read offset correction : 102
Overread into Lead-In and Lead-Out : No
Fill up missing offset samples with silence : Yes
Delete leading and trailing silent blocks : No
Null samples used in CRC calculations : Yes
Used interface : Native Win32 interface for Win NT & 2000

Used output format : User Defined Encoder
Selected bitrate : 1024 kBit/s
Quality : High
Add ID3 tag : No
Command line compressor : C:\Program Files (x86)\Exact Audio Copy\Flac\flac.exe
Additional command line options : -T "artist=%artist%" -T "title=%title%" -T "album=%albumtitle%" -T "date=%year%" -T "tracknumber=%tracknr%" -T "genre=%genre%" -5 %source%


TOC of the extracted CD

Track | Start | Length | Start sector | End sector
––––––––––––––––––––––––––––-
1 | 0:00.00 | 1:02.47 | 0 | 4696
2 | 1:02.47 | 5:04.70 | 4697 | 27566
3 | 6:07.42 | 4:14.65 | 27567 | 46681
4 | 10:22.32 | 6:32.10 | 46682 | 76091
5 | 16:54.42 | 5:05.23 | 76092 | 98989
6 | 21:59.65 | 4:53.40 | 98990 | 121004
7 | 26:53.30 | 5:51.10 | 121005 | 147339
8 | 32:44.40 | 4:27.52 | 147340 | 167416
9 | 37:12.17 | 4:16.43 | 167417 | 186659
10 | 41:28.60 | 4:50.45 | 186660 | 208454
11 | 46:19.30 | 4:30.35 | 208455 | 228739
12 | 50:49.65 | 3:48.20 | 228740 | 245859
13 | 54:38.10 | 5:49.05 | 245860 | 272039
14 | 60:27.15 | 6:10.37 | 272040 | 299826
15 | 66:37.52 | 6:30.08 | 299827 | 329084


Range status and errors

Selected range

Filename D:\EAC Rips\Various - La Femme Nikita.wav

Peak level 98.9 %
Extraction speed 2.0 X
Range quality 99.9 %
Test CRC 8CD5C42C
Copy CRC 8CD5C42C
Copy OK

No errors occurred


AccurateRip summary

Track 1 accurately ripped (confidence 5) [CF707342] (AR v1)
Track 2 accurately ripped (confidence 5) [0DB1E0DA] (AR v1)
Track 3 accurately ripped (confidence 5) [33F6EDE6] (AR v1)
Track 4 accurately ripped (confidence 5) [4F44C0AB] (AR v1)
Track 5 accurately ripped (confidence 5) [89750CC9] (AR v1)
Track 6 accurately ripped (confidence 5) [EBAA43F1] (AR v1)
Track 7 accurately ripped (confidence 5) [61CE7CFA] (AR v1)
Track 8 accurately ripped (confidence 5) [5B9C06A1] (AR v1)
Track 9 accurately ripped (confidence 5) [D7892B1E] (AR v1)
Track 10 accurately ripped (confidence 5) [8158BDA5] (AR v1)
Track 11 accurately ripped (confidence 5) [9E24732D] (AR v1)
Track 12 accurately ripped (confidence 5) [58E1C9FA] (AR v1)
Track 13 accurately ripped (confidence 5) [C1126617] (AR v1)
Track 14 accurately ripped (confidence 5) [442F19BC] (AR v1)
Track 15 accurately ripped (confidence 5) [9D63DEEF] (AR v1)

All tracks accurately ripped

End of status report

–– CUETools DB Plugin V2.1.3

[CTDB TOCID: E9Jyez0uCA9eIYB1TxlkL150v2c-] found, Submit result: E9Jyez0uCA9eIYB1TxlkL150v2c- has been confirmed
[f5a51620] (6/6) Accurately ripped


==== Log checksum 79C8572E8FD9575EF86D840B3531A48C670F065C3D7371C97CC95CBAFC983034 ====


[CUETools log; Date: 28/07/2013 01:20:39 p.m.; Version: 2.1.4]
[CTDB TOCID: E9Jyez0uCA9eIYB1TxlkL150v2c-] found.
Track | CTDB Status
1 | (3/3) Accurately ripped
2 | (3/3) Accurately ripped
3 | (3/3) Accurately ripped
4 | (3/3) Accurately ripped
5 | (3/3) Accurately ripped
6 | (3/3) Accurately ripped
7 | (3/3) Accurately ripped
8 | (3/3) Accurately ripped
9 | (3/3) Accurately ripped
10 | (3/3) Accurately ripped
11 | (3/3) Accurately ripped
12 | (3/3) Accurately ripped
13 | (3/3) Accurately ripped
14 | (3/3) Accurately ripped
15 | (3/3) Accurately ripped
[AccurateRip ID: 00258b29-01b23afa-d011230f] found.
Track [ CRC | V2 ] Status
01 [cf707342|67a4a6b6] (5+0/5) Accurately ripped
02 [0db1e0da|0146cf78] (5+0/5) Accurately ripped
03 [33f6ede6|de915b6b] (5+0/5) Accurately ripped
04 [4f44c0ab|12daee94] (5+0/5) Accurately ripped
05 [89750cc9|58719049] (5+0/5) Accurately ripped
06 [ebaa43f1|7676ed0a] (5+0/5) Accurately ripped
07 [61ce7cfa|42c401f0] (5+0/5) Accurately ripped
08 [5b9c06a1|7cb1be84] (5+0/5) Accurately ripped
09 [d7892b1e|b256135d] (5+0/5) Accurately ripped
10 [8158bda5|86ad13d1] (5+0/5) Accurately ripped
11 [9e24732d|58852797] (5+0/5) Accurately ripped
12 [58e1c9fa|a86c4b0e] (5+0/5) Accurately ripped
13 [c1126617|7c603c47] (5+0/5) Accurately ripped
14 [442f19bc|f5b848be] (5+0/5) Accurately ripped
15 [9d63deef|423e05f3] (5+0/5) Accurately ripped

Track Peak [ CRC32 ] [W/O NULL]
– 98,9 [8CD5C42C] [9C9012FB]
01 98,9 [97696B9F] [2C66F2E2]
02 98,0 [62EB7750] [9426E38A]
03 94,2 [504CF7D2] [69477AFD]
04 95,7 [B5186C87] [6A411FB6]
05 97,8 [56CED691] [060D9D4D]
06 98,9 [E64417E8] [0FE3FE65]
07 70,0 [AE2CBD61] [252DEA2E]
08 88,2 [D57F705D] [C3E268BA]
09 97,7 [485124C0] [85554BAC]
10 77,0 [EF89B5E7] [1A2304D4]
11 98,9 [B3B9E260] [6B81B468]
12 98,9 [968F7EE4] [22A7040E]
13 88,4 [99479BA8] [55B11198]
14 96,7 [61A572AF] [44425B96]
15 96,8 [2D81E02F] [D162C68A]


AUDIOCHECKER v2.0 beta (build 457) - by Dester - opdester@freemail.hu
~~~~~~~~~~~~~~~~~~~~~~~~~~~~~~~~~~
-=== DO NOT EDIT THIS FILE! ===-

Path: …\EAC Rips

1 -=- Various - La Femme Nikita.flac -=- CDDA (100%)

196228564


–––––––––––-

DON'T MODIFY THIS FILE

–––––––––––-

PERFORMER: auCDtect Task Manager, ver. 1.6.0 RC1 build 1.6.0.1
Copyright © 2008-2010 y-soft. All rights reserved
http://y-soft.org

ANALYZER: auCDtect: CD records authenticity detector, version 0.8.2
Copyright © 2004 Oleg Berngardt. All rights reserved.
Copyright © 2004 Alexander Djourik. All rights reserved.


FILE: Various - La Femme Nikita.flac
Size: 491009534 Hash: CAEEDF320B8697A2B02AA7CBE28B6A9D Accuracy: -m0
Conclusion: CDDA 100%
Signature: DEDE3360100EB8F4214E67D59EFA7F9D9012B6B1


foobar2000 1.2.9 / Dynamic Range Meter 1.1.1
log date: 2013-07-28 14:29:32

––––––––––––––––––––––––––––––––––––––––
Analyzed: Various / La Femme Nikita
––––––––––––––––––––––––––––––––––––––––

DR Peak RMS Duration Track
––––––––––––––––––––––––––––––––––––––––
DR12 -0.09 dB -14.76 dB 1:03 01-Main Title
DR9 -0.17 dB -12.48 dB 5:05 02-Beyond The Invisible
DR9 -0.52 dB -11.45 dB 4:15 03-Silicone
DR8 -0.38 dB -9.76 dB 6:32 04-The Love Thieves
DR7 -0.19 dB -10.35 dB 5:05 05-Fear And Love
DR6 -0.09 dB -8.36 dB 4:54 06-Loaded Gun
DR6 -3.09 dB -10.47 dB 5:51 07-Skin Against Skin
DR8 -1.09 dB -10.28 dB 4:28 08-Temple
DR9 -0.20 dB -11.66 dB 4:17 09-Inion-Daughter
DR7 -2.27 dB -11.31 dB 4:51 10-Chinese Burn
DR8 -0.09 dB -9.10 dB 4:30 11-Drown
DR10 -0.09 dB -12.71 dB 3:48 12-Hanging On A Curtain
DR9 -1.07 dB -11.36 dB 5:49 13-Absurd
DR10 -0.29 dB -11.99 dB 6:10 14-Gun
DR8 -0.28 dB -11.98 dB 6:30 15-Majick (Cirrus Remix)
––––––––––––––––––––––––––––––––––––––––

Number of tracks: 15
Official DR value: DR8

Samplerate: 44100 Hz
Channels: 2
Bits per sample: 16
Bitrate: 895 kbps
Codec: FLAC
================================================================================


No problems occurred.

Source: "D:\EAC Rips\Various - La Femme Nikita.flac" / index: 1
Track converted successfully.
Source: "D:\EAC Rips\Various - La Femme Nikita.flac" / index: 2
Track converted successfully.
Source: "D:\EAC Rips\Various - La Femme Nikita.flac" / index: 3
Track converted successfully.
Source: "D:\EAC Rips\Various - La Femme Nikita.flac" / index: 4
Track converted successfully.
Source: "D:\EAC Rips\Various - La Femme Nikita.flac" / index: 5
Track converted successfully.
Source: "D:\EAC Rips\Various - La Femme Nikita.flac" / index: 6
Track converted successfully.
Source: "D:\EAC Rips\Various - La Femme Nikita.flac" / index: 7
Track converted successfully.
Source: "D:\EAC Rips\Various - La Femme Nikita.flac" / index: 8
Track converted successfully.
Source: "D:\EAC Rips\Various - La Femme Nikita.flac" / index: 9
Track converted successfully.
Source: "D:\EAC Rips\Various - La Femme Nikita.flac" / index: 10
Track converted successfully.
Source: "D:\EAC Rips\Various - La Femme Nikita.flac" / index: 11
Track converted successfully.
Source: "D:\EAC Rips\Various - La Femme Nikita.flac" / index: 12
Track converted successfully.
Source: "D:\EAC Rips\Various - La Femme Nikita.flac" / index: 13
Track converted successfully.
Source: "D:\EAC Rips\Various - La Femme Nikita.flac" / index: 14
Track converted successfully.
Source: "D:\EAC Rips\Various - La Femme Nikita.flac" / index: 15
Track converted successfully.


Various ‎– La Femme Nikita: Music From The Television Series (1998)


Various ‎– La Femme Nikita: Music From The Television Series (1998)


Various ‎– La Femme Nikita: Music From The Television Series (1998)


Various ‎– La Femme Nikita: Music From The Television Series (1998)


Various ‎– La Femme Nikita: Music From The Television Series (1998)


Various ‎– La Femme Nikita: Music From The Television Series (1998)