Subcategories

Various Artists - Miles From India (2008) {2CD Set Times Square Records TSQ-CD-1808, Miles Davis alumni}

Posted By: ruskaval
Various Artists - Miles From India (2008) {2CD Set Times Square Records TSQ-CD-1808, Miles Davis alumni}

Various Artists - Miles From India (2008) {2CD Set Times Square Records TSQ-CD-1808, Miles Davis alumni}
EAC rip (secure mode) | FLAC (tracks)+CUE+LOG -> 714 Mb | MP3 @320 -> 292 Mb
Full Artwork @ 300 dpi (jpg) -> 15 Mb | 5% repair rar
© 2008 Four Quarters Ent. / Times Square Records | TSQ-CD-1808
Jazz / Fusion / Post Bop / Jazz Funk / Modal Music

Mixing the music of jazz icon Miles Davis with sounds and instruments from India, as producers Bob Belden and Yusuf Gandhi did on Miles from India, was far from an outrageous proposition. Davis set the precedent himself — not only with his use of Indian players like the tabla virtuoso Badal Roy in sessions issued on albums like Big Fun and Get Up with It, but also with his sinuous modal compositions stretching back to 1959's epochal Kind of Blue and continuing through his electric period of the '70s.
Various Artists - Miles From India (2008) {2CD Set Times Square Records TSQ-CD-1808, Miles Davis alumni}

In a startlingly original recreation of music associated with jazz legend Miles Davis, producer-archivist Bob Belden, renowned for his Grammy Award-winning reissue work on a series of Miles Davis boxed sets for Sony/Columbia, along with co-arranger Louiz Banks (celebrated keyboardist from India), has recast familiar themes from such landmark recordings as Bitches Brew, In A Silent Way, and Kind of Blue with an East Meets West sensibility on Miles…From India. An incredibly ambitious project involving two dozen musicians from two separate continents recording in studios around the world, Miles…From India is a cross-cultural summit meeting that puts a provocative pan-global spin on such Miles classics as All Blues, Spanish Key, So What, It s About That Time and Jean Pierre. Sitar and tablas, ghatam and khanjira, mridangam and Carnatic violin blend seamlessly with muted trumpet and saxophones, screaming electric guitar and grooving electric bass lines, piano, upright bass and drums on this profound fusion of Indian classical and American jazz. Recorded in Mumbai and Madras, India and New York, Chicago and Los Angeles, the music on Miles…From India was performed by classical and jazz musicians from India with the addition of musicians who have recorded or performed with Miles Davis over the span of five decades.

ARTISTS:
The Miles alumni included on the sessions are saxophonists Dave Liebman (1972-74) and Gary Bartz (1970-71), guitarists Mike Stern (1981-84), Pete Cosey (1973-76) and John McLaughlin (1969-72), bassists Ron Carter (1963-69), Michael Henderson (1970-76), Marcus Miller (1981-1984), Benny Rietveld (1987-91), keyboardists Chick Corea (1968-72), Adam Holzman (1985-87) and Robert Irving III (1980-88), drummers Jimmy Cobb (1958-63), Leon 'Ndugu' Chancler (1971), Lenny White (1969) and Vince Wilburn (1981, 1984-1987) and tabla player Badal Roy (1972-3).

The Indian contingent is represented by keyboardist Louiz Banks, drummer Gino Banks, American-born alto saxophonist Rudresh Mahanthappa, sitarist Ravi Chari, Vikku Vinayakram (a charter member of Shakti) on ghatam, V. Selvaganesh (a member of Shakti and Remember Shakti) on khanjira, U. Shrinivas (from Remember Shakti) on electric mandolin, Brij Narain on sarod, Dilshad Khan on sarangi, Sridhar Parthasarathy on mridangam, Taufiq Qureshi and A. Sivamani on percussion, Kala Ramnath on Carnatic violin, Rakesh Chaurasia on flute and Shankar Mahadevan & Sikkil Gurucharan on Indian classical vocals.

Produced by Bob Belden


tracklist:
CD 1

1. Spanish Key
2. All Blues
3. Ife (Fast)
4. In A Silent Way
5. It's About That Time
6. Jean Pierre

Various Artists - Miles From India (2008) {2CD Set Times Square Records TSQ-CD-1808, Miles Davis alumni}


CD 2
1. So What
2. Miles Runs The Voodoo Down
3. Blue In Green
4. Great Expectations
5. Ife (Slow)
6. Miles From India

Various Artists - Miles From India (2008) {2CD Set Times Square Records TSQ-CD-1808, Miles Davis alumni}


Exact Audio Copy V0.99 prebeta 5 from 4. May 2009

EAC extraction logfile from 24. December 2009, 1:22

Bob Belden / Miles From India

Used drive : TSSTcorpCDDVDW SH-S203N Adapter: 0 ID: 2

Read mode : Secure
Utilize accurate stream : Yes
Defeat audio cache : Yes
Make use of C2 pointers : No

Read offset correction : 6
Overread into Lead-In and Lead-Out : No
Fill up missing offset samples with silence : Yes
Delete leading and trailing silent blocks : No
Null samples used in CRC calculations : Yes
Used interface : Installed external ASPI interface
Gap handling : Appended to previous track

Used output format : User Defined Encoder
Selected bitrate : 768 kBit/s
Quality : High
Add ID3 tag : No
Command line compressor : C:\Program Files\Exact Audio Copy\Flac\flac.exe
Additional command line options : -8 -V -T "ARTIST=%a" -T "TITLE=%t" -T "ALBUM=%g" -T "DATE=%y" -T "TRACKNUMBER=%n" -T "TOTALTRACKS=%x" -T "GENRE=%m" -T "ALBUMARTIST=%v" -T "ALBUM ARTIST=%v" -T "COMMENT=EAC V0.99 pb5, Secure Mode, Test & Copy, AccurateRip,


TOC of the extracted CD

Track | Start | Length | Start sector | End sector
––––––––––––––––––––––––––––-
1 | 0:00.00 | 19:44.47 | 0 | 88846
2 | 19:44.47 | 9:21.19 | 88847 | 130940
3 | 29:05.66 | 8:41.22 | 130941 | 170037
4 | 37:47.13 | 2:33.37 | 170038 | 181549
5 | 40:20.50 | 10:00.43 | 181550 | 226592
6 | 50:21.18 | 11:36.58 | 226593 | 278850


Track 1

Filename J:\New Rips\Bob Belden - Miles From India (2006-07) [FLAC] {Miles Davis alumni}\disc 1of2\01 - Spanish Key.wav

Pre-gap length 0:00:02.00

Peak level 100.0 %
Track quality 100.0 %
Test CRC 20F1CADF
Copy CRC 20F1CADF
Accurately ripped (confidence 28) [4241EA5A]
Copy OK

Track 2

Filename J:\New Rips\Bob Belden - Miles From India (2006-07) [FLAC] {Miles Davis alumni}\disc 1of2\02 - All Blues.wav

Pre-gap length 0:00:00.72

Peak level 100.0 %
Track quality 100.0 %
Test CRC 031CF45C
Copy CRC 031CF45C
Accurately ripped (confidence 28) [2285BF65]
Copy OK

Track 3

Filename J:\New Rips\Bob Belden - Miles From India (2006-07) [FLAC] {Miles Davis alumni}\disc 1of2\03 - Ife (Fast).wav

Pre-gap length 0:00:01.48

Peak level 100.0 %
Track quality 100.0 %
Test CRC 8FAD10A5
Copy CRC 8FAD10A5
Accurately ripped (confidence 28) [CC41971A]
Copy OK

Track 4

Filename J:\New Rips\Bob Belden - Miles From India (2006-07) [FLAC] {Miles Davis alumni}\disc 1of2\04 - In A Silent Way.wav

Pre-gap length 0:00:00.52

Peak level 58.0 %
Track quality 100.0 %
Test CRC 46BD462E
Copy CRC 46BD462E
Accurately ripped (confidence 28) [2F3E42F5]
Copy OK

Track 5

Filename J:\New Rips\Bob Belden - Miles From India (2006-07) [FLAC] {Miles Davis alumni}\disc 1of2\05 - It's About That Time.wav

Peak level 100.0 %
Track quality 100.0 %
Test CRC 4228D741
Copy CRC 4228D741
Accurately ripped (confidence 28) [0C67E391]
Copy OK

Track 6

Filename J:\New Rips\Bob Belden - Miles From India (2006-07) [FLAC] {Miles Davis alumni}\disc 1of2\06 - Jean Pierre.wav

Pre-gap length 0:00:00.25

Peak level 100.0 %
Track quality 100.0 %
Test CRC E5FF267B
Copy CRC E5FF267B
Accurately ripped (confidence 28) [6688BDF2]
Copy OK


All tracks accurately ripped

No errors occurred

End of status report

Exact Audio Copy V0.99 prebeta 5 from 4. May 2009

EAC extraction logfile from 24. December 2009, 1:44

Bob Belden / Miles From India

Used drive : TSSTcorpCDDVDW SH-S203N Adapter: 0 ID: 2

Read mode : Secure
Utilize accurate stream : Yes
Defeat audio cache : Yes
Make use of C2 pointers : No

Read offset correction : 6
Overread into Lead-In and Lead-Out : No
Fill up missing offset samples with silence : Yes
Delete leading and trailing silent blocks : No
Null samples used in CRC calculations : Yes
Used interface : Installed external ASPI interface
Gap handling : Appended to previous track

Used output format : User Defined Encoder
Selected bitrate : 768 kBit/s
Quality : High
Add ID3 tag : No
Command line compressor : C:\Program Files\Exact Audio Copy\Flac\flac.exe
Additional command line options : -8 -V -T "ARTIST=%a" -T "TITLE=%t" -T "ALBUM=%g" -T "DATE=%y" -T "TRACKNUMBER=%n" -T "TOTALTRACKS=%x" -T "GENRE=%m" -T "ALBUMARTIST=%v" -T "ALBUM ARTIST=%v" -T "COMMENT=EAC V0.99 pb5, Secure Mode, Test & Copy, AccurateRip,


TOC of the extracted CD

Track | Start | Length | Start sector | End sector
––––––––––––––––––––––––––––-
1 | 0:00.00 | 8:09.06 | 0 | 36680
2 | 8:09.06 | 9:03.06 | 36681 | 77411
3 | 17:12.12 | 13:07.64 | 77412 | 136500
4 | 30:20.01 | 8:39.60 | 136501 | 175485
5 | 38:59.61 | 14:11.50 | 175486 | 239360
6 | 53:11.36 | 6:53.62 | 239361 | 270397


Track 1

Filename J:\New Rips\Bob Belden - Miles From India (2006-07) [FLAC] {Miles Davis alumni}\disc 2of2\01 - So What.wav

Pre-gap length 0:00:02.00

Peak level 100.0 %
Track quality 100.0 %
Test CRC 83AA77E5
Copy CRC 83AA77E5
Accurately ripped (confidence 28) [F209C750]
Copy OK

Track 2

Filename J:\New Rips\Bob Belden - Miles From India (2006-07) [FLAC] {Miles Davis alumni}\disc 2of2\02 - Miles Runs The Voodoo Down.wav

Peak level 100.0 %
Track quality 100.0 %
Test CRC 692F5E1D
Copy CRC 692F5E1D
Accurately ripped (confidence 28) [4E7E6684]
Copy OK

Track 3

Filename J:\New Rips\Bob Belden - Miles From India (2006-07) [FLAC] {Miles Davis alumni}\disc 2of2\03 - Blue In Green.wav

Pre-gap length 0:00:01.20

Peak level 100.0 %
Track quality 100.0 %
Test CRC 805B58F6
Copy CRC 805B58F6
Accurately ripped (confidence 27) [36C33B97]
Copy OK

Track 4

Filename J:\New Rips\Bob Belden - Miles From India (2006-07) [FLAC] {Miles Davis alumni}\disc 2of2\04 - Great Expectations.wav

Pre-gap length 0:00:02.58

Peak level 100.0 %
Track quality 100.0 %
Test CRC 5394F4DE
Copy CRC 5394F4DE
Accurately ripped (confidence 28) [926D49D4]
Copy OK

Track 5

Filename J:\New Rips\Bob Belden - Miles From India (2006-07) [FLAC] {Miles Davis alumni}\disc 2of2\05 - Ife (Slow).wav

Pre-gap length 0:00:01.88

Peak level 90.3 %
Track quality 100.0 %
Test CRC 6D0EBEDB
Copy CRC 6D0EBEDB
Accurately ripped (confidence 28) [AD941C45]
Copy OK

Track 6

Filename J:\New Rips\Bob Belden - Miles From India (2006-07) [FLAC] {Miles Davis alumni}\disc 2of2\06 - Miles From India.wav

Pre-gap length 0:00:01.05

Peak level 31.4 %
Track quality 100.0 %
Test CRC 07BBA41A
Copy CRC 07BBA41A
Accurately ripped (confidence 28) [6320BF2C]
Copy OK


All tracks accurately ripped

No errors occurred

End of status report


Various Artists - Miles From India (2008) {2CD Set Times Square Records TSQ-CD-1808, Miles Davis alumni}



===