Tags
Language
Tags

Veni Academy & Marián Lejava - Elliott Sharp: Dispersion (2018)

Posted By: delpotro
Veni Academy & Marián Lejava - Elliott Sharp: Dispersion (2018)

Veni Academy & Marián Lejava - Elliott Sharp: Dispersion (2018)
EAC Rip | FLAC (tracks+log+.cue) - 328 Mb | MP3 CBR 320 kbps - 141 Mb | Scans included | 01:00:16
Modern Classical, Avant-Garde | Label: Mode Records

“Working with forces unknown to me has always been an exciting challenge,” says Elliott Sharp, “especially when those forces are in the form of younger musicians, highly skilled and enthusiastic.” For his work with the musicians of the Veni Academy, he chose three previously composed works that would be easily adaptable to a large ensemble whose instrumentation was not the result of prior design plus one newly composed for the occasion. The chosen pieces were based on well-defined processes that made use of instant decision-making on the part of both the players and the conductor, and finally, some graphic notation. Composed in 2003 for string quartet, The Dispersion of Seeds uses a simple algorithm of arpeggiation of nine chords throughout its arc to create shifting verticalities. The piece would be different with every performance yet would retain its distinct identity. The composition Flexagons is based on permutations of composed fragments ordered in time with instructions on how to flex and fold them. Augmenting the flex is the possibility of players “popping out” with short improvised statements that may be acted upon by the other players and thereby revealing another facet. The Hidden Variable is a suite of graphic scores originally conceived for solo guitar using “alternate bows” to generate sounds on the guitar. Palimpsest was composed for the occasion and a world premiere. Historically, a palimpsest manuscript could be reused by scraping or erasing the text. While the removal of the original texts might be quite thorough, elements of the original items might still be evident, whether explicitly or subliminally, creating a “palimpsest.” Here Sharp’s "original texts" are sample measures taken from previous scores, compiled as raw materials in this new work, superimposed on the now-erased substrate, the “manuscript.”
Tracklist:
1. Veni Academy & Marian Lejava – Flexagons (17:42)
2. Veni Academy & Marian Lejava – Dispersion of Seeds (Version for Large Ensemble) (16:06)
3. Elliott Sharp, Veni Academy & Marian Lejava – The Hidden Variable (12:37)
4. Elliott Sharp, Veni Academy & Marian Lejava – Palimpsest (14:01)

Exact Audio Copy V1.3 from 2. September 2016

EAC extraction logfile from 18. May 2019, 12:49

Veni Academy, Marián Lejava / Dispersion

Used drive : HL-DT-STDVDRAM GUE1N Adapter: 1 ID: 0

Read mode : Secure
Utilize accurate stream : Yes
Defeat audio cache : Yes
Make use of C2 pointers : No

Read offset correction : 6
Overread into Lead-In and Lead-Out : No
Fill up missing offset samples with silence : Yes
Delete leading and trailing silent blocks : No
Null samples used in CRC calculations : Yes
Used interface : Native Win32 interface for Win NT & 2000
Gap handling : Appended to previous track

Used output format : User Defined Encoder
Selected bitrate : 1024 kBit/s
Quality : High
Add ID3 tag : No
Command line compressor : C:\Program Files (x86)\Exact Audio Copy\Flac\flac.exe
Additional command line options : -8 -V -T "ARTIST=%artist%" -T "TITLE=%title%" -T "ALBUM=%albumtitle%" -T "DATE=%year%" -T "TRACKNUMBER=%tracknr%" -T "GENRE=%genre%" -T "PERFORMER=%albuminterpret%" -T "COMPOSER=%composer%" %haslyrics%–tag-from-file=LYRICS="%lyricsfile%"%haslyrics% -T "ALBUMARTIST=%albumartist%" -T "DISCNUMBER=%cdnumber%" -T "TOTALDISCS=%totalcds%" -T "TOTALTRACKS=%numtracks%" -T "COMMENT=%comment%" %source% -o %dest%


TOC of the extracted CD

Track | Start | Length | Start sector | End sector
––––––––––––––––––––––––––––-
1 | 0:00.00 | 17:40.40 | 0 | 79539
2 | 17:40.40 | 16:03.14 | 79540 | 151778
3 | 33:43.54 | 12:31.30 | 151779 | 208133
4 | 46:15.09 | 14:01.56 | 208134 | 271264


Track 1

Filename D:\EAC Rips\Elliot Sharp - Dispersion (2018) [CD FLAC] {mode 305}\01 - Veni Academy, Marián Lejava - Flexagons.wav

Pre-gap length 0:00:02.00

Peak level 84.2 %
Extraction speed 3.5 X
Track quality 100.0 %
Test CRC E15F59B5
Copy CRC E15F59B5
Track not present in AccurateRip database
Copy OK

Track 2

Filename D:\EAC Rips\Elliot Sharp - Dispersion (2018) [CD FLAC] {mode 305}\02 - Veni Academy, Marián Lejava - Dispersion of Seeds.wav

Pre-gap length 0:00:01.71

Peak level 84.2 %
Extraction speed 4.6 X
Track quality 100.0 %
Test CRC E6E2D8D0
Copy CRC E6E2D8D0
Track not present in AccurateRip database
Copy OK

Track 3

Filename D:\EAC Rips\Elliot Sharp - Dispersion (2018) [CD FLAC] {mode 305}\03 - Elliott Sharp, Veni Academy, Marián Lejava - The Hidden Variable.wav

Pre-gap length 0:00:03.67

Peak level 84.2 %
Extraction speed 5.2 X
Track quality 100.0 %
Test CRC E00BF301
Copy CRC E00BF301
Track not present in AccurateRip database
Copy OK

Track 4

Filename D:\EAC Rips\Elliot Sharp - Dispersion (2018) [CD FLAC] {mode 305}\04 - Elliott Sharp, Veni Academy, Marián Lejava - Palimpsest.wav

Pre-gap length 0:00:03.46

Peak level 84.2 %
Extraction speed 5.8 X
Track quality 100.0 %
Test CRC 1FF08B46
Copy CRC 1FF08B46
Track not present in AccurateRip database
Copy OK


None of the tracks are present in the AccurateRip database

No errors occurred

End of status report

–– CUETools DB Plugin V2.1.6

[CTDB TOCID: cYei01AhJAcsHopHkPSqYPYDVbc-] disk not present in database
Submit result: cYei01AhJAcsHopHkPSqYPYDVbc- has been uploaded


==== Log checksum 45EF950FBD48D1049D48CC58D97D1D21C0A940FBACD37E30CE02B74285BC354C ====

Thanks to the Original ripper !