Subcategories

Vikingur Olafsson - Johann Sebastian Bach (2018)

Posted By: delpotro
Vikingur Olafsson - Johann Sebastian Bach (2018)

Vikingur Olafsson - Johann Sebastian Bach (2018)
XLD Rip | FLAC (tracks+log+.cue) - 259 Mb | MP3 CBR 320 kbps - 187 Mb | 01:17:26
Classical | Label: Deutsche Grammophon

For his new Deutsche Grammophon album, Icelandic pianist Víkingur Ólafsson explores the wellspring of Johann Sebastian Bach’s keyboard music, delivering experimental, innovative and timeless performances.

Víkingur Ólafsson is a musical free spirit with a mission. He first made the classical world sit up and listen in early 2017 with his recording of solo piano works by Philip Glass – a fascinating journey through the time and space of their minimalist structures. Glass is now followed by Bach. Set for release in September, Ólafsson’s second Deutsche Grammophon album, the pithily entitled Bach, contains a mixture of original works and transcriptions, which the pianist has woven together in intriguing style.

“It would all mean nothing without Bach,” says Ólafsson. “If Glass’s music is minimal, then Bach’s is maximal!” Having studied his music intensively, he here casts new light on some of the composer’s many different faces. Excerpts from the Well-Tempered Clavier such as the Prelude and Fugue in E minor, BWV 855 or contrapuntal gems such as the Sinfonia No. 15 in B minor, BWV 801 showcase him as, in Ólafsson’s words, “the master of the short story”, while the larger-scale but playful Aria variata, BWV 989 forms the structural heart of the album. The original works are juxtaposed with colourful contributions from other composers, including Rachmaninov’s arrangement of the Gavotte from the Partita No. 3 for Violin in E major, BWV 1006; Busoni’s transcription of the chorale “Ich ruf zu dir, Herr Jesu Christ”; and Ólafsson’s own mesmerising transcription of the first aria from the solo cantata for alto “Widerstehe doch der Sünde”. As his Glass album demonstrated, the pianist is an intelligent and innovative sculptor of sound, an artist who defies conventional categorisation and is redefining classical music. On Bach, the 34-year-old’s lean but immensely expressive playing captivates listeners, his eloquence and the sensuous delight he takes in experimentation holding them spellbound.

The infinitely inspirational power of Bach’s music will be heard again on Ólafsson’s next recording. Scheduled for release on Deutsche Grammophon in late 2018/early 2019, the album will bring together atmospheric reworkings of music by composers such as Hans-Joachim Roedelius, Ben Frost, Peter Gregson and Valgeir Sigurðsson – reimaginings that artfully defragment the creations of Bach. It will also feature a moving and intimate new work Ólafsson has written in memory of his late friend and colleague Jóhann Jóhannsson.

“Everything is there in Johann Sebastian’s music: architectural perfection and profound emotion,” says Ólafsson. In his hands, the universe that is Bach shines with new light.
Tracklist:
1 Prelude & Fughetta in G Major, BWV 902: 1. Prelude
2 Nun freut euch, lieben Christen g'mein, Chorale Prelude BWV 734 (Transcr. Wilhelm Kempff)

Prelude & Fugue in E Minor (Well-Tempered Clavier, Book I, No. 10), BWV 855
3 1. Prelude
4 2. Fugue
5 Organ Sonata No. 4, BWV 528: 2. Andante [Adagio] (Transcr. by August Stradal)

Prelude & Fugue in D Major (Well-Tempered Clavier, Book I, No. 5), BWV 850
6 1. Prelude
7 2. Fugue
8 Nun komm der Heiden Heiland, Chorale Prelude BWV 659 (Transcr. by Ferruccio Busoni)

Prelude & Fugue in C Minor (Well-Tempered Clavier, Book I, No. 2), BWV 847
9 1. Prelude
10 2. Fugue
11 Widerstehe doch der Sünde, BWV 54 (Transcr. by Víkingur Ólafsson)

Aria variata (alla maniera italiana) in A Minor, BWV 989
12 Aria
13 Variation I. Largo
14 Variation II
15 Variation III
16 Variation IV. Allegro
17 Variation V. Un poco allegro
18 Variation VI. Andante
19 Variation VII. Un poco allegro
20 Variation VIII. Allegro
21 Variation IX
22 Variation X
23 Aria da capo
24 Invention No. 12 in A Major, BWV 783
25 Sinfonia No. 12 in A Major, BWV 798
26 Suite from the Partita No.3 in E Major for Solo Violin, BWV 1006: 2. Gavotte (Transcr. by Sergey Rachmaninov)
27 Prelude & Fugue, BWV 855a: 1. Prelude No. 10 in B Minor (Transcr. by Alexander Siloti)
28 Sinfonia No. 15 in B Minor, BWV 801
29 Invention No. 15 in B Minor, BWV 786

Concerto in D Minor, BWV 974
30 1. Andante
31 2. Adagio
32 3. Presto
33 Ich ruf zu dir Herr Jesu Christ, Chorale Prelude BWV 639 (Transcr. by Ferruccio Busoni)

Fantasia & Fugue in A Minor, BWV 904
34 1. Fantasia
35 2. Fugue

X Lossless Decoder version 20170729 (150.3)

XLD extraction logfile from 2018-09-14 19:59:58 -0400

Víkingur Ólafsson / Johann Sebastian Bach

Used drive : Apple SuperDrive (revision 2.00)
Media type : Pressed CD

Ripper mode : XLD Secure Ripper
Disable audio cache : OK for the drive with a cache less than 1375KiB
Make use of C2 pointers : NO
Read offset correction : 6
Max retry count : 100
Gap status : Analyzed, Appended (except HTOA)

TOC of the extracted CD
Track | Start | Length | Start sector | End sector
––––––––––––––––––––––––––––-
1 | 00:00:00 | 03:26:32 | 0 | 15481
2 | 03:26:32 | 01:51:10 | 15482 | 23816
3 | 05:17:42 | 02:03:06 | 23817 | 33047
4 | 07:20:48 | 01:16:50 | 33048 | 38797
5 | 08:37:23 | 05:26:39 | 38798 | 63286
6 | 14:03:62 | 01:02:74 | 63287 | 68010
7 | 15:06:61 | 01:45:64 | 68011 | 75949
8 | 16:52:50 | 05:04:29 | 75950 | 98778
9 | 21:57:04 | 01:24:34 | 98779 | 105112
10 | 23:21:38 | 01:38:02 | 105113 | 112464
11 | 24:59:40 | 04:26:16 | 112465 | 132430
12 | 29:25:56 | 01:50:44 | 132431 | 140724
13 | 31:16:25 | 01:09:47 | 140725 | 145946
14 | 32:25:72 | 00:55:64 | 145947 | 150135
15 | 33:21:61 | 00:55:36 | 150136 | 154296
16 | 34:17:22 | 00:55:58 | 154297 | 158479
17 | 35:13:05 | 00:59:07 | 158480 | 162911
18 | 36:12:12 | 02:06:16 | 162912 | 172377
19 | 38:18:28 | 00:47:03 | 172378 | 175905
20 | 39:05:31 | 00:49:35 | 175906 | 179615
21 | 39:54:66 | 01:08:02 | 179616 | 184717
22 | 41:02:68 | 01:46:44 | 184718 | 192711
23 | 42:49:37 | 01:18:65 | 192712 | 198626
24 | 44:08:27 | 01:19:16 | 198627 | 204567
25 | 45:27:43 | 01:23:49 | 204568 | 210841
26 | 46:51:17 | 02:48:36 | 210842 | 223477
27 | 49:39:53 | 03:00:33 | 223478 | 237010
28 | 52:40:11 | 01:19:13 | 237011 | 242948
29 | 53:59:24 | 01:11:53 | 242949 | 248326
30 | 55:11:02 | 02:17:02 | 248327 | 258603
31 | 57:28:04 | 04:10:25 | 258604 | 277378
32 | 61:38:29 | 03:31:24 | 277379 | 293227
33 | 65:09:53 | 03:08:06 | 293228 | 307333
34 | 68:17:59 | 03:54:43 | 307334 | 324926
35 | 72:12:27 | 05:14:25 | 324927 | 348501

AccurateRip Summary
Disc not found in AccurateRip DB.

All Tracks
Album gain : -0.97 dB
Peak : 0.947021
Statistics
Read error : 0
Jitter error (maybe fixed) : 0
Retry sector count : 0
Damaged sector count : 0

Track 01
Filename : /Users/bill/Desktop/XLD/01 - Prelude & Fughetta in G Major, BWV 902 - 1. Prelude.flac
Pre-gap length : 00:02:00

Track gain : 1.58 dB
Peak : 0.680725
CRC32 hash (test run) : D040E6BA
CRC32 hash : D040E6BA
CRC32 hash (skip zero) : C801EA3C
AccurateRip v1 signature : 97454E4E
AccurateRip v2 signature : 52B17902
->Track not present in AccurateRip database.
Statistics
Read error : 0
Jitter error (maybe fixed) : 0
Retry sector count : 0
Damaged sector count : 0

Track 02
Filename : /Users/bill/Desktop/XLD/02 - Nun freut euch, lieben Christen g'mein, Chorale Prelude BWV 734 (Transcr. Wilhelm Kempff).flac

Track gain : 0.57 dB
Peak : 0.705383
CRC32 hash (test run) : EA02EC29
CRC32 hash : EA02EC29
CRC32 hash (skip zero) : FDE22C03
AccurateRip v1 signature : AB40BBE6
AccurateRip v2 signature : FD0C4667
->Track not present in AccurateRip database.
Statistics
Read error : 0
Jitter error (maybe fixed) : 0
Retry sector count : 0
Damaged sector count : 0

Track 03
Filename : /Users/bill/Desktop/XLD/03 - Prelude & Fugue in E Minor (Well-Tempered Clavier, Book I, No. 10), BWV 855 - 1. Prelude.flac

Track gain : -0.19 dB
Peak : 0.714691
CRC32 hash (test run) : E7A8392D
CRC32 hash : E7A8392D
CRC32 hash (skip zero) : 74FA61D6
AccurateRip v1 signature : 797D16A4
AccurateRip v2 signature : D6D0F583
->Track not present in AccurateRip database.
Statistics
Read error : 0
Jitter error (maybe fixed) : 0
Retry sector count : 0
Damaged sector count : 0

Track 04
Filename : /Users/bill/Desktop/XLD/04 - Prelude & Fugue in E Minor (Well-Tempered Clavier, Book I, No. 10), BWV 855 - 2. Fugue.flac

Track gain : -2.45 dB
Peak : 0.881073
CRC32 hash (test run) : 73513CBE
CRC32 hash : 73513CBE
CRC32 hash (skip zero) : 4C63CCC9
AccurateRip v1 signature : 193B4457
AccurateRip v2 signature : 29CB39A0
->Track not present in AccurateRip database.
Statistics
Read error : 0
Jitter error (maybe fixed) : 0
Retry sector count : 0
Damaged sector count : 0

Track 05
Filename : /Users/bill/Desktop/XLD/05 - Organ Sonata No. 4, BWV 528 - 2. Andante [Adagio] (Transcr. by August Stradal).flac

Track gain : -2.73 dB
Peak : 0.946899
CRC32 hash (test run) : 77B5069C
CRC32 hash : 77B5069C
CRC32 hash (skip zero) : 5DE825B9
AccurateRip v1 signature : 99E2F122
AccurateRip v2 signature : 6A1C2E1C
->Track not present in AccurateRip database.
Statistics
Read error : 0
Jitter error (maybe fixed) : 0
Retry sector count : 0
Damaged sector count : 0

Track 06
Filename : /Users/bill/Desktop/XLD/06 - Prelude & Fugue in D Major (Well-Tempered Clavier, Book I, No. 5), BWV 850 - 1. Prelude.flac

Track gain : -0.24 dB
Peak : 0.683380
CRC32 hash (test run) : 65F1660F
CRC32 hash : 65F1660F
CRC32 hash (skip zero) : A9F4C3B9
AccurateRip v1 signature : 1171EAFD
AccurateRip v2 signature : 4B8EF83F
->Track not present in AccurateRip database.
Statistics
Read error : 0
Jitter error (maybe fixed) : 0
Retry sector count : 0
Damaged sector count : 0

Track 07
Filename : /Users/bill/Desktop/XLD/07 - Prelude & Fugue in D Major (Well-Tempered Clavier, Book I, No. 5), BWV 850 - 2. Fugue.flac

Track gain : 1.33 dB
Peak : 0.690582
CRC32 hash (test run) : C6E942FB
CRC32 hash : C6E942FB
CRC32 hash (skip zero) : 8B34B4C3
AccurateRip v1 signature : AEA0EAFB
AccurateRip v2 signature : 6666BF1B
->Track not present in AccurateRip database.
Statistics
Read error : 0
Jitter error (maybe fixed) : 0
Retry sector count : 0
Damaged sector count : 0

Track 08
Filename : /Users/bill/Desktop/XLD/08 - Nun komm der Heiden Heiland, Chorale Prelude BWV 659 (Transcr. by Ferruccio Busoni).flac

Track gain : 0.14 dB
Peak : 0.946991
CRC32 hash (test run) : FD713EF0
CRC32 hash : FD713EF0
CRC32 hash (skip zero) : 4AF787C9
AccurateRip v1 signature : 76806FAA
AccurateRip v2 signature : 078BACB4
->Track not present in AccurateRip database.
Statistics
Read error : 0
Jitter error (maybe fixed) : 0
Retry sector count : 0
Damaged sector count : 0

Track 09
Filename : /Users/bill/Desktop/XLD/09 - Prelude & Fugue in C Minor (Well-Tempered Clavier, Book I, No. 2), BWV 847 - 1. Prelude.flac

Track gain : 0.10 dB
Peak : 0.711426
CRC32 hash (test run) : 341C5B73
CRC32 hash : 341C5B73
CRC32 hash (skip zero) : 873E2110
AccurateRip v1 signature : 779F8E20
AccurateRip v2 signature : 0A674E59
->Track not present in AccurateRip database.
Statistics
Read error : 0
Jitter error (maybe fixed) : 0
Retry sector count : 0
Damaged sector count : 0

Track 10
Filename : /Users/bill/Desktop/XLD/10 - Prelude & Fugue in C Minor (Well-Tempered Clavier, Book I, No. 2), BWV 847 - 2. Fugue.flac

Track gain : -1.26 dB
Peak : 0.893066
CRC32 hash (test run) : FDFDDA88
CRC32 hash : FDFDDA88
CRC32 hash (skip zero) : AECF228A
AccurateRip v1 signature : 6B84A3E3
AccurateRip v2 signature : 0324EB68
->Track not present in AccurateRip database.
Statistics
Read error : 0
Jitter error (maybe fixed) : 0
Retry sector count : 0
Damaged sector count : 0

Track 11
Filename : /Users/bill/Desktop/XLD/11 - Widerstehe doch der Sünde, BWV 54 (Transcr. by Víkingur Ólafsson).flac

Track gain : 2.22 dB
Peak : 0.618561
CRC32 hash (test run) : FDA75A12
CRC32 hash : FDA75A12
CRC32 hash (skip zero) : A9E36FF3
AccurateRip v1 signature : 3949D25D
AccurateRip v2 signature : 5A95D631
->Track not present in AccurateRip database.
Statistics
Read error : 0
Jitter error (maybe fixed) : 0
Retry sector count : 0
Damaged sector count : 0

Track 12
Filename : /Users/bill/Desktop/XLD/12 - Aria variata (alla maniera italiana) in A Minor, BWV 989 - Aria.flac

Track gain : 8.07 dB
Peak : 0.265869
CRC32 hash (test run) : 2CA45D7E
CRC32 hash : 2CA45D7E
CRC32 hash (skip zero) : D5092B59
AccurateRip v1 signature : E873AB81
AccurateRip v2 signature : DFC57D0A
->Track not present in AccurateRip database.
Statistics
Read error : 0
Jitter error (maybe fixed) : 0
Retry sector count : 0
Damaged sector count : 0

Track 13
Filename : /Users/bill/Desktop/XLD/13 - Aria variata (alla maniera italiana) in A Minor, BWV 989 - Variation I. Largo.flac

Track gain : 1.46 dB
Peak : 0.722961
CRC32 hash (test run) : D258FE81
CRC32 hash : D258FE81
CRC32 hash (skip zero) : 210250BA
AccurateRip v1 signature : 4D34F10D
AccurateRip v2 signature : FF078768
->Track not present in AccurateRip database.
Statistics
Read error : 0
Jitter error (maybe fixed) : 0
Retry sector count : 0
Damaged sector count : 0

Track 14
Filename : /Users/bill/Desktop/XLD/14 - Aria variata (alla maniera italiana) in A Minor, BWV 989 - Variation II.flac

Track gain : -0.81 dB
Peak : 0.742493
CRC32 hash (test run) : B611BE07
CRC32 hash : B611BE07
CRC32 hash (skip zero) : 88DE30A4
AccurateRip v1 signature : 59FAE495
AccurateRip v2 signature : B64F002D
->Track not present in AccurateRip database.
Statistics
Read error : 0
Jitter error (maybe fixed) : 0
Retry sector count : 0
Damaged sector count : 0

Track 15
Filename : /Users/bill/Desktop/XLD/15 - Aria variata (alla maniera italiana) in A Minor, BWV 989 - Variation III.flac

Track gain : 0.00 dB
Peak : 0.728699
CRC32 hash (test run) : 72997776
CRC32 hash : 72997776
CRC32 hash (skip zero) : 2BDE9436
AccurateRip v1 signature : B73113C2
AccurateRip v2 signature : 84A25AC5
->Track not present in AccurateRip database.
Statistics
Read error : 0
Jitter error (maybe fixed) : 0
Retry sector count : 0
Damaged sector count : 0

Track 16
Filename : /Users/bill/Desktop/XLD/16 - Aria variata (alla maniera italiana) in A Minor, BWV 989 - Variation IV. Allegro.flac

Track gain : -0.99 dB
Peak : 0.700348
CRC32 hash (test run) : D8FE0384
CRC32 hash : D8FE0384
CRC32 hash (skip zero) : 6B3FA49D
AccurateRip v1 signature : DBA9F027
AccurateRip v2 signature : 405E902E
->Track not present in AccurateRip database.
Statistics
Read error : 0
Jitter error (maybe fixed) : 0
Retry sector count : 0
Damaged sector count : 0

Track 17
Filename : /Users/bill/Desktop/XLD/17 - Aria variata (alla maniera italiana) in A Minor, BWV 989 - Variation V. Un poco allegro.flac

Track gain : 1.64 dB
Peak : 0.663879
CRC32 hash (test run) : DD22C3E4
CRC32 hash : DD22C3E4
CRC32 hash (skip zero) : 27F96175
AccurateRip v1 signature : C070580F
AccurateRip v2 signature : 2BC98F4C
->Track not present in AccurateRip database.
Statistics
Read error : 0
Jitter error (maybe fixed) : 0
Retry sector count : 0
Damaged sector count : 0

Track 18
Filename : /Users/bill/Desktop/XLD/18 - Aria variata (alla maniera italiana) in A Minor, BWV 989 - Variation VI. Andante.flac

Track gain : 7.64 dB
Peak : 0.296631
CRC32 hash (test run) : D43E1C27
CRC32 hash : D43E1C27
CRC32 hash (skip zero) : 17699F0D
AccurateRip v1 signature : 417004AA
AccurateRip v2 signature : 5DB94E76
->Track not present in AccurateRip database.
Statistics
Read error : 0
Jitter error (maybe fixed) : 0
Retry sector count : 0
Damaged sector count : 0

Track 19
Filename : /Users/bill/Desktop/XLD/19 - Aria variata (alla maniera italiana) in A Minor, BWV 989 - Variation VII. Un poco allegro.flac

Track gain : -0.01 dB
Peak : 0.700287
CRC32 hash (test run) : 69FBBB96
CRC32 hash : 69FBBB96
CRC32 hash (skip zero) : CDF88E8F
AccurateRip v1 signature : EE03FC7A
AccurateRip v2 signature : A7915015
->Track not present in AccurateRip database.
Statistics
Read error : 0
Jitter error (maybe fixed) : 0
Retry sector count : 0
Damaged sector count : 0

Track 20
Filename : /Users/bill/Desktop/XLD/20 - Aria Variata (alla maniera italiana) In A Minor, Bwv 989 - Variation VIII. Allegro.flac

Track gain : -0.67 dB
Peak : 0.640930
CRC32 hash (test run) : 1CABD780
CRC32 hash : 1CABD780
CRC32 hash (skip zero) : 3F2E79A1
AccurateRip v1 signature : 34170AC8
AccurateRip v2 signature : 6A6E2C92
->Track not present in AccurateRip database.
Statistics
Read error : 0
Jitter error (maybe fixed) : 0
Retry sector count : 0
Damaged sector count : 0

Track 21
Filename : /Users/bill/Desktop/XLD/21 - Aria variata (alla maniera italiana) in A Minor, BWV 989 - Variation IX.flac

Track gain : 2.17 dB
Peak : 0.578278
CRC32 hash (test run) : 5F347B16
CRC32 hash : 5F347B16
CRC32 hash (skip zero) : 4164C31B
AccurateRip v1 signature : 10780AFC
AccurateRip v2 signature : C0C75581
->Track not present in AccurateRip database.
Statistics
Read error : 0
Jitter error (maybe fixed) : 0
Retry sector count : 0
Damaged sector count : 0

Track 22
Filename : /Users/bill/Desktop/XLD/22 - Aria variata (alla maniera italiana) in A Minor, BWV 989 - Variation X.flac

Track gain : 4.28 dB
Peak : 0.573273
CRC32 hash (test run) : 0CDE6512
CRC32 hash : 0CDE6512
CRC32 hash (skip zero) : 6C78EF63
AccurateRip v1 signature : 6354DAAB
AccurateRip v2 signature : CC4D1B70
->Track not present in AccurateRip database.
Statistics
Read error : 0
Jitter error (maybe fixed) : 0
Retry sector count : 0
Damaged sector count : 0

Track 23
Filename : /Users/bill/Desktop/XLD/23 - Aria variata (alla maniera italiana) in A Minor, BWV 989 - Aria da capo.flac

Track gain : 11.49 dB
Peak : 0.279053
CRC32 hash (test run) : 6EC8921D
CRC32 hash : 6EC8921D
CRC32 hash (skip zero) : 46BBFD7E
AccurateRip v1 signature : C1E9FD09
AccurateRip v2 signature : 6A1D2FCC
->Track not present in AccurateRip database.
Statistics
Read error : 0
Jitter error (maybe fixed) : 0
Retry sector count : 0
Damaged sector count : 0

Track 24
Filename : /Users/bill/Desktop/XLD/24 - Invention No. 12 in A Major, BWV 783.flac

Track gain : 0.09 dB
Peak : 0.634033
CRC32 hash (test run) : 06F0603C
CRC32 hash : 06F0603C
CRC32 hash (skip zero) : B9E423A0
AccurateRip v1 signature : 9BDDA6E6
AccurateRip v2 signature : 9A847155
->Track not present in AccurateRip database.
Statistics
Read error : 0
Jitter error (maybe fixed) : 0
Retry sector count : 0
Damaged sector count : 0

Track 25
Filename : /Users/bill/Desktop/XLD/25 - Sinfonia No. 12 in A Major, BWV 798.flac

Track gain : 1.21 dB
Peak : 0.619415
CRC32 hash (test run) : E25A56F4
CRC32 hash : E25A56F4
CRC32 hash (skip zero) : 515896F3
AccurateRip v1 signature : 86E83D8F
AccurateRip v2 signature : D28A2071
->Track not present in AccurateRip database.
Statistics
Read error : 0
Jitter error (maybe fixed) : 0
Retry sector count : 0
Damaged sector count : 0

Track 26
Filename : /Users/bill/Desktop/XLD/26 - Suite from the Partita No.3 in E Major for Solo Violin, BWV 1006 - 2. Gavotte (Transcr. by Sergey Rachmaninov).flac

Track gain : -1.44 dB
Peak : 0.911957
CRC32 hash (test run) : A78810C7
CRC32 hash : A78810C7
CRC32 hash (skip zero) : 9B9D5276
AccurateRip v1 signature : 033D48CA
AccurateRip v2 signature : BD326613
->Track not present in AccurateRip database.
Statistics
Read error : 0
Jitter error (maybe fixed) : 0
Retry sector count : 0
Damaged sector count : 0

Track 27
Filename : /Users/bill/Desktop/XLD/27 - Prelude & Fugue, BWV 855a - 1. Prelude No. 10 in B Minor (Transcr. by Alexander Siloti).flac

Track gain : 7.04 dB
Peak : 0.324371
CRC32 hash (test run) : 3F178FD1
CRC32 hash : 3F178FD1
CRC32 hash (skip zero) : A6F9FB05
AccurateRip v1 signature : 86DEFAFE
AccurateRip v2 signature : E59ED0D6
->Track not present in AccurateRip database.
Statistics
Read error : 0
Jitter error (maybe fixed) : 0
Retry sector count : 0
Damaged sector count : 0

Track 28
Filename : /Users/bill/Desktop/XLD/28 - Sinfonia No. 15 in B Minor, BWV 801.flac

Track gain : 0.05 dB
Peak : 0.644653
CRC32 hash (test run) : D291B258
CRC32 hash : D291B258
CRC32 hash (skip zero) : 72C41035
AccurateRip v1 signature : 99FA7A24
AccurateRip v2 signature : 2ED941E9
->Track not present in AccurateRip database.
Statistics
Read error : 0
Jitter error (maybe fixed) : 0
Retry sector count : 0
Damaged sector count : 0

Track 29
Filename : /Users/bill/Desktop/XLD/29 - Invention No. 15 in B Minor, BWV 786.flac

Track gain : 3.17 dB
Peak : 0.513245
CRC32 hash (test run) : DEC11953
CRC32 hash : DEC11953
CRC32 hash (skip zero) : 4633E1D3
AccurateRip v1 signature : F65A1830
AccurateRip v2 signature : D4779D37
->Track not present in AccurateRip database.
Statistics
Read error : 0
Jitter error (maybe fixed) : 0
Retry sector count : 0
Damaged sector count : 0

Track 30
Filename : /Users/bill/Desktop/XLD/30 - Concerto in D Minor, BWV 974 - 1. Andante.flac

Track gain : -0.93 dB
Peak : 0.941132
CRC32 hash (test run) : FB37B3BC
CRC32 hash : FB37B3BC
CRC32 hash (skip zero) : 607372FB
AccurateRip v1 signature : 55511E08
AccurateRip v2 signature : 3074482C
->Track not present in AccurateRip database.
Statistics
Read error : 0
Jitter error (maybe fixed) : 0
Retry sector count : 0
Damaged sector count : 0

Track 31
Filename : /Users/bill/Desktop/XLD/31 - Concerto in D Minor, BWV 974 - 2. Adagio.flac

Track gain : 5.89 dB
Peak : 0.688080
CRC32 hash (test run) : 312E2E9C
CRC32 hash : 312E2E9C
CRC32 hash (skip zero) : EF7D8246
AccurateRip v1 signature : 924C5CB5
AccurateRip v2 signature : 3D9EB478
->Track not present in AccurateRip database.
Statistics
Read error : 0
Jitter error (maybe fixed) : 0
Retry sector count : 0
Damaged sector count : 0

Track 32
Filename : /Users/bill/Desktop/XLD/32 - Concerto in D Minor, BWV 974 - 3. Presto.flac

Track gain : -0.81 dB
Peak : 0.837830
CRC32 hash (test run) : 77C72D7F
CRC32 hash : 77C72D7F
CRC32 hash (skip zero) : 56394CE5
AccurateRip v1 signature : 51AF2B83
AccurateRip v2 signature : 1BA4B359
->Track not present in AccurateRip database.
Statistics
Read error : 0
Jitter error (maybe fixed) : 0
Retry sector count : 0
Damaged sector count : 0

Track 33
Filename : /Users/bill/Desktop/XLD/33 - Ich ruf zu dir Herr Jesu Christ, Chorale Prelude BWV 639 (Transcr. by Ferruccio Busoni).flac

Track gain : 5.81 dB
Peak : 0.431213
CRC32 hash (test run) : D023327A
CRC32 hash : D023327A
CRC32 hash (skip zero) : 0914BC95
AccurateRip v1 signature : C9C1AE0D
AccurateRip v2 signature : A8D20E1C
->Track not present in AccurateRip database.
Statistics
Read error : 0
Jitter error (maybe fixed) : 0
Retry sector count : 0
Damaged sector count : 0

Track 34
Filename : /Users/bill/Desktop/XLD/34 - Fantasia & Fugue in A Minor, BWV 904 - 1. Fantasia.flac

Track gain : -1.37 dB
Peak : 0.945740
CRC32 hash (test run) : 5839C79D
CRC32 hash : 5839C79D
CRC32 hash (skip zero) : 46ABB747
AccurateRip v1 signature : 1F725AED
AccurateRip v2 signature : 3ADCBCB2
->Track not present in AccurateRip database.
Statistics
Read error : 0
Jitter error (maybe fixed) : 0
Retry sector count : 0
Damaged sector count : 0

Track 35
Filename : /Users/bill/Desktop/XLD/35 - Fantasia & Fugue in A Minor, BWV 904 - 2. Fugue.flac

Track gain : -5.18 dB
Peak : 0.947021
CRC32 hash (test run) : 6E8F4FCA
CRC32 hash : 6E8F4FCA
CRC32 hash (skip zero) : F1E09E7C
AccurateRip v1 signature : 859351C4
AccurateRip v2 signature : D2E21298
->Track not present in AccurateRip database.
Statistics
Read error : 0
Jitter error (maybe fixed) : 0
Retry sector count : 0
Damaged sector count : 0

No errors occurred

End of status report

––-BEGIN XLD SIGNATURE––-
Ci6T2H9ASVbsCnO8q7wI5tKKRb49rapmwNyxaEyryP9h8o2ok4S.2_KZXhr2OCA3_xG0.JRpP4dLF.rTvl8z.t2oUn0AvpcYtDW9n6e
––-END XLD SIGNATURE––-

Thanks to the Original ripper billthatwasnthere !