Subcategories

Violent Femmes - Hotel Last Resort (2019)

Posted By: delpotro
Violent Femmes - Hotel Last Resort (2019)

Violent Femmes - Hotel Last Resort (2019)
EAC Rip | FLAC (tracks+log+.cue) - 247 Mb | MP3 CBR 320 kbps - 88 Mb | 00:38:10
Folk Punk | Label: Add It Up Productions, [PIAS] Recordings

Dubbed Hotel Last Resort, it’s set for a July 26th due date through [PIAS]. It represents Violent Femmes’ tenth (overall and first since We Can Do Anything from 2016. The forthcoming collection spans a total of 13 songs, most of which feature additional instrumentation from Violent Femmes’ longtime backing band Horn of Dilemma. There are also two covers included — “I’m Not Gonna Cry”, originally by Greek rock super stars Pyx Lax, and a rendition of Irving Berlin’s “God Bless America”.

Additionally, there’s a new version of “I’m Nothing”, from the group’s 1994 record, New Times. It comes with new vocals from pro skateboarder Stefan Janoski, a longtime fan who considers the song one of his all-time favorites. In collaboration with Janoski, Violent Femmes have also designed a new Nike shoe inspired by the track’s lyrics.

In a statement, the band’s Brian Ritchie called Hotel Last Resort “probably the best one we’ve made since [1984’s] Hallowed Ground.” He added,

It’s just a very focused album, the songs all hold together. It’s a classic album, in the sense that people should actually sit down and listen to the whole thing. It’s not too long. It’s short, it’s punchy, it’s solid, it’s to the point, goes a few different directions but it always comes back to the core approach and then it’s over. Hopefully you’ll think ‘I want to hear that again."'
Tracklist:
1. Another Chorus (02:38)
2. I Get What I Want (02:30)
3. I'm Nothing (feat. Stefan Janoski) (02:26)
4. Adam Was a Man (02:59)
5. Not OK (02:34)
6. Hotel Last Resort (feat. Tom Verlaine) (05:12)
7. Everlasting You (02:13)
8. It's All Or Nothing (02:25)
9. I'm Not Gonna Cry (02:56)
10. This Free Ride (02:14)
11. Paris To Sleep (03:38)
12. Sleepin' At the Meetin' (01:38)
13. God Bless America (04:40)

Exact Audio Copy V1.3 from 2. September 2016

EAC extraction logfile from 7. September 2019, 14:49

Violent Femmes / Hotel Last Resort

Used drive : TSSTcorpDVD+-RW TS-U633J Adapter: 1 ID: 0

Read mode : Secure
Utilize accurate stream : Yes
Defeat audio cache : Yes
Make use of C2 pointers : No

Read offset correction : 6
Overread into Lead-In and Lead-Out : No
Fill up missing offset samples with silence : Yes
Delete leading and trailing silent blocks : No
Null samples used in CRC calculations : Yes
Used interface : Native Win32 interface for Win NT & 2000
Gap handling : Appended to previous track

Used output format : User Defined Encoder
Selected bitrate : 128 kBit/s
Quality : High
Add ID3 tag : No
Command line compressor : C:\Users\Dell\Documents\flac.exe
Additional command line options : -8 -e -p -V -T "ARTIST=%artist%" -T "TITLE=%title%" -T "ALBUM=%albumtitle%" -T "DATE=%year%" -T "TRACKNUMBER=%tracknr%" -T "GENRE=%genre%" -T "PERFORMER=%albuminterpret%" -T "COMPOSER=%composer%" %haslyrics%–tag-from-file=LYRICS="%lyricsfile%"%haslyrics% -T "ALBUMARTIST=%albumartist%" -T "DISCNUMBER=%cdnumber%" -T "TOTALDISCS=%totalcds%" -T "TOTALTRACKS=%numtracks%" -T "COMMENT=%comment%" %source% -o %dest%


TOC of the extracted CD

Track | Start | Length | Start sector | End sector
––––––––––––––––––––––––––––-
1 | 0:00.00 | 2:38.19 | 0 | 11868
2 | 2:38.19 | 2:30.50 | 11869 | 23168
3 | 5:08.69 | 2:26.66 | 23169 | 34184
4 | 7:35.60 | 2:59.69 | 34185 | 47678
5 | 10:35.54 | 2:34.35 | 47679 | 59263
6 | 13:10.14 | 5:12.64 | 59264 | 82727
7 | 18:23.03 | 2:13.00 | 82728 | 92702
8 | 20:36.03 | 2:25.04 | 92703 | 103581
9 | 23:01.07 | 2:56.46 | 103582 | 116827
10 | 25:57.53 | 2:14.56 | 116828 | 126933
11 | 28:12.34 | 3:38.19 | 126934 | 143302
12 | 31:50.53 | 1:38.55 | 143303 | 150707
13 | 33:29.33 | 4:40.68 | 150708 | 171775


Track 1

Filename F:\! FLAC\Violent Femmes - Hotel Last Resort (2019) [CD FLAC]\01 Another Chorus.wav

Pre-gap length 0:00:02.00

Peak level 100.0 %
Extraction speed 2.4 X
Track quality 100.0 %
Test CRC 8DC498AB
Copy CRC 8DC498AB
Accurately ripped (confidence 2) [BEF9E27B] (AR v2)
Copy OK

Track 2

Filename F:\! FLAC\Violent Femmes - Hotel Last Resort (2019) [CD FLAC]\02 I Get What I Want.wav

Peak level 99.9 %
Extraction speed 2.5 X
Track quality 100.0 %
Test CRC B1637669
Copy CRC B1637669
Accurately ripped (confidence 2) [B1F13E91] (AR v2)
Copy OK

Track 3

Filename F:\! FLAC\Violent Femmes - Hotel Last Resort (2019) [CD FLAC]\03 I'm Nothing (feat. Stefan Janoski).wav

Peak level 100.0 %
Extraction speed 2.6 X
Track quality 100.0 %
Test CRC 614719C3
Copy CRC 614719C3
Accurately ripped (confidence 2) [08F82FBE] (AR v2)
Copy OK

Track 4

Filename F:\! FLAC\Violent Femmes - Hotel Last Resort (2019) [CD FLAC]\04 Adam Was A Man.wav

Peak level 100.0 %
Extraction speed 2.3 X
Track quality 99.9 %
Test CRC 2DDB364D
Copy CRC 2DDB364D
Accurately ripped (confidence 2) [34DD690A] (AR v2)
Copy OK

Track 5

Filename F:\! FLAC\Violent Femmes - Hotel Last Resort (2019) [CD FLAC]\05 Not OK.wav

Peak level 99.4 %
Extraction speed 3.0 X
Track quality 100.0 %
Test CRC BD96094C
Copy CRC BD96094C
Accurately ripped (confidence 2) [B098AD55] (AR v2)
Copy OK

Track 6

Filename F:\! FLAC\Violent Femmes - Hotel Last Resort (2019) [CD FLAC]\06 Hotel Last Resort (feat. Tom Verlaine).wav

Peak level 100.0 %
Extraction speed 3.5 X
Track quality 100.0 %
Test CRC D14FF7E8
Copy CRC D14FF7E8
Accurately ripped (confidence 2) [51AC5D4A] (AR v2)
Copy OK

Track 7

Filename F:\! FLAC\Violent Femmes - Hotel Last Resort (2019) [CD FLAC]\07 Everlasting You.wav

Peak level 100.0 %
Extraction speed 3.3 X
Track quality 100.0 %
Test CRC 73D70510
Copy CRC 73D70510
Accurately ripped (confidence 2) [4FDB1235] (AR v2)
Copy OK

Track 8

Filename F:\! FLAC\Violent Femmes - Hotel Last Resort (2019) [CD FLAC]\08 It's All Or Nothing.wav

Peak level 99.6 %
Extraction speed 2.6 X
Track quality 99.9 %
Test CRC 940ABB59
Copy CRC 940ABB59
Accurately ripped (confidence 2) [286F0B91] (AR v2)
Copy OK

Track 9

Filename F:\! FLAC\Violent Femmes - Hotel Last Resort (2019) [CD FLAC]\09 I'm Not Gonna Cry.wav

Peak level 100.0 %
Extraction speed 2.8 X
Track quality 99.9 %
Test CRC D35406AA
Copy CRC D35406AA
Accurately ripped (confidence 2) [AEFCAF99] (AR v2)
Copy OK

Track 10

Filename F:\! FLAC\Violent Femmes - Hotel Last Resort (2019) [CD FLAC]\10 This Free Ride.wav

Peak level 100.0 %
Extraction speed 2.4 X
Track quality 99.9 %
Test CRC 73120559
Copy CRC 73120559
Accurately ripped (confidence 2) [1093FCFF] (AR v2)
Copy OK

Track 11

Filename F:\! FLAC\Violent Femmes - Hotel Last Resort (2019) [CD FLAC]\11 Paris To Sleep.wav

Peak level 98.0 %
Extraction speed 3.6 X
Track quality 100.0 %
Test CRC 31266CAA
Copy CRC 31266CAA
Accurately ripped (confidence 2) [5EC2ED78] (AR v2)
Copy OK

Track 12

Filename F:\! FLAC\Violent Femmes - Hotel Last Resort (2019) [CD FLAC]\12 Sleepin' At The Meetin'.wav

Peak level 98.9 %
Extraction speed 3.2 X
Track quality 100.0 %
Test CRC E9F8202A
Copy CRC E9F8202A
Accurately ripped (confidence 2) [3585F203] (AR v2)
Copy OK

Track 13

Filename F:\! FLAC\Violent Femmes - Hotel Last Resort (2019) [CD FLAC]\13 God Bless America.wav

Peak level 99.6 %
Extraction speed 3.8 X
Track quality 100.0 %
Test CRC 6D607F07
Copy CRC 6D607F07
Accurately ripped (confidence 2) [C107A4BD] (AR v2)
Copy OK


All tracks accurately ripped

No errors occurred

End of status report

–– CUETools DB Plugin V2.1.6

[CTDB TOCID: SzNpIlloIVfiWTkDFeID2dFQN30-] found
Submit result: SzNpIlloIVfiWTkDFeID2dFQN30- has been confirmed
Track | CTDB Status
1 | (17/17) Accurately ripped
2 | (17/17) Accurately ripped
3 | (17/17) Accurately ripped
4 | (17/17) Accurately ripped
5 | (17/17) Accurately ripped
6 | (17/17) Accurately ripped
7 | (17/17) Accurately ripped
8 | (17/17) Accurately ripped
9 | (17/17) Accurately ripped
10 | (17/17) Accurately ripped
11 | (17/17) Accurately ripped
12 | (17/17) Accurately ripped
13 | (17/17) Accurately ripped


==== Log checksum 1D9F34524F81FFB8D5996F10121E4F58C9E867FC3E95A753667E76C79A1C4FA9 ====

Thanks to the Original ripper Magika !