Tags
Language
Tags

Willy DeVille - Live At Montreux 1994 (2009/2021)

Posted By: delpotro
Willy DeVille - Live At Montreux 1994 (2009/2021)

Willy DeVille - Live At Montreux 1994 (2009/2021)
EAC Rip | FLAC (tracks+log+.cue) - 580 Mb | MP3 CBR 320 kbps - 220 Mb | 01:13:55
Blues Rock, R'n'B, Tex-Mex, Latin Rock | Label: earMUSIC

A true legend! Hardly any other musician has experienced as many musical styles in their career as singer-songwriter Willy DeVille. From his early days with Mink DeVille at New York’s famous CBGB’s club through to his later career, he has always created a unique blend of blues, pop, Cajun and soul seasoned with pure DeVille magic and that wonderful smokey voice. Willy DeVille was a regular visitor to Montreux and this album captures him at his absolute best in 1994 with a stunning band and a superb set list.
Tracklist:
01. Slow Drain
02. Steady Driving Man
03. Cadillac Walk
04. Mixed Up Shook Up Girl
05. All In The Name Of Love
06. Angel Eyes
07. Heaven Stood Still
08. Even While I Sleep
09. Demasiado Corazon (Too Much Heart)
10. Spanish Stroll
11. Hey Joe
12. New Orleans
13. Stand By Me
14. Dust My Broom

Exact Audio Copy V1.3 from 2. September 2016

EAC extraction logfile from 30. June 2021, 21:34

Willy DeVille / Live At Montreux 1994

Used drive : HL-DT-STBD-RE BH16NS55 Adapter: 1 ID: 0

Read mode : Secure
Utilize accurate stream : Yes
Defeat audio cache : Yes
Make use of C2 pointers : No

Read offset correction : 6
Overread into Lead-In and Lead-Out : No
Fill up missing offset samples with silence : Yes
Delete leading and trailing silent blocks : No
Null samples used in CRC calculations : Yes
Used interface : Native Win32 interface for Win NT & 2000
Gap handling : Appended to previous track

Used output format : User Defined Encoder
Selected bitrate : 1024 kBit/s
Quality : High
Add ID3 tag : No
Command line compressor : C:\Program Files (x86)\Exact Audio Copy\Flac\flac.exe
Additional command line options : -8 -V -T "ARTIST=%artist%" -T "TITLE=%title%" -T "ALBUM=%albumtitle%" -T "DATE=%year%" -T "TRACKNUMBER=%tracknr%" -T "GENRE=%genre%" -T "PERFORMER=%albuminterpret%" -T "COMPOSER=%composer%" %haslyrics%–tag-from-file=LYRICS="%lyricsfile%"%haslyrics% -T "ALBUMARTIST=%albumartist%" -T "DISCNUMBER=%cdnumber%" -T "TOTALDISCS=%totalcds%" -T "TOTALTRACKS=%numtracks%" -T "COMMENT=%comment%" %source% -o %dest%


TOC of the extracted CD

Track | Start | Length | Start sector | End sector
––––––––––––––––––––––––––––-
1 | 0:00.00 | 4:53.02 | 0 | 21976
2 | 4:53.02 | 4:03.37 | 21977 | 40238
3 | 8:56.39 | 7:19.22 | 40239 | 73185
4 | 16:15.61 | 9:21.69 | 73186 | 115329
5 | 25:37.55 | 3:34.09 | 115330 | 131388
6 | 29:11.64 | 5:08.04 | 131389 | 154492
7 | 34:19.68 | 3:46.09 | 154493 | 171451
8 | 38:06.02 | 3:25.42 | 171452 | 186868
9 | 41:31.44 | 4:50.39 | 186869 | 208657
10 | 46:22.08 | 6:24.33 | 208658 | 237490
11 | 52:46.41 | 4:30.60 | 237491 | 257800
12 | 57:17.26 | 3:48.56 | 257801 | 274956
13 | 61:06.07 | 6:14.07 | 274957 | 303013
14 | 67:20.14 | 6:35.12 | 303014 | 332650


Track 1

Filename D:\#cdr\#wav+flac\#New\Willy DeVille - Live At Montreux 1994\01. Willy DeVille - Slow Drain.wav

Pre-gap length 0:00:02.00

Peak level 98.8 %
Extraction speed 4.9 X
Track quality 100.0 %
Test CRC 8FD05C76
Copy CRC 8FD05C76
Cannot be verified as accurate (confidence 15) [0020EACA], AccurateRip returned [F5539EBB] (AR v2)
Copy OK

Track 2

Filename D:\#cdr\#wav+flac\#New\Willy DeVille - Live At Montreux 1994\02. Willy DeVille - Steady Driving Man.wav

Peak level 98.8 %
Extraction speed 5.3 X
Track quality 100.0 %
Test CRC D094DB89
Copy CRC D094DB89
Cannot be verified as accurate (confidence 15) [590AF20B], AccurateRip returned [E1FD6C51] (AR v2)
Copy OK

Track 3

Filename D:\#cdr\#wav+flac\#New\Willy DeVille - Live At Montreux 1994\03. Willy DeVille - Cadillac Walk.wav

Peak level 100.0 %
Extraction speed 6.1 X
Track quality 100.0 %
Test CRC 7ACCC506
Copy CRC 7ACCC506
Cannot be verified as accurate (confidence 15) [9ED03D66], AccurateRip returned [7C0E8B8E] (AR v2)
Copy OK

Track 4

Filename D:\#cdr\#wav+flac\#New\Willy DeVille - Live At Montreux 1994\04. Willy DeVille - Mixed Up Shook Up Girl.wav

Peak level 98.8 %
Extraction speed 7.0 X
Track quality 100.0 %
Test CRC BD548B9F
Copy CRC BD548B9F
Cannot be verified as accurate (confidence 15) [91108D95], AccurateRip returned [25038196] (AR v2)
Copy OK

Track 5

Filename D:\#cdr\#wav+flac\#New\Willy DeVille - Live At Montreux 1994\05. Willy DeVille - All In The Name Of Love.wav

Peak level 98.8 %
Extraction speed 5.5 X
Track quality 99.9 %
Test CRC 1DD9B8EA
Copy CRC 1DD9B8EA
Cannot be verified as accurate (confidence 15) [F9FA1F03], AccurateRip returned [C94CE163] (AR v2)
Copy OK

Track 6

Filename D:\#cdr\#wav+flac\#New\Willy DeVille - Live At Montreux 1994\06. Willy DeVille - Angel Eyes.wav

Peak level 100.0 %
Extraction speed 6.4 X
Track quality 99.9 %
Test CRC B6FC55AA
Copy CRC B6FC55AA
Cannot be verified as accurate (confidence 15) [B5FEAF63], AccurateRip returned [9DA6D0C0] (AR v2)
Copy OK

Track 7

Filename D:\#cdr\#wav+flac\#New\Willy DeVille - Live At Montreux 1994\07. Willy DeVille - Heaven Stood Still.wav

Peak level 98.2 %
Extraction speed 6.1 X
Track quality 99.9 %
Test CRC 41447673
Copy CRC 41447673
Cannot be verified as accurate (confidence 15) [1C92051D], AccurateRip returned [884DFB36] (AR v2)
Copy OK

Track 8

Filename D:\#cdr\#wav+flac\#New\Willy DeVille - Live At Montreux 1994\08. Willy DeVille - Even While I Sleep.wav

Peak level 100.0 %
Extraction speed 7.6 X
Track quality 100.0 %
Test CRC 6BD6E02A
Copy CRC 6BD6E02A
Cannot be verified as accurate (confidence 15) [48E74BE2], AccurateRip returned [85644B8E] (AR v2)
Copy OK

Track 9

Filename D:\#cdr\#wav+flac\#New\Willy DeVille - Live At Montreux 1994\09. Willy DeVille - Demasiado Corazon (Too Much Heart).wav

Peak level 100.0 %
Extraction speed 7.0 X
Track quality 99.9 %
Test CRC A3596293
Copy CRC A3596293
Cannot be verified as accurate (confidence 15) [00F094FE], AccurateRip returned [88BD5FEA] (AR v2)
Copy OK

Track 10

Filename D:\#cdr\#wav+flac\#New\Willy DeVille - Live At Montreux 1994\10. Willy DeVille - Spanish Stroll.wav

Peak level 98.8 %
Extraction speed 7.7 X
Track quality 99.9 %
Test CRC 0425D89A
Copy CRC 0425D89A
Cannot be verified as accurate (confidence 15) [E0B3635B], AccurateRip returned [B43FB2C4] (AR v2)
Copy OK

Track 11

Filename D:\#cdr\#wav+flac\#New\Willy DeVille - Live At Montreux 1994\11. Willy DeVille - Hey Joe.wav

Peak level 99.7 %
Extraction speed 8.7 X
Track quality 100.0 %
Test CRC 4E29B444
Copy CRC 4E29B444
Cannot be verified as accurate (confidence 15) [C278421B], AccurateRip returned [ECD8A722] (AR v2)
Copy OK

Track 12

Filename D:\#cdr\#wav+flac\#New\Willy DeVille - Live At Montreux 1994\12. Willy DeVille - New Orleans.wav

Peak level 98.8 %
Extraction speed 7.1 X
Track quality 99.9 %
Test CRC 79D7FB48
Copy CRC 79D7FB48
Cannot be verified as accurate (confidence 14) [99777748], AccurateRip returned [2EA283E1] (AR v2)
Copy OK

Track 13

Filename D:\#cdr\#wav+flac\#New\Willy DeVille - Live At Montreux 1994\13. Willy DeVille - Stand By Me.wav

Peak level 98.8 %
Extraction speed 9.5 X
Track quality 100.0 %
Test CRC DCD39B2B
Copy CRC DCD39B2B
Cannot be verified as accurate (confidence 15) [E87C1D08], AccurateRip returned [75ED2332] (AR v2)
Copy OK

Track 14

Filename D:\#cdr\#wav+flac\#New\Willy DeVille - Live At Montreux 1994\14. Willy DeVille - Dust My Broom.wav

Peak level 98.8 %
Extraction speed 9.9 X
Track quality 100.0 %
Test CRC 5AA3803C
Copy CRC 5AA3803C
Cannot be verified as accurate (confidence 15) [EA0BBD6B], AccurateRip returned [13B53403] (AR v2)
Copy OK


No tracks could be verified as accurate
You may have a different pressing from the one(s) in the database

No errors occurred

End of status report

–– CUETools DB Plugin V2.1.6

[CTDB TOCID: eVtJ9.fARt2uXRjvTA.QX_D8QLI-] found
Submit result: eVtJ9.fARt2uXRjvTA.QX_D8QLI- has been confirmed
Track | CTDB Status
1 | (28/28) Accurately ripped
2 | (28/28) Accurately ripped
3 | (28/28) Accurately ripped
4 | (28/28) Accurately ripped
5 | (28/28) Accurately ripped
6 | (26/28) Accurately ripped, or (2/28) differs in 12 samples @00:04:63
7 | (28/28) Accurately ripped
8 | (28/28) Accurately ripped
9 | (28/28) Accurately ripped
10 | (28/28) Accurately ripped
11 | (28/28) Accurately ripped
12 | (28/28) Accurately ripped
13 | (28/28) Accurately ripped
14 | (28/28) Accurately ripped


==== Log checksum F32EAF9812B905C1FECD036C9FC71DC6BCBBEAFBE76E89FD7F2185D223BD2104 ====

––––––––––––––––––––––––––––––

Exact Audio Copy V1.3 from 2. September 2016

EAC extraction logfile from 30. June 2021, 21:35

Willy DeVille / Live At Montreux 1994

Used drive : HL-DT-STBD-RE BH16NS55 Adapter: 1 ID: 0

Read mode : Secure
Utilize accurate stream : Yes
Defeat audio cache : Yes
Make use of C2 pointers : No

Read offset correction : 6
Overread into Lead-In and Lead-Out : No
Fill up missing offset samples with silence : Yes
Delete leading and trailing silent blocks : No
Null samples used in CRC calculations : Yes
Used interface : Native Win32 interface for Win NT & 2000
Gap handling : Appended to previous track

Used output format : User Defined Encoder
Selected bitrate : 1024 kBit/s
Quality : High
Add ID3 tag : No
Command line compressor : C:\Program Files (x86)\Exact Audio Copy\Flac\flac.exe
Additional command line options : -8 -V -T "ARTIST=%artist%" -T "TITLE=%title%" -T "ALBUM=%albumtitle%" -T "DATE=%year%" -T "TRACKNUMBER=%tracknr%" -T "GENRE=%genre%" -T "PERFORMER=%albuminterpret%" -T "COMPOSER=%composer%" %haslyrics%–tag-from-file=LYRICS="%lyricsfile%"%haslyrics% -T "ALBUMARTIST=%albumartist%" -T "DISCNUMBER=%cdnumber%" -T "TOTALDISCS=%totalcds%" -T "TOTALTRACKS=%numtracks%" -T "COMMENT=%comment%" %source% -o %dest%


TOC of the extracted CD

Track | Start | Length | Start sector | End sector
––––––––––––––––––––––––––––-
1 | 0:00.00 | 4:53.02 | 0 | 21976
2 | 4:53.02 | 4:03.37 | 21977 | 40238
3 | 8:56.39 | 7:19.22 | 40239 | 73185
4 | 16:15.61 | 9:21.69 | 73186 | 115329
5 | 25:37.55 | 3:34.09 | 115330 | 131388
6 | 29:11.64 | 5:08.04 | 131389 | 154492
7 | 34:19.68 | 3:46.09 | 154493 | 171451
8 | 38:06.02 | 3:25.42 | 171452 | 186868
9 | 41:31.44 | 4:50.39 | 186869 | 208657
10 | 46:22.08 | 6:24.33 | 208658 | 237490
11 | 52:46.41 | 4:30.60 | 237491 | 257800
12 | 57:17.26 | 3:48.56 | 257801 | 274956
13 | 61:06.07 | 6:14.07 | 274957 | 303013
14 | 67:20.14 | 6:35.12 | 303014 | 332650


Track 1

Filename D:\#cdr\#wav+flac\#New\Willy DeVille - Live At Montreux 1994\01. Willy DeVille - Slow Drain.wav

Pre-gap length 0:00:02.00

Peak level 98.8 %
Extraction speed 4.9 X
Track quality 100.0 %
Test CRC 8FD05C76
Copy CRC 8FD05C76
Cannot be verified as accurate (confidence 15) [0020EACA], AccurateRip returned [F5539EBB] (AR v2)
Copy OK

Track 2

Filename D:\#cdr\#wav+flac\#New\Willy DeVille - Live At Montreux 1994\02. Willy DeVille - Steady Driving Man.wav

Peak level 98.8 %
Extraction speed 5.3 X
Track quality 100.0 %
Test CRC D094DB89
Copy CRC D094DB89
Cannot be verified as accurate (confidence 15) [590AF20B], AccurateRip returned [E1FD6C51] (AR v2)
Copy OK

Track 3

Filename D:\#cdr\#wav+flac\#New\Willy DeVille - Live At Montreux 1994\03. Willy DeVille - Cadillac Walk.wav

Peak level 100.0 %
Extraction speed 6.1 X
Track quality 100.0 %
Test CRC 7ACCC506
Copy CRC 7ACCC506
Cannot be verified as accurate (confidence 15) [9ED03D66], AccurateRip returned [7C0E8B8E] (AR v2)
Copy OK

Track 4

Filename D:\#cdr\#wav+flac\#New\Willy DeVille - Live At Montreux 1994\04. Willy DeVille - Mixed Up Shook Up Girl.wav

Peak level 98.8 %
Extraction speed 7.0 X
Track quality 100.0 %
Test CRC BD548B9F
Copy CRC BD548B9F
Cannot be verified as accurate (confidence 15) [91108D95], AccurateRip returned [25038196] (AR v2)
Copy OK

Track 5

Filename D:\#cdr\#wav+flac\#New\Willy DeVille - Live At Montreux 1994\05. Willy DeVille - All In The Name Of Love.wav

Peak level 98.8 %
Extraction speed 5.5 X
Track quality 99.9 %
Test CRC 1DD9B8EA
Copy CRC 1DD9B8EA
Cannot be verified as accurate (confidence 15) [F9FA1F03], AccurateRip returned [C94CE163] (AR v2)
Copy OK

Track 6

Filename D:\#cdr\#wav+flac\#New\Willy DeVille - Live At Montreux 1994\06. Willy DeVille - Angel Eyes.wav

Peak level 100.0 %
Extraction speed 6.4 X
Track quality 99.9 %
Test CRC B6FC55AA
Copy CRC B6FC55AA
Cannot be verified as accurate (confidence 15) [B5FEAF63], AccurateRip returned [9DA6D0C0] (AR v2)
Copy OK

Track 7

Filename D:\#cdr\#wav+flac\#New\Willy DeVille - Live At Montreux 1994\07. Willy DeVille - Heaven Stood Still.wav

Peak level 98.2 %
Extraction speed 6.1 X
Track quality 99.9 %
Test CRC 41447673
Copy CRC 41447673
Cannot be verified as accurate (confidence 15) [1C92051D], AccurateRip returned [884DFB36] (AR v2)
Copy OK

Track 8

Filename D:\#cdr\#wav+flac\#New\Willy DeVille - Live At Montreux 1994\08. Willy DeVille - Even While I Sleep.wav

Peak level 100.0 %
Extraction speed 7.6 X
Track quality 100.0 %
Test CRC 6BD6E02A
Copy CRC 6BD6E02A
Cannot be verified as accurate (confidence 15) [48E74BE2], AccurateRip returned [85644B8E] (AR v2)
Copy OK

Track 9

Filename D:\#cdr\#wav+flac\#New\Willy DeVille - Live At Montreux 1994\09. Willy DeVille - Demasiado Corazon (Too Much Heart).wav

Peak level 100.0 %
Extraction speed 7.0 X
Track quality 99.9 %
Test CRC A3596293
Copy CRC A3596293
Cannot be verified as accurate (confidence 15) [00F094FE], AccurateRip returned [88BD5FEA] (AR v2)
Copy OK

Track 10

Filename D:\#cdr\#wav+flac\#New\Willy DeVille - Live At Montreux 1994\10. Willy DeVille - Spanish Stroll.wav

Peak level 98.8 %
Extraction speed 7.7 X
Track quality 99.9 %
Test CRC 0425D89A
Copy CRC 0425D89A
Cannot be verified as accurate (confidence 15) [E0B3635B], AccurateRip returned [B43FB2C4] (AR v2)
Copy OK

Track 11

Filename D:\#cdr\#wav+flac\#New\Willy DeVille - Live At Montreux 1994\11. Willy DeVille - Hey Joe.wav

Peak level 99.7 %
Extraction speed 8.7 X
Track quality 100.0 %
Test CRC 4E29B444
Copy CRC 4E29B444
Cannot be verified as accurate (confidence 15) [C278421B], AccurateRip returned [ECD8A722] (AR v2)
Copy OK

Track 12

Filename D:\#cdr\#wav+flac\#New\Willy DeVille - Live At Montreux 1994\12. Willy DeVille - New Orleans.wav

Peak level 98.8 %
Extraction speed 7.1 X
Track quality 99.9 %
Test CRC 79D7FB48
Copy CRC 79D7FB48
Cannot be verified as accurate (confidence 14) [99777748], AccurateRip returned [2EA283E1] (AR v2)
Copy OK

Track 13

Filename D:\#cdr\#wav+flac\#New\Willy DeVille - Live At Montreux 1994\13. Willy DeVille - Stand By Me.wav

Peak level 98.8 %
Extraction speed 9.5 X
Track quality 100.0 %
Test CRC DCD39B2B
Copy CRC DCD39B2B
Cannot be verified as accurate (confidence 15) [E87C1D08], AccurateRip returned [75ED2332] (AR v2)
Copy OK

Track 14

Filename D:\#cdr\#wav+flac\#New\Willy DeVille - Live At Montreux 1994\14. Willy DeVille - Dust My Broom.wav

Peak level 98.8 %
Extraction speed 9.9 X
Track quality 100.0 %
Test CRC 5AA3803C
Copy CRC 5AA3803C
Cannot be verified as accurate (confidence 15) [EA0BBD6B], AccurateRip returned [13B53403] (AR v2)
Copy OK


No tracks could be verified as accurate
You may have a different pressing from the one(s) in the database

No errors occurred

End of status report

–– CUETools DB Plugin V2.1.6

[CTDB TOCID: eVtJ9.fARt2uXRjvTA.QX_D8QLI-] found
Submit result: eVtJ9.fARt2uXRjvTA.QX_D8QLI- has been confirmed
Track | CTDB Status
1 | (28/28) Accurately ripped
2 | (28/28) Accurately ripped
3 | (28/28) Accurately ripped
4 | (28/28) Accurately ripped
5 | (28/28) Accurately ripped
6 | (26/28) Accurately ripped, or (2/28) differs in 12 samples @00:04:63
7 | (28/28) Accurately ripped
8 | (28/28) Accurately ripped
9 | (28/28) Accurately ripped
10 | (28/28) Accurately ripped
11 | (28/28) Accurately ripped
12 | (28/28) Accurately ripped
13 | (28/28) Accurately ripped
14 | (28/28) Accurately ripped


==== Log checksum D6AC59DD9460ADDBA104403FA481A8A53754A1C0CEBB02077152EE6A41577D2C ====

Thanks to the Original ripper !