Tags
Language
Tags

Xavier Sabata, Armonia Atenea & George Petrou - Catharsis (2017)

Posted By: delpotro
Xavier Sabata, Armonia Atenea & George Petrou - Catharsis (2017)

Xavier Sabata, Armonia Atenea & George Petrou - Catharsis (2017)
EAC Rip | FLAC (tracks+log+.cue) - 332 Mb | MP3 CBR 320 kbps - 155 Mb | Digital booklet | 01:06:12
Classical, Vocal | Label: Aparté

Around the year 1600, a group of Florentine aristocrats, inspired by ancient Greek drama, gave birth to opera. They intended to move and glorify human passions in such a strong way that the spectator's soul would be cleansed of these passions. This was the process that Aristotle called 'catharsis'. Xavier Sabata grasps this highly intense moment at the heart of the destiny of legendary heroes of Baroque opera. A fascinating album by the author of Bad Guys, accompanied by George Petrou and Armonia Atenea.
Tracklist:
1. Xavier Sabata, George Petrou & Armonia Atenea – Adelaide, Act I, Scene 12: Recitativo "Ciò che donò la frode" (00:32)
2. Xavier Sabata, Armonia Atenea & George Petrou – Adelaide, Act I, Scene 12: Aria "Alza al ciel pianta orgoglioso" (03:55)
3. Xavier Sabata, George Petrou & Armonia Atenea – Griselda, Act III, Scene 3: Recitativo "In te, sposa Griselda, mi uccido" (00:37)
4. Xavier Sabata, Armonia Atenea & George Petrou – Griselda, Act III, Scene 3: Aria "Cara sposa" (04:39)
5. Xavier Sabata, Armonia Atenea & George Petrou – Griselda, Act III, Scene 14: Aria "Vorresti col tuo pianto" (03:49)
6. Xavier Sabata, Armonia Atenea & George Petrou – Il Farnace, RV 711, Act II, Scene 5: Aria "Gelido in ogni vena" (10:27)
7. Xavier Sabata, George Petrou & Armonia Atenea – Adelaide, Act I, Scene 12: Recitativo "O del moi caro ben" (00:37)
8. Xavier Sabata, Armonia Atenea & George Petrou – Adelaide, Act I, Scene 12: Aria "Già mi sembra al carro avvinto" (04:12)
9. Armonia Atenea & George Petrou – Admeto, HWV 22, Act I, Scene 1: Introduzzione. Lentemento (02:23)
10. Xavier Sabata, Armonia Atenea & George Petrou – Admeto, HWV 22, Act I, Scene 1: Recitativo accompagnato "Orride larve" (02:50)
11. Xavier Sabata, George Petrou & Armonia Atenea – Admeto, HWV 22, Act I, Scene 1: Arioso "Chiudetevi miei lumi" (03:08)
12. Xavier Sabata, Armonia Atenea & George Petrou – La conversione di Sant'Agostino, Part II: Recitativo accompagnato "Viver vogl'io sempre per te moi dio" (01:14)
13. Xavier Sabata, George Petrou & Armonia Atenea – La conversione di Sant'Agostino, Part II: Aria "Or mi pento" (07:42)
14. Xavier Sabata, Armonia Atenea & George Petrou – Caio Mazio Coriolando, Act III, Scene 8: Recitativo accompagnato "Spirate, o oniqui marmi" (03:18)
15. Xavier Sabata, George Petrou & Armonia Atenea – Caio Mazio Coriolando, Act III, Scene 8: Aria "Voi, d'un figlio tanto misero" (08:17)
16. Xavier Sabata, George Petrou & Armonia Atenea – Temistocle, Act III, Scene 3: Aria "Ah, frenate il pianto imbelle" (03:09)
17. Xavier Sabata, George Petrou & Armonia Atenea – Il Valdemaro, Act III, Scene 10: Recitativo accompagnato "Sorte nemica!" (01:50)
18. Xavier Sabata, George Petrou & Armonia Atenea – Il Valdemaro, Act III, Scene 10: Aria "Quando onor favella al core" (03:26)

Exact Audio Copy V1.3 from 2. September 2016

EAC extraction logfile from 3. August 2020, 14:49

Xavier Sabata, Armonia Atenea, George Petrou / Catharsis

Used drive : HL-DT-STDVDRAM GH24NSD1 Adapter: 1 ID: 1

Read mode : Secure
Utilize accurate stream : Yes
Defeat audio cache : Yes
Make use of C2 pointers : No

Read offset correction : 6
Overread into Lead-In and Lead-Out : No
Fill up missing offset samples with silence : Yes
Delete leading and trailing silent blocks : No
Null samples used in CRC calculations : Yes
Used interface : Native Win32 interface for Win NT & 2000
Gap handling : Appended to previous track

Used output format : User Defined Encoder
Selected bitrate : 1024 kBit/s
Quality : High
Add ID3 tag : No
Command line compressor : C:\Program Files (x86)\Exact Audio Copy\Flac\flac.exe
Additional command line options : -8 -V -T "ARTIST=%artist%" -T "TITLE=%title%" -T "ALBUM=%albumtitle%" -T "DATE=%year%" -T "TRACKNUMBER=%tracknr%" -T "GENRE=%genre%" -T "PERFORMER=%albuminterpret%" -T "COMPOSER=%composer%" %haslyrics%–tag-from-file=LYRICS="%lyricsfile%"%haslyrics% -T "ALBUMARTIST=%albumartist%" -T "DISCNUMBER=%cdnumber%" -T "TOTALDISCS=%totalcds%" -T "TOTALTRACKS=%numtracks%" -T "COMMENT=%comment%" %source% -o %dest%


TOC of the extracted CD

Track | Start | Length | Start sector | End sector
––––––––––––––––––––––––––––-
1 | 0:00.00 | 0:32.48 | 0 | 2447
2 | 0:32.48 | 3:55.48 | 2448 | 20120
3 | 4:28.21 | 0:37.18 | 20121 | 22913
4 | 5:05.39 | 4:39.27 | 22914 | 43865
5 | 9:44.66 | 3:49.12 | 43866 | 61052
6 | 13:34.03 | 10:27.63 | 61053 | 108140
7 | 24:01.66 | 0:37.63 | 108141 | 110978
8 | 24:39.54 | 4:12.72 | 110979 | 129950
9 | 28:52.51 | 2:23.12 | 129951 | 140687
10 | 31:15.63 | 2:50.66 | 140688 | 153503
11 | 34:06.54 | 3:08.42 | 153504 | 167645
12 | 37:15.21 | 1:14.66 | 167646 | 173261
13 | 38:30.12 | 7:42.00 | 173262 | 207911
14 | 46:12.12 | 3:18.00 | 207912 | 222761
15 | 49:30.12 | 8:17.15 | 222762 | 260051
16 | 57:47.27 | 3:09.12 | 260052 | 274238
17 | 60:56.39 | 1:50.03 | 274239 | 282491
18 | 62:46.42 | 3:26.18 | 282492 | 297959


Track 1

Filename E:\WHAT.CD\000TEMP\Xavier Sabata - Catharsis (2016) [FLAC]\01 - Adelaide, Act I, Scene 12- ''Ciò che donò la frode''.wav

Pre-gap length 0:00:02.00

Peak level 52.1 %
Extraction speed 0.5 X
Track quality 100.0 %
Test CRC 488B4AC1
Copy CRC 488B4AC1
Accurately ripped (confidence 3) [52CF02A1] (AR v2)
Copy OK

Track 2

Filename E:\WHAT.CD\000TEMP\Xavier Sabata - Catharsis (2016) [FLAC]\02 - Adelaide, Act I, Scene 12- ''Alza al ciel pianta orgoglioso''.wav

Peak level 77.6 %
Extraction speed 1.3 X
Track quality 100.0 %
Test CRC 03BB7A88
Copy CRC 03BB7A88
Accurately ripped (confidence 3) [3EDD7803] (AR v2)
Copy OK

Track 3

Filename E:\WHAT.CD\000TEMP\Xavier Sabata - Catharsis (2016) [FLAC]\03 - Griselda, Act III, Scene 3- ''In te, sposa Griselda, mi uccido''.wav

Peak level 76.3 %
Extraction speed 2.3 X
Track quality 100.0 %
Test CRC EB4F922A
Copy CRC EB4F922A
Accurately ripped (confidence 3) [CC85CB70] (AR v2)
Copy OK

Track 4

Filename E:\WHAT.CD\000TEMP\Xavier Sabata - Catharsis (2016) [FLAC]\04 - Griselda, Act III, Scene 3- ''Cara sposa''.wav

Peak level 89.6 %
Extraction speed 4.2 X
Track quality 100.0 %
Test CRC CF788A78
Copy CRC CF788A78
Accurately ripped (confidence 3) [2A2C2F4D] (AR v2)
Copy OK

Track 5

Filename E:\WHAT.CD\000TEMP\Xavier Sabata - Catharsis (2016) [FLAC]\05 - Griselda, Act III, Scene 14- ''Vorresti col tuo pianto''.wav

Peak level 87.4 %
Extraction speed 4.5 X
Track quality 100.0 %
Test CRC 9A7A7AF6
Copy CRC 9A7A7AF6
Accurately ripped (confidence 3) [204B1D5C] (AR v2)
Copy OK

Track 6

Filename E:\WHAT.CD\000TEMP\Xavier Sabata - Catharsis (2016) [FLAC]\06 - Il Farnace, RV 711, Act II, Scene 5- ''Gelido in ogni vena''.wav

Peak level 100.0 %
Extraction speed 5.5 X
Track quality 100.0 %
Test CRC B3E6D982
Copy CRC B3E6D982
Accurately ripped (confidence 3) [3B3D478B] (AR v2)
Copy OK

Track 7

Filename E:\WHAT.CD\000TEMP\Xavier Sabata - Catharsis (2016) [FLAC]\07 - Adelaide, Act I, Scene 12- ''O del moi caro ben''.wav

Peak level 92.3 %
Extraction speed 2.0 X
Track quality 99.7 %
Test CRC A22452DA
Copy CRC A22452DA
Accurately ripped (confidence 3) [D192C857] (AR v2)
Copy OK

Track 8

Filename E:\WHAT.CD\000TEMP\Xavier Sabata - Catharsis (2016) [FLAC]\08 - Adelaide, Act I, Scene 12- ''Già mi sembra al carro avvinto''.wav

Peak level 99.8 %
Extraction speed 4.9 X
Track quality 99.9 %
Test CRC 1D6481D4
Copy CRC 1D6481D4
Accurately ripped (confidence 3) [82196653] (AR v2)
Copy OK

Track 9

Filename E:\WHAT.CD\000TEMP\Xavier Sabata - Catharsis (2016) [FLAC]\09 - Admeto, HWV 22, Act I, Scene 1- Introduzzione. Lentemento.wav

Peak level 59.6 %
Extraction speed 5.3 X
Track quality 100.0 %
Test CRC 610B5891
Copy CRC 610B5891
Accurately ripped (confidence 3) [ACC78DD6] (AR v2)
Copy OK

Track 10

Filename E:\WHAT.CD\000TEMP\Xavier Sabata - Catharsis (2016) [FLAC]\10 - Admeto, HWV 22, Act I, Scene 1- ''Orride larve''.wav

Peak level 100.0 %
Extraction speed 5.7 X
Track quality 100.0 %
Test CRC 7A5DCEB2
Copy CRC 7A5DCEB2
Accurately ripped (confidence 3) [7E865F73] (AR v2)
Copy OK

Track 11

Filename E:\WHAT.CD\000TEMP\Xavier Sabata - Catharsis (2016) [FLAC]\11 - Admeto, HWV 22, Act I, Scene 1- ''Chiudetevi miei lumi''.wav

Peak level 51.8 %
Extraction speed 4.9 X
Track quality 99.9 %
Test CRC B5F8F5DD
Copy CRC B5F8F5DD
Accurately ripped (confidence 3) [0A149611] (AR v2)
Copy OK

Track 12

Filename E:\WHAT.CD\000TEMP\Xavier Sabata - Catharsis (2016) [FLAC]\12 - La conversione di Sant'Agostino, Part II- ''Viver vogl'io sempre per te moi dio''.wav

Peak level 100.0 %
Extraction speed 4.8 X
Track quality 100.0 %
Test CRC 30DB5F4A
Copy CRC 30DB5F4A
Accurately ripped (confidence 3) [3201464E] (AR v2)
Copy OK

Track 13

Filename E:\WHAT.CD\000TEMP\Xavier Sabata - Catharsis (2016) [FLAC]\13 - La conversione di Sant'Agostino, Part II- ''Or mi pento''.wav

Peak level 92.8 %
Extraction speed 6.9 X
Track quality 100.0 %
Test CRC 54EA953C
Copy CRC 54EA953C
Accurately ripped (confidence 3) [457EE542] (AR v2)
Copy OK

Track 14

Filename E:\WHAT.CD\000TEMP\Xavier Sabata - Catharsis (2016) [FLAC]\14 - Caio Mazio Coriolando, Act III, Scene 8- ''Spirate, o oniqui marmi''.wav

Peak level 82.0 %
Extraction speed 6.6 X
Track quality 100.0 %
Test CRC C951036C
Copy CRC C951036C
Accurately ripped (confidence 3) [12CF4C77] (AR v2)
Copy OK

Track 15

Filename E:\WHAT.CD\000TEMP\Xavier Sabata - Catharsis (2016) [FLAC]\15 - Caio Mazio Coriolando, Act III, Scene 8- ''Voi, d'un figlio tanto misero''.wav

Peak level 82.9 %
Extraction speed 7.6 X
Track quality 100.0 %
Test CRC DC6CBE83
Copy CRC DC6CBE83
Accurately ripped (confidence 3) [DA7CE4EE] (AR v2)
Copy OK

Track 16

Filename E:\WHAT.CD\000TEMP\Xavier Sabata - Catharsis (2016) [FLAC]\16 - Temistocle, Act III, Scene 3- ''Ah, frenate il pianto imbelle''.wav

Peak level 90.4 %
Extraction speed 7.0 X
Track quality 100.0 %
Test CRC 30DDC7FD
Copy CRC 30DDC7FD
Accurately ripped (confidence 3) [BAAEC910] (AR v2)
Copy OK

Track 17

Filename E:\WHAT.CD\000TEMP\Xavier Sabata - Catharsis (2016) [FLAC]\17 - Il Valdemaro, Act III, Scene 10- ''Sorte nemica!''.wav

Peak level 72.6 %
Extraction speed 6.4 X
Track quality 100.0 %
Test CRC 74DC70E6
Copy CRC 74DC70E6
Accurately ripped (confidence 3) [2A58B2C3] (AR v2)
Copy OK

Track 18

Filename E:\WHAT.CD\000TEMP\Xavier Sabata - Catharsis (2016) [FLAC]\18 - Il Valdemaro, Act III, Scene 10- ''Quando onor favella al core''.wav

Peak level 78.5 %
Extraction speed 7.3 X
Track quality 100.0 %
Test CRC 98347F13
Copy CRC 98347F13
Accurately ripped (confidence 3) [E0E5F716] (AR v2)
Copy OK


All tracks accurately ripped

No errors occurred

End of status report

–– CUETools DB Plugin V2.1.6

[CTDB TOCID: vERL_6jeqoBOiNVymVwDwsDIh8M-] found
Submit result: vERL_6jeqoBOiNVymVwDwsDIh8M- has been confirmed
Track | CTDB Status
1 | (4/4) Accurately ripped
2 | (4/4) Accurately ripped
3 | (4/4) Accurately ripped
4 | (4/4) Accurately ripped
5 | (4/4) Accurately ripped
6 | (4/4) Accurately ripped
7 | (4/4) Accurately ripped
8 | (4/4) Accurately ripped
9 | (4/4) Accurately ripped
10 | (4/4) Accurately ripped
11 | (4/4) Accurately ripped
12 | (4/4) Accurately ripped
13 | (4/4) Accurately ripped
14 | (4/4) Accurately ripped
15 | (4/4) Accurately ripped
16 | (4/4) Accurately ripped
17 | (4/4) Accurately ripped
18 | (4/4) Accurately ripped


==== Log checksum 84C556ED34542BEDC51F255CEFD94964E78D6D8C2F85C774AC104CD1CFA667D7 ====

Thanks to the Original ripper !