Subcategories

Frank Zappa - Road Tapes, Venue #1 (2012) [2CD] {Vaulternative}

Posted By: Hungry Mind
Frank Zappa - Road Tapes, Venue #1 (2012) [2CD] {Vaulternative}

Frank Zappa - Road Tapes, Venue #1 (2012) [2CD] {Vaulternative}
EAC Rip | FLAC (tracks+.cue+log) - 300 MB | Scans | MP3 CBR 320 kbps (LAME 3.98) - 194 MB
Genre: rock | RAR 5% Rec. | Label: Vaulternative Records | CAT # VR20122-1/2 | 2012

In September we told you about a new series of live archival releases from the Zappa Family Trust called Road Tapes. Today, we’ve found out about the first installment of what looks to be an exciting series. It appears instead of labeling Road Tapes as volumes, the installments will be labeled as “venues.” Road Tapes Venue #1 features a Frank Zappa and the Mothers of Invention performance recorded at Kerrisdale Arena in Vancouver on August 25, 1968 and is expected to ship this week.
Frank Zappa - Road Tapes, Venue #1 (2012) [2CD] {Vaulternative}

Frank Zappa - Road Tapes, Venue #1 (2012) [2CD] {Vaulternative}

This show not only hasn’t circulated among fans, but a setlist isn’t known. So far ZFT hasn’t released a track listing on the pre-order page. The only details are, “Get your ticket to ride! First stop Vancouver. House lights go down, Curtain goes up. You sit down and listen up. Get on the bus.” A look at the only other August show listed on the definitive FZShows site, from NYC’s Wollman Rink in Central Park, features a setlist that includes King Kong, Mr. Green Genes, Big Leg Emma and Baby Love. It’s thought Zappa was backed by the classic Mothers of Invention lineup of Roy Estrada, Ray Collins, Jimmy Carl Black, Art Tripp, Ian Underwood, Don Preston, Bunk Gardner and Motorhead Sherwood, but again there’s no details listed about this previously undocumented performance.

TRACKLIST
DISC ONE
01. The Importance of an Earnest Attempt (By Hand)
02. Help I’m a Rock – Transylvania Boogie
03. Flopsmash Musics
04. Hungry Freaks, Daddy
05. The Orange County Lumber Truck
06. The Rewards of a Career in Music

DISC TWO
01. Trouble Every Day
02. Shortly: Suite Exists of Holiday in Berlin Full Blown
03. Pound for a Brown
04. Sleeping in a Jar
05. Oh, in the Sky
06. Octandre
07. King Kong

Exact Audio Copy V1.0 beta 3 from 29. August 2011

EAC extraction logfile from 10. November 2012, 16:59

Frank Zappa / Road Tapes Venue #1 (disc 1)

Used drive : HL-DT-STBD-RE WH12LS39 Adapter: 3 ID: 0

Read mode : Secure
Utilize accurate stream : Yes
Defeat audio cache : Yes
Make use of C2 pointers : No

Read offset correction : 667
Overread into Lead-In and Lead-Out : No
Fill up missing offset samples with silence : Yes
Delete leading and trailing silent blocks : No
Null samples used in CRC calculations : Yes
Used interface : Native Win32 interface for Win NT & 2000
Gap handling : Appended to previous track

Used output format : User Defined Encoder
Selected bitrate : 1024 kBit/s
Quality : High
Add ID3 tag : No
Command line compressor : C:\Program Files (x86)\Exact Audio Copy\Flac\flac.exe
Additional command line options : -8 -V -T "ARTIST=%artist%" -T "TITLE=%title%" -T "ALBUM=%albumtitle%" -T "DATE=%year%" -T "TRACKNUMBER=%tracknr%" -T "GENRE=%genre%" -T "PERFORMER=%albuminterpret%" -T "COMPOSER=%composer%" %haslyrics%–tag-from-file=LYRICS="%lyricsfile%"%haslyrics% -T "ALBUMARTIST=%albumartist%" -T "DISCNUMBER=%cdnumber%" -T "TOTALDISCS=%totalcds%" -T "TOTALTRACKS=%numtracks%" -T "COMMENT=%comment%" %source% -o %dest%


TOC of the extracted CD

Track | Start | Length | Start sector | End sector
––––––––––––––––––––––––––––-
1 | 0:00.00 | 3:43.39 | 0 | 16763
2 | 3:43.39 | 9:29.71 | 16764 | 59509
3 | 13:13.35 | 4:50.33 | 59510 | 81292
4 | 18:03.68 | 3:59.10 | 81293 | 99227
5 | 22:03.03 | 20:56.37 | 99228 | 193464
6 | 42:59.40 | 3:28.66 | 193465 | 209130


Track 1

Filename D:\Rips\Frank Zappa\Road Tapes Venue #1\Disc 1\01 - The Importance Of An Earnest Attempt (By Hand).wav

Pre-gap length 0:00:02.00

Peak level 94.4 %
Extraction speed 1.2 X
Track quality 100.0 %
Test CRC 0310061C
Copy CRC 0310061C
Track not present in AccurateRip database
Copy OK

Track 2

Filename D:\Rips\Frank Zappa\Road Tapes Venue #1\Disc 1\02 - Help I'm A Rock - Transylvania Boogie.wav

Peak level 94.4 %
Extraction speed 1.6 X
Track quality 100.0 %
Test CRC BAC8F976
Copy CRC BAC8F976
Track not present in AccurateRip database
Copy OK

Track 3

Filename D:\Rips\Frank Zappa\Road Tapes Venue #1\Disc 1\03 - Flopsmash Musics.wav

Peak level 94.4 %
Extraction speed 1.7 X
Track quality 100.0 %
Test CRC BA602538
Copy CRC BA602538
Track not present in AccurateRip database
Copy OK

Track 4

Filename D:\Rips\Frank Zappa\Road Tapes Venue #1\Disc 1\04 - Hungry Freaks, Daddy.wav

Peak level 94.4 %
Extraction speed 1.8 X
Track quality 100.0 %
Test CRC CA2B788E
Copy CRC CA2B788E
Track not present in AccurateRip database
Copy OK

Track 5

Filename D:\Rips\Frank Zappa\Road Tapes Venue #1\Disc 1\05 - The Orange County Lumber Truck.wav

Peak level 94.4 %
Extraction speed 2.3 X
Track quality 100.0 %
Test CRC E4D8EEA9
Copy CRC E4D8EEA9
Track not present in AccurateRip database
Copy OK

Track 6

Filename D:\Rips\Frank Zappa\Road Tapes Venue #1\Disc 1\06 - The Rewards Of A Career In Music.wav

Peak level 94.4 %
Extraction speed 2.3 X
Track quality 100.0 %
Test CRC 81266217
Copy CRC 81266217
Track not present in AccurateRip database
Copy OK


None of the tracks are present in the AccurateRip database

No errors occurred

End of status report

–– CUETools DB Plugin V2.1.3

[CTDB TOCID: sZjoRxH5R9YOYxqZotxJ49oYVx4-] disk not present in database, Submit result: sZjoRxH5R9YOYxqZotxJ49oYVx4- has been uploaded


==== Log checksum B7364C15B379EFD39134490ED05847EED66B4B20E10E2847A143AB92339DE8D2 ====

Exact Audio Copy V1.0 beta 3 from 29. August 2011

EAC extraction logfile from 10. November 2012, 20:40

Frank Zappa / Road Tapes Venue #1 (disc 2)

Used drive : HL-DT-STBD-RE WH12LS39 Adapter: 3 ID: 0

Read mode : Secure
Utilize accurate stream : Yes
Defeat audio cache : Yes
Make use of C2 pointers : No

Read offset correction : 667
Overread into Lead-In and Lead-Out : No
Fill up missing offset samples with silence : Yes
Delete leading and trailing silent blocks : No
Null samples used in CRC calculations : Yes
Used interface : Native Win32 interface for Win NT & 2000
Gap handling : Appended to previous track

Used output format : User Defined Encoder
Selected bitrate : 1024 kBit/s
Quality : High
Add ID3 tag : No
Command line compressor : C:\Program Files (x86)\Exact Audio Copy\Flac\flac.exe
Additional command line options : -8 -V -T "ARTIST=%artist%" -T "TITLE=%title%" -T "ALBUM=%albumtitle%" -T "DATE=%year%" -T "TRACKNUMBER=%tracknr%" -T "GENRE=%genre%" -T "PERFORMER=%albuminterpret%" -T "COMPOSER=%composer%" %haslyrics%–tag-from-file=LYRICS="%lyricsfile%"%haslyrics% -T "ALBUMARTIST=%albumartist%" -T "DISCNUMBER=%cdnumber%" -T "TOTALDISCS=%totalcds%" -T "TOTALTRACKS=%numtracks%" -T "COMMENT=%comment%" %source% -o %dest%


TOC of the extracted CD

Track | Start | Length | Start sector | End sector
––––––––––––––––––––––––––––-
1 | 0:00.00 | 5:07.40 | 0 | 23064
2 | 5:07.40 | 9:28.45 | 23065 | 65709
3 | 14:36.10 | 3:13.23 | 65710 | 80207
4 | 17:49.33 | 3:22.72 | 80208 | 95429
5 | 21:12.30 | 2:42.18 | 95430 | 107597
6 | 23:54.48 | 7:39.72 | 107598 | 142094
7 | 31:34.45 | 10:17.34 | 142095 | 188403


Track 1

Filename D:\Rips\Frank Zappa\Road Tapes Venue #1\Disc 2\01 - Trouble Every Day.wav

Pre-gap length 0:00:02.00

Peak level 94.4 %
Extraction speed 1.1 X
Track quality 100.0 %
Test CRC A596E415
Copy CRC A596E415
Track not present in AccurateRip database
Copy OK

Track 2

Filename D:\Rips\Frank Zappa\Road Tapes Venue #1\Disc 2\02 - Shortly- Suite Exists Of Holiday In Berlin Full Blown.wav

Peak level 94.4 %
Extraction speed 1.4 X
Track quality 100.0 %
Test CRC E9F39001
Copy CRC E9F39001
Track not present in AccurateRip database
Copy OK

Track 3

Filename D:\Rips\Frank Zappa\Road Tapes Venue #1\Disc 2\03 - Pound For A Brown.wav

Peak level 94.4 %
Extraction speed 1.4 X
Track quality 100.0 %
Test CRC 179655FD
Copy CRC 179655FD
Track not present in AccurateRip database
Copy OK

Track 4

Filename D:\Rips\Frank Zappa\Road Tapes Venue #1\Disc 2\04 - Sleeping In A Jar.wav

Peak level 94.4 %
Extraction speed 1.5 X
Track quality 100.0 %
Test CRC 0111C4DB
Copy CRC 0111C4DB
Track not present in AccurateRip database
Copy OK

Track 5

Filename D:\Rips\Frank Zappa\Road Tapes Venue #1\Disc 2\05 - Oh, In The Sky.wav

Peak level 94.4 %
Extraction speed 1.5 X
Track quality 100.0 %
Test CRC F7F1AD9D
Copy CRC F7F1AD9D
Track not present in AccurateRip database
Copy OK

Track 6

Filename D:\Rips\Frank Zappa\Road Tapes Venue #1\Disc 2\06 - Octandre.wav

Peak level 94.4 %
Extraction speed 1.8 X
Track quality 100.0 %
Test CRC 25B8314D
Copy CRC 25B8314D
Track not present in AccurateRip database
Copy OK

Track 7

Filename D:\Rips\Frank Zappa\Road Tapes Venue #1\Disc 2\07 - King Kong.wav

Peak level 98.4 %
Extraction speed 2.0 X
Track quality 100.0 %
Test CRC 6B994CA6
Copy CRC 6B994CA6
Track not present in AccurateRip database
Copy OK


None of the tracks are present in the AccurateRip database

No errors occurred

End of status report

–– CUETools DB Plugin V2.1.3

[CTDB TOCID: jEAzZ4gdqKKKynv9TdAKurSxceA-] disk not present in database, Submit result: jEAzZ4gdqKKKynv9TdAKurSxceA- has been uploaded


==== Log checksum 7E50B6E8B54D0226D8E960AB10234865ECFDA57575AA09FE4405A898007A0916 ====


Frank Zappa - Road Tapes, Venue #1 (2012) [2CD] {Vaulternative}

Special Thanks to the original uploader!