Lansiné Kouyaté & David Neerman - Kangaba (2010)

Posted By: Manavgat
Lansiné Kouyaté & David Neerman - Kangaba (2010)

Lansiné Kouyaté & David Neerman - Kangaba (2010)
EAC RIP | Flac+CUE+LOG ~ 282 MB | 09 Tracks | MP3 CBR 320 Kbps ~ 118 MB | ArtWork
Genre: World, Jazz & Instrumental | Label: Universal music | Release date: September 8, 2008

David Neerman plays electric and acoustic vibes alongside Lansine Kouyate, a master of the Malian balafon who has played with Salif Keita, Baaba Maal, Mory Kante, Omar Sosa, Dee Dee Bridgewater and many more. Their instruments ring together collectively, so close and yet so far apart in tessitura, sound, matter, playing technique, history and imagination. Over long hours of improvisation the two musicians would exchange their wisdom, progressively laying down the bases for a mutant universe of sound whose process was totally organic and laid on the foundations of Mandinka music, yet which made a radical break with all the clichΘs of the music called fusion or world . Accompanying them on this recording are bassist Ira Coleman and drummer Laurent Robin, and Malian singer Mamani Keita on the magnificent title Touma . With this album, their first, Kouyate & Neerman unveil new territory that is both authentic and innovative, a work of poetic power that is absolutely stunning.

* * * * * * * * * * * * * * * * * * *

Lansiné Kouyaté & David Neerman - Kangaba (2010)


Personnel -
Lansiné Kouyaté - balafon
David Neerman - electric & acoustic vibes
Ira Coleman - bass
Laurent Robin - drums

Guests :
Mamani Keita - lead vocals on "Touma"
Moriba Koita - n'goni on "Touma"
Cheick Tidiane Seck - odunumba on "Sara"

* * * * * * * * * * * * * * * * * * *

Tracklist:
01 - Here
02 - Djanfa Magni
03 - Niokomé
04 - Boroba
05 - Tiziri
06 - Bamanan Don
07 - Le Destin Ii
08 - Touma
09 - Momo
10 - Kangadub

* * * * * * * * * * * * * * * * * * *


Exact Audio Copy V0.99 prebeta 5 from 4. May 2009

EAC extraction logfile from 26. November 2010, 15:15

Lansiné Kouyaté & David Neerman / Kangaba

Used drive : TSSTcorpCDDVDW TS-H653N Adapter: 2 ID: 2

Read mode : Secure
Utilize accurate stream : Yes
Defeat audio cache : Yes
Make use of C2 pointers : No

Read offset correction : 6
Overread into Lead-In and Lead-Out : No
Fill up missing offset samples with silence : Yes
Delete leading and trailing silent blocks : No
Null samples used in CRC calculations : Yes
Used interface : Native Win32 interface for Win NT & 2000
Gap handling : Appended to previous track

Used output format : User Defined Encoder
Selected bitrate : 1024 kBit/s
Quality : High
Add ID3 tag : No
Command line compressor : C:\Program Files\FLAC -\flac.exe
Additional command line options : -5 -V -T "artist=%a" -T "title=%t" -T "album=%g" -T "date=%y" -T "tracknumber=%n" -T "genre=%m" -T comment="shared by pastafari cubensis" %s


TOC of the extracted CD

Track | Start | Length | Start sector | End sector
––––––––––––––––––––––––––––-
1 | 0:00.00 | 2:49.31 | 0 | 12705
2 | 2:49.31 | 3:54.00 | 12706 | 30255
3 | 6:43.31 | 5:31.04 | 30256 | 55084
4 | 12:14.35 | 3:39.48 | 55085 | 71557
5 | 15:54.08 | 2:37.48 | 71558 | 83380
6 | 18:31.56 | 5:02.48 | 83381 | 106078
7 | 23:34.29 | 3:37.47 | 106079 | 122400
8 | 27:12.01 | 4:05.72 | 122401 | 140847
9 | 31:17.73 | 2:58.22 | 140848 | 154219
10 | 34:16.20 | 18:56.66 | 154220 | 239485


Track 1

Filename C:\pastafari\Lansiné Kouyaté & David Neerman - 2010 - Kangaba [FLAC]\01 - Here.wav

Pre-gap length 0:00:02.00

Peak level 98.8 %
Track quality 100.0 %
Test CRC 7346A167
Copy CRC 7346A167
Copy OK

Track 2

Filename C:\pastafari\Lansiné Kouyaté & David Neerman - 2010 - Kangaba [FLAC]\02 - Djanfa Magni.wav

Peak level 98.8 %
Track quality 100.0 %
Test CRC B67F131C
Copy CRC B67F131C
Copy OK

Track 3

Filename C:\pastafari\Lansiné Kouyaté & David Neerman - 2010 - Kangaba [FLAC]\03 - Niokomé.wav

Pre-gap length 0:00:03.01

Peak level 98.8 %
Track quality 99.9 %
Test CRC 40DA6A07
Copy CRC 40DA6A07
Copy OK

Track 4

Filename C:\pastafari\Lansiné Kouyaté & David Neerman - 2010 - Kangaba [FLAC]\04 - Boroba.wav

Pre-gap length 0:00:03.46

Peak level 98.8 %
Track quality 100.0 %
Test CRC CE8CABFA
Copy CRC CE8CABFA
Copy OK

Track 5

Filename C:\pastafari\Lansiné Kouyaté & David Neerman - 2010 - Kangaba [FLAC]\05 - Tiziri.wav

Pre-gap length 0:00:03.46

Peak level 80.8 %
Track quality 100.0 %
Test CRC FF0B897D
Copy CRC FF0B897D
Copy OK

Track 6

Filename C:\pastafari\Lansiné Kouyaté & David Neerman - 2010 - Kangaba [FLAC]\06 - Bamanan Don.wav

Pre-gap length 0:00:01.26

Peak level 98.8 %
Track quality 100.0 %
Test CRC A9BE68FA
Copy CRC A9BE68FA
Copy OK

Track 7

Filename C:\pastafari\Lansiné Kouyaté & David Neerman - 2010 - Kangaba [FLAC]\07 - Le Destin Ii.wav

Pre-gap length 0:00:03.46

Peak level 98.8 %
Track quality 100.0 %
Test CRC 49825F1B
Copy CRC 49825F1B
Copy OK

Track 8

Filename C:\pastafari\Lansiné Kouyaté & David Neerman - 2010 - Kangaba [FLAC]\08 - Touma.wav

Pre-gap length 0:00:03.10

Peak level 98.8 %
Track quality 100.0 %
Test CRC A5B7CB23
Copy CRC A5B7CB23
Copy OK

Track 9

Filename C:\pastafari\Lansiné Kouyaté & David Neerman - 2010 - Kangaba [FLAC]\09 - Momo.wav

Pre-gap length 0:00:04.08

Peak level 98.8 %
Track quality 99.9 %
Test CRC 594061CD
Copy CRC 594061CD
Copy OK

Track 10

Filename C:\pastafari\Lansiné Kouyaté & David Neerman - 2010 - Kangaba [FLAC]\10 - Kangadub.wav

Pre-gap length 0:00:01.46

Peak level 98.8 %
Track quality 100.0 %
Test CRC 72ACD231
Copy CRC 72ACD231
Copy OK

No errors occurred

End of status report




Thanks to orginal ripper pastafari

Lossless–Flac+CUE+LOG
Download from Filesonic.com
~~~~~~~~ ~~~~~~~~
Download from Uploaded.to

Mp3 @ CBR 320Kbps
Download from Filesonic.com
~~~~~~~~ ~~~~~~~~
Download from Uploaded.to