Subcategories
Tags
Language
Tags

Oscar Peterson Trio - West Side Story (1962) {1984 Verve West Germany} **[RE-UP]**

Posted By: TestTickles
Oscar Peterson Trio - West Side Story (1962) {1984 Verve West Germany} **[RE-UP]**

Oscar Peterson Trio - West Side Story (1962) {1984 Verve West Germany}
EAC Rip | FLAC with CUE and log | scans | 187 mb
MP3 CBR 320kbps | RAR | 92 mb
Genre: jazz

Oscar Peterson and his trio created their version of West Side Story on this album from 1962. This is a 1984 pressing released by Verve in West Germany.

Oscar Peterson Trio - West Side Story (1962) {1984 Verve West Germany} **[RE-UP]**

1. Something's Coming
2. Somewhere
3. Jet Song
4. Tonight
5. Maria
6. I Feel Pretty
7. Reprise

Oscar Peterson-piano
Ray Brown-bass
Ed Thigpen-drums

Produced by Jim Davis
Recording engineer: Bob Simpson
Recorded in New York City, January 1962

Exact Audio Copy V1.1 from 23. June 2015

EAC extraction logfile from 12. May 2017, 9:19

Oscar Peterson Trio / West Side Story

Used drive : TEAC DVD-ROM DV-28SW Adapter: 1 ID: 0

Read mode : Secure
Utilize accurate stream : Yes
Defeat audio cache : Yes
Make use of C2 pointers : No

Read offset correction : 6
Overread into Lead-In and Lead-Out : No
Fill up missing offset samples with silence : Yes
Delete leading and trailing silent blocks : No
Null samples used in CRC calculations : Yes
Used interface : Native Win32 interface for Win NT & 2000
Gap handling : Appended to previous track

Used output format : Internal WAV Routines
Sample format : 44.100 Hz; 16 Bit; Stereo


TOC of the extracted CD

Track | Start | Length | Start sector | End sector
––––––––––––––––––––––––––––-
1 | 0:00.32 | 3:58.13 | 32 | 17894
2 | 3:58.45 | 5:36.62 | 17895 | 43156
3 | 9:35.32 | 7:48.38 | 43157 | 78294
4 | 17:23.70 | 4:37.02 | 78295 | 99071
5 | 22:00.72 | 4:56.08 | 99072 | 121279
6 | 26:57.05 | 4:29.10 | 121280 | 141464
7 | 31:26.15 | 3:56.27 | 141465 | 159191


Track 1

Filename C:\My Documents\My FLAC\Oscar Peterson Trio - West Side Story (1962) [FLAC] {1984 Verve West Germany}\01 - Something's Coming.wav

Pre-gap length 0:00:02.32

Peak level 89.9 %
Extraction speed 2.8 X
Track quality 100.0 %
Test CRC 41BE8816
Copy CRC 41BE8816
Accurately ripped (confidence 18) [C0EFD93B] (AR v2)
Copy OK

Track 2

Filename C:\My Documents\My FLAC\Oscar Peterson Trio - West Side Story (1962) [FLAC] {1984 Verve West Germany}\02 - Somewhere.wav

Pre-gap length 0:00:04.00

Peak level 62.5 %
Extraction speed 3.3 X
Track quality 100.0 %
Test CRC 96C975E0
Copy CRC 96C975E0
Accurately ripped (confidence 18) [4ED675CC] (AR v2)
Copy OK

Track 3

Filename C:\My Documents\My FLAC\Oscar Peterson Trio - West Side Story (1962) [FLAC] {1984 Verve West Germany}\03 - Jet Song.wav

Pre-gap length 0:00:03.40

Peak level 89.6 %
Extraction speed 3.8 X
Track quality 100.0 %
Test CRC 66D61CCB
Copy CRC 66D61CCB
Accurately ripped (confidence 17) [23440238] (AR v2)
Copy OK

Track 4

Filename C:\My Documents\My FLAC\Oscar Peterson Trio - West Side Story (1962) [FLAC] {1984 Verve West Germany}\04 - Tonight.wav

Pre-gap length 0:00:03.35

Peak level 89.4 %
Extraction speed 3.7 X
Track quality 100.0 %
Test CRC 7F3B06B7
Copy CRC 7F3B06B7
Accurately ripped (confidence 18) [795EB30B] (AR v2)
Copy OK

Track 5

Filename C:\My Documents\My FLAC\Oscar Peterson Trio - West Side Story (1962) [FLAC] {1984 Verve West Germany}\05 - Maria.wav

Pre-gap length 0:00:03.25

Peak level 69.2 %
Extraction speed 3.7 X
Track quality 99.9 %
Test CRC 001512DC
Copy CRC 001512DC
Accurately ripped (confidence 18) [6E24BCDC] (AR v2)
Copy OK

Track 6

Filename C:\My Documents\My FLAC\Oscar Peterson Trio - West Side Story (1962) [FLAC] {1984 Verve West Germany}\06 - I Feel Pretty.wav

Pre-gap length 0:00:04.00

Peak level 88.0 %
Extraction speed 4.5 X
Track quality 100.0 %
Test CRC 31B03EF5
Copy CRC 31B03EF5
Accurately ripped (confidence 18) [D8D60D9E] (AR v2)
Copy OK

Track 7

Filename C:\My Documents\My FLAC\Oscar Peterson Trio - West Side Story (1962) [FLAC] {1984 Verve West Germany}\07 - Reprise.wav

Pre-gap length 0:00:02.63

Peak level 89.5 %
Extraction speed 3.9 X
Track quality 99.9 %
Test CRC FE5DF897
Copy CRC FE5DF897
Accurately ripped (confidence 17) [43CD4A81] (AR v2)
Copy OK


All tracks accurately ripped

No errors occurred

End of status report

–– CUETools DB Plugin V2.1.6

[CTDB TOCID: snJIQeOH8vUYvZlPoWJSAwmtPs4-] found
Submit result: snJIQeOH8vUYvZlPoWJSAwmtPs4- has been confirmed
Track | CTDB Status
1 | (24/25) Accurately ripped
2 | (25/25) Accurately ripped
3 | (25/25) Accurately ripped
4 | (25/25) Accurately ripped
5 | (25/25) Accurately ripped
6 | (25/25) Accurately ripped
7 | (25/25) Accurately ripped


==== Log checksum A2F06B6BE566E13E06728441D5FC349A0B4D19474C0CE8A1539FA85A3A6F8C8C ====


Oscar Peterson Trio - West Side Story (1962) {1984 Verve West Germany} **[RE-UP]**