Subcategories
Tags
Language
Tags

Ozomatli - Ya Llego! (EP) (1996) **[RE-UP]**

Posted By: TestTickles
Ozomatli - Ya Llego! (EP) (1996) **[RE-UP]**

Ozomatli - Ya Llego! (EP) (1996)
EAC Rip | FLAC with CUE and log | scans | 121 mb
MP3 CBR 320kbps | RAR | 55 mb
Genre: Latin pop, Latin rock, hip-hop, rap

Ya Llego! is a 1996 4-song EP by Los Angeles Latin pop/rock band Ozomatli. This was their first release and features early versions of songs they would include on their 1998 debut album, including "Como Ves", "Cut Chemist Suite", "Eva" and "Super Bowl Sundae".

Ozomatli - Ya Llego! (EP) (1996) **[RE-UP]**

1. Eva
2. Cut Chemist Suite
3. Como Ves
4. Super Bowl Sundae

Will-Dog Abers-bass, vocals
Raúl "El Bully" Pacheco-guitar, lead vocals
Jose "Crunchy" Espinoza-alto saxophone, vocals
Ulises Bella-tenor saxophone
Asdru Sierra-trumpet, lead vocals
Pablo Castorena-trombone
Cut Chemist-turntables
Chali 2na-rap vocals, ghetto diplomat
Jiro Yamaguchi-tabla, bongos, percussion
Justin "Niño" Porée-congas, percussion
William "Echo" Marrufo-drums, vocals
Alfredo Ortiz-timbales, percussion

Dave Ralicke-baritone sax (tracks 2 & 4)
Chewves Fujita-percussion (track 4)

Produced by Wil-Dog, Raúl Pacheco, Amy Blackman, Asdru Sierra & Ozomatli
Mastered by Mark Chalecki

Ozomatli - Ya Llego! (EP) (1996) **[RE-UP]**


Exact Audio Copy V1.0 beta 6 from 9. April 2015

EAC extraction logfile from 13. June 2018, 8:25

Ozomatli / Ya Llego! (EP)

Used drive : TSSTcorpDVD+-RW TS-L633C Adapter: 1 ID: 0

Read mode : Secure
Utilize accurate stream : Yes
Defeat audio cache : Yes
Make use of C2 pointers : No

Read offset correction : 6
Overread into Lead-In and Lead-Out : No
Fill up missing offset samples with silence : Yes
Delete leading and trailing silent blocks : No
Null samples used in CRC calculations : Yes
Used interface : Native Win32 interface for Win NT & 2000
Gap handling : Appended to previous track

Used output format : Internal WAV Routines
Sample format : 44.100 Hz; 16 Bit; Stereo


TOC of the extracted CD

Track | Start | Length | Start sector | End sector
––––––––––––––––––––––––––––-
1 | 0:00.00 | 2:41.45 | 0 | 12119
2 | 2:41.45 | 3:33.47 | 12120 | 28141
3 | 6:15.17 | 4:05.10 | 28142 | 46526
4 | 10:20.27 | 4:20.25 | 46527 | 66051


Track 1

Filename C:\My Documents\My FLAC\Ozomatli - Ya Llego! (EP) (1996) [FLAC]\01 - Eva.wav

Pre-gap length 0:00:02.00

Peak level 100.0 %
Extraction speed 1.0 X
Track quality 100.0 %
Test CRC 892F380A
Copy CRC 892F380A
Accurately ripped (confidence 1) [445AE3F3] (AR v2)
Copy OK

Track 2

Filename C:\My Documents\My FLAC\Ozomatli - Ya Llego! (EP) (1996) [FLAC]\02 - Cut Chemist Suite.wav

Pre-gap length 0:00:00.18

Peak level 100.0 %
Extraction speed 1.1 X
Track quality 100.0 %
Test CRC CEEDD59B
Copy CRC CEEDD59B
Accurately ripped (confidence 1) [65FAA3BD] (AR v2)
Copy OK

Track 3

Filename C:\My Documents\My FLAC\Ozomatli - Ya Llego! (EP) (1996) [FLAC]\03 - Como Ves.wav

Pre-gap length 0:00:00.30

Peak level 100.0 %
Extraction speed 1.3 X
Track quality 100.0 %
Test CRC B4C9957F
Copy CRC B4C9957F
Accurately ripped (confidence 1) [5A16F622] (AR v2)
Copy OK

Track 4

Filename C:\My Documents\My FLAC\Ozomatli - Ya Llego! (EP) (1996) [FLAC]\04 - Super Bowl Sundae.wav

Pre-gap length 0:00:00.05

Peak level 100.0 %
Extraction speed 1.4 X
Track quality 100.0 %
Test CRC 253E96E1
Copy CRC 253E96E1
Accurately ripped (confidence 1) [C21DE682] (AR v2)
Copy OK


All tracks accurately ripped

No errors occurred

End of status report

–– CUETools DB Plugin V2.1.6

[CTDB TOCID: A_uyA0YzyvbtaQvYu0uI1_FfkSQ-] found
Submit result: A_uyA0YzyvbtaQvYu0uI1_FfkSQ- has been confirmed
Track | CTDB Status
1 | (1/1) Accurately ripped
2 | (1/1) Accurately ripped
3 | (1/1) Accurately ripped
4 | (1/1) Accurately ripped


==== Log checksum DCBE0E75434341BA3EAB81CC6A8BE433F1303A00B93A0763F3BBED66EE9D5A9E ====


Ozomatli - Ya Llego! (EP) (1996) **[RE-UP]**