Tags
Language
Tags

10cc - Before During After: The Story of 10cc (2017) [4CD Box Set]

Posted By: v3122
10cc - Before During After: The Story of 10cc (2017) [4CD Box Set]

10cc - Before During After: The Story of 10cc (2017)
EAC | Flac(Image) + Cue + Log & MP3 CBR 320Kbps
Universal Music, 573098 | ~ 1502 or 455 Mb | Scans(png) -> 912 Mb
Art Rock / Art Pop / Soft Rock

2017 four CD set. Before During After - The Story of 10cc is a special box set, curated with input from the band to detail each and every chapter of their musical story. It Is the first complete, career-encompassing collection of the work of 10cc - Eric Stewart, Lol Crème, Kevin Godley and Graham Gouldman, together and apart. Features tracks from the band members' pre-10cc recordings, plenty of great 10cc hits, solo releases, side projects and more.

~ amazon
10cc - Before During After: The Story of 10cc (2017) [4CD Box Set]


10cc - Before During After: The Story of 10cc (2017) [4CD Box Set]

10cc - Before During After: The Story of 10cc (2017):

10cc - Before During After: The Story of 10cc (2017) [4CD Box Set]

Tracklist CD1 - During: Greatest Hits 1972-1978:

01 Rubber Bullets
02 Donna
03 Silly Love
04 The Dean And I
05 Life Is A Minestrone
06 The Wall Street Shuffle
07 Art For Art's Sake
08 I'm Mandy Fly Me
09 Good Morning Judge
10 The Things We Do For Love
11 Dreadlock Holiday
12 I'm Not In Love

Exact Audio Copy V1.3 from 2. September 2016

EAC extraction logfile from 6. September 2017, 11:25

10cc / Before, During, After CD1

Used drive : PLEXTOR BD-R PX-B950SA Adapter: 1 ID: 1

Read mode : Secure
Utilize accurate stream : Yes
Defeat audio cache : Yes
Make use of C2 pointers : No

Read offset correction : 6
Overread into Lead-In and Lead-Out : No
Fill up missing offset samples with silence : Yes
Delete leading and trailing silent blocks : No
Null samples used in CRC calculations : Yes
Used interface : Native Win32 interface for Win NT & 2000

Used output format : Internal WAV Routines
Sample format : 44.100 Hz; 16 Bit; Stereo


TOC of the extracted CD

Track | Start | Length | Start sector | End sector
––––––––––––––––––––––––––––-
1 | 0:00.00 | 4:44.65 | 0 | 21364
2 | 4:44.65 | 2:57.03 | 21365 | 34642
3 | 7:41.68 | 3:18.02 | 34643 | 49494
4 | 10:59.70 | 2:52.65 | 49495 | 62459
5 | 13:52.60 | 4:28.44 | 62460 | 82603
6 | 18:21.29 | 3:52.61 | 82604 | 100064
7 | 22:14.15 | 4:22.28 | 100065 | 119742
8 | 26:36.43 | 5:20.34 | 119743 | 143776
9 | 31:57.02 | 2:53.70 | 143777 | 156821
10 | 34:50.72 | 3:31.07 | 156822 | 172653
11 | 38:22.04 | 5:03.34 | 172654 | 195412
12 | 43:25.38 | 6:08.69 | 195413 | 223081


Range status and errors

Selected range

Filename C:\Users\Alex\Desktop\ALLexxess\10cc\2017 Before, During, After (4CD Box Set Universal Music)\CD1\10cc - Before, During, After CD1.wav

Peak level 97.0 %
Extraction speed 6.9 X
Range quality 99.9 %
Test CRC 5CAA0C04
Copy CRC 5CAA0C04
Copy OK

No errors occurred


AccurateRip summary

Track 1 not present in database
Track 2 not present in database
Track 3 not present in database
Track 4 not present in database
Track 5 not present in database
Track 6 not present in database
Track 7 not present in database
Track 8 not present in database
Track 9 not present in database
Track 10 not present in database
Track 11 not present in database
Track 12 not present in database

None of the tracks are present in the AccurateRip database

End of status report

–– CUETools DB Plugin V2.1.6

[CTDB TOCID: RS7lhyuSO4SqE3647IjGsGhaf5c-] found
Submit result: RS7lhyuSO4SqE3647IjGsGhaf5c- has been confirmed
Track | CTDB Status
1 | (2/2) Accurately ripped
2 | (2/2) Accurately ripped
3 | (2/2) Accurately ripped
4 | (2/2) Accurately ripped
5 | (2/2) Accurately ripped
6 | (2/2) Accurately ripped
7 | (2/2) Accurately ripped
8 | (2/2) Accurately ripped
9 | (2/2) Accurately ripped
10 | (2/2) Accurately ripped
11 | (2/2) Accurately ripped
12 | (2/2) Accurately ripped


==== Log checksum 00E4089937B4063EC2D6A5F669BA1AE0E3E0DF415EA703448B7D84CCA4C9917F ====


[CUETools log; Date: 21.09.2017 11:04:15; Version: 2.1.5]
[CTDB TOCID: RS7lhyuSO4SqE3647IjGsGhaf5c-] found.
Track | CTDB Status
1 | (3/3) Accurately ripped
2 | (3/3) Accurately ripped
3 | (3/3) Accurately ripped
4 | (3/3) Accurately ripped
5 | (3/3) Accurately ripped
6 | (3/3) Accurately ripped
7 | (3/3) Accurately ripped
8 | (3/3) Accurately ripped
9 | (3/3) Accurately ripped
10 | (3/3) Accurately ripped
11 | (3/3) Accurately ripped
12 | (3/3) Accurately ripped
[AccurateRip ID: 0014c8cb-00c393f0-9d0b9e0c] found.
Track [ CRC | V2 ] Status
01 [be3b3d6f|ecaf7596] (0+1/1) Accurately ripped
02 [7b151a01|729b91b1] (0+1/1) Accurately ripped
03 [8fdc12a9|99f31cd2] (0+1/1) Accurately ripped
04 [2a2ea177|4a93b273] (0+1/1) Accurately ripped
05 [fb1ac628|786d120a] (0+1/1) Accurately ripped
06 [20565dcb|d4e6965c] (0+1/1) Accurately ripped
07 [3173232c|3529bdb0] (0+1/1) Accurately ripped
08 [22c002a5|a72f1768] (0+1/1) Accurately ripped
09 [cc5b16a1|724445b6] (0+1/1) Accurately ripped
10 [454d2395|9d098e26] (0+1/1) Accurately ripped
11 [78d21bf6|0a84cdfc] (0+1/1) Accurately ripped
12 [b0bfda02|38b082e5] (0+1/1) Accurately ripped

Track Peak [ CRC32 ] [W/O NULL] [ LOG ]
– 97,0 [5CAA0C04] [74D0A704] CRC32
01 97,0 [5DFF5948] [26F93201]
02 97,0 [63439728] [337D533D]
03 93,6 [5DD56C22] [DE19E56B]
04 97,0 [C1D770E9] [C96334EC]
05 96,9 [1673E04E] [72A2DCC2]
06 97,0 [391A0622] [00BA81A8]
07 97,0 [DEE50AB1] [43BA2FCD]
08 94,5 [9802001B] [A441D778]
09 97,0 [2DA75089] [CDEF92B2]
10 97,0 [469D596E] [EF6C0B35]
11 97,0 [4BAB062E] [093359C1]
12 97,0 [FD4D71C2] [36EFF11D]


10cc - Before During After: The Story of 10cc (2017) [4CD Box Set]

Tracklist CD2 - After: Post 10cc Years:

01 Under Your Thumb / feat: Godley & Creme - Lol Creme - Kevin Godley
02 An Englishman In New York / feat: Godley & Creme - Lol Creme - Kevin Godley
03 Cry / feat: Godley & Creme - Lol Creme - Kevin Godley
04 Wedding Bells / feat: Godley & Creme - Lol Creme - Kevin Godley
05 Sunburn / feat: Graham Gouldman
06 Bridge To Your Heart / feat: Wax
07 Right Between The Eyes / feat: Wax
08 The Ritual Parts 1-2-3 / feat: Eric Stewart
09 Pretty Little Head / feat: Paul McCartney
10 Metaphor On The Floor (Plan 138) - Mixed By Ollies J / The Art Of Noise
11 Metaphor On The Floor / feat: The Art Of Noise
12 Hooligan Crane / feat: GG06
13 / feat: GG06
14 Confessions / feat: Kevin Godley
15 Expecting A Message / feat: Kevin Godley
16 Man On The Moon / feat: The Producers
17 Every Single Night In Jamaica / feat: The Producers

Exact Audio Copy V1.3 from 2. September 2016

EAC extraction logfile from 6. September 2017, 10:53

10cc / Before, During, After CD2

Used drive : PLEXTOR BD-R PX-B950SA Adapter: 1 ID: 1

Read mode : Secure
Utilize accurate stream : Yes
Defeat audio cache : Yes
Make use of C2 pointers : No

Read offset correction : 6
Overread into Lead-In and Lead-Out : No
Fill up missing offset samples with silence : Yes
Delete leading and trailing silent blocks : No
Null samples used in CRC calculations : Yes
Used interface : Native Win32 interface for Win NT & 2000

Used output format : Internal WAV Routines
Sample format : 44.100 Hz; 16 Bit; Stereo


TOC of the extracted CD

Track | Start | Length | Start sector | End sector
––––––––––––––––––––––––––––-
1 | 0:00.00 | 3:48.09 | 0 | 17108
2 | 3:48.09 | 5:36.33 | 17109 | 42341
3 | 9:24.42 | 3:57.25 | 42342 | 60141
4 | 13:21.67 | 3:25.56 | 60142 | 75572
5 | 16:47.48 | 3:01.47 | 75573 | 89194
6 | 19:49.20 | 4:13.50 | 89195 | 108219
7 | 24:02.70 | 4:10.17 | 108220 | 126986
8 | 28:13.12 | 10:42.05 | 126987 | 175141
9 | 38:55.17 | 3:51.74 | 175142 | 192540
10 | 42:47.16 | 3:45.21 | 192541 | 209436
11 | 46:32.37 | 2:07.57 | 209437 | 219018
12 | 48:40.19 | 5:40.07 | 219019 | 244525
13 | 54:20.26 | 5:02.34 | 244526 | 267209
14 | 59:22.60 | 3:08.17 | 267210 | 281326
15 | 62:31.02 | 4:14.41 | 281327 | 300417
16 | 66:45.43 | 4:03.28 | 300418 | 318670
17 | 70:48.71 | 5:17.02 | 318671 | 342447


Range status and errors

Selected range

Filename C:\Users\Alex\Desktop\ALLexxess\10cc\2017 Before, During, After (4CD Box Set Universal Music)\CD2\10cc - Before, During, After CD2.wav

Peak level 97.0 %
Extraction speed 8.5 X
Range quality 99.9 %
Test CRC 8182C5B0
Copy CRC 8182C5B0
Copy OK

No errors occurred


AccurateRip summary

Track 1 not present in database
Track 2 not present in database
Track 3 not present in database
Track 4 not present in database
Track 5 not present in database
Track 6 not present in database
Track 7 not present in database
Track 8 not present in database
Track 9 not present in database
Track 10 not present in database
Track 11 not present in database
Track 12 not present in database
Track 13 not present in database
Track 14 not present in database
Track 15 not present in database
Track 16 not present in database
Track 17 not present in database

None of the tracks are present in the AccurateRip database

End of status report

–– CUETools DB Plugin V2.1.6

[CTDB TOCID: Kj4caxt04mFim7GjJSlaTYxgrTk-] found
Submit result: Kj4caxt04mFim7GjJSlaTYxgrTk- has been confirmed
Track | CTDB Status
1 | (4/4) Accurately ripped
2 | (4/4) Accurately ripped
3 | (4/4) Accurately ripped
4 | (4/4) Accurately ripped
5 | (4/4) Accurately ripped
6 | (4/4) Accurately ripped
7 | (4/4) Accurately ripped
8 | (4/4) Accurately ripped
9 | (4/4) Accurately ripped
10 | (4/4) Accurately ripped
11 | (4/4) Accurately ripped
12 | (4/4) Accurately ripped
13 | (4/4) Accurately ripped
14 | (4/4) Accurately ripped
15 | (4/4) Accurately ripped
16 | (4/4) Accurately ripped
17 | (4/4) Accurately ripped


==== Log checksum E1E5E650E9A256C5CDD6A887070441FA8AE77A8594CC8B8679EBDE9EC8E1C226 ====


[CUETools log; Date: 21.09.2017 11:04:49; Version: 2.1.5]
[CTDB TOCID: Kj4caxt04mFim7GjJSlaTYxgrTk-] found.
Track | CTDB Status
1 | (6/6) Accurately ripped
2 | (6/6) Accurately ripped
3 | (6/6) Accurately ripped
4 | (6/6) Accurately ripped
5 | (6/6) Accurately ripped
6 | (6/6) Accurately ripped
7 | (6/6) Accurately ripped
8 | (6/6) Accurately ripped
9 | (6/6) Accurately ripped
10 | (6/6) Accurately ripped
11 | (6/6) Accurately ripped
12 | (6/6) Accurately ripped
13 | (6/6) Accurately ripped
14 | (6/6) Accurately ripped
15 | (6/6) Accurately ripped
16 | (6/6) Accurately ripped
17 | (6/6) Accurately ripped
[AccurateRip ID: 002ed963-0253da79-ec11d511] found.
Track [ CRC | V2 ] Status
01 [193da377|c97a616a] (0+1/1) Accurately ripped
02 [035647a3|f386c26a] (0+1/1) Accurately ripped
03 [2101c6e3|8359b5b1] (0+1/1) Accurately ripped
04 [d152d3c9|b8591fa1] (0+1/1) Accurately ripped
05 [daad5df8|47a27141] (0+1/1) Accurately ripped
06 [007d4b90|c635a989] (0+1/1) Accurately ripped
07 [f3858175|738c2d3a] (0+1/1) Accurately ripped
08 [a221010b|488fdffe] (0+1/1) Accurately ripped
09 [3f79f173|949c74e8] (0+1/1) Accurately ripped
10 [73c40223|f778583d] (0+1/1) Accurately ripped
11 [e0f20aa1|e83a776a] (0+1/1) Accurately ripped
12 [be8c3799|4d18f660] (0+1/1) Accurately ripped
13 [aa7c90e2|998a9864] (0+1/1) Accurately ripped
14 [e4543f69|5ab201b3] (0+1/1) Accurately ripped
15 [76269625|b0ceda04] (0+1/1) Accurately ripped
16 [c6a522ee|825950fb] (0+1/1) Accurately ripped
17 [c587708c|781c1622] (0+1/1) Accurately ripped

Track Peak [ CRC32 ] [W/O NULL] [ LOG ]
– 97,0 [8182C5B0] [D87DF705] CRC32
01 97,0 [CC96275C] [AAA041F4]
02 97,0 [091A4AF9] [92AB2AB6]
03 97,0 [4346105D] [F9F1BF33]
04 97,0 [3CFE1709] [84710DB2]
05 97,0 [D9C50569] [F7AA9AEB]
06 97,0 [8201EFFB] [157A3F31]
07 97,0 [766D6C02] [2A043918]
08 97,0 [CBECF713] [B1929807]
09 97,0 [CC04F287] [240BDA44]
10 97,0 [A411A773] [CD224880]
11 97,0 [B9B26AAE] [6984AB33]
12 97,0 [C716E500] [83E0E283]
13 97,0 [EA336D8B] [8FC317D2]
14 97,0 [F90727D0] [0773F03F]
15 97,0 [105D6A3B] [3F6A2C39]
16 97,0 [DF2CA335] [40D2EC9A]
17 97,0 [573C7ADC] [4D631AC8]


10cc - Before During After: The Story of 10cc (2017) [4CD Box Set]

Tracklist CD3 - Before: The Strawberry Hit Factory:

01 Sausalito (Is The Place To Go) / feat: Ohio Express
02 Tampa, Florida / feat: Peter Cowap
03 Have You Ever Been To Georgia? / feat: Garden Odyssey
04 Travellin' Man / feat: Tristar Airbus
05 Crickets / feat: Peter Cowap
06 Today / feat: Festival
07 Umbopo / feat: Doctor Father
08 Safari / feat: Peter Cowap
09 Da Doo Ron Ron / feat: Grumble
10 The Joker / feat: Garden Odyssey
11 Funky City / feat: Manchester City FC
12 The Man With The Golden Gun / feat: Peter Cowap
13 Roll On / feat: Doctor Father
14 Wicked Melinda / feat: Peter Cowap
15 Willie Morgan / feat: Tristar Airbus
16 Pig Bin An' Gone / feat: Grumble
17 Warm Me / feat: Festival
18 Oh Solomon / feat: Peter Cowap
19 Boys In Blue / feat: Manchester City FC
20 There Ain't No Umbopo / feat: Crazy Elephant

Exact Audio Copy V1.3 from 2. September 2016

EAC extraction logfile from 6. September 2017, 10:11

10cc / Before, During, After CD3

Used drive : PLEXTOR BD-R PX-B950SA Adapter: 1 ID: 1

Read mode : Secure
Utilize accurate stream : Yes
Defeat audio cache : Yes
Make use of C2 pointers : No

Read offset correction : 6
Overread into Lead-In and Lead-Out : No
Fill up missing offset samples with silence : Yes
Delete leading and trailing silent blocks : No
Null samples used in CRC calculations : Yes
Used interface : Native Win32 interface for Win NT & 2000

Used output format : Internal WAV Routines
Sample format : 44.100 Hz; 16 Bit; Stereo


TOC of the extracted CD

Track | Start | Length | Start sector | End sector
––––––––––––––––––––––––––––-
1 | 0:00.00 | 2:15.41 | 0 | 10165
2 | 2:15.41 | 2:31.14 | 10166 | 21504
3 | 4:46.55 | 3:22.18 | 21505 | 36672
4 | 8:08.73 | 2:15.50 | 36673 | 46847
5 | 10:24.48 | 3:14.57 | 46848 | 61454
6 | 13:39.30 | 4:19.35 | 61455 | 80914
7 | 17:58.65 | 5:31.59 | 80915 | 105798
8 | 23:30.49 | 2:20.25 | 105799 | 116323
9 | 25:50.74 | 3:05.00 | 116324 | 130198
10 | 28:55.74 | 2:37.24 | 130199 | 141997
11 | 31:33.23 | 2:28.15 | 141998 | 153112
12 | 34:01.38 | 2:41.37 | 153113 | 165224
13 | 36:43.00 | 4:36.30 | 165225 | 185954
14 | 41:19.30 | 3:30.30 | 185955 | 201734
15 | 44:49.60 | 2:51.15 | 201735 | 214574
16 | 47:41.00 | 4:03.08 | 214575 | 232807
17 | 51:44.08 | 2:03.35 | 232808 | 242067
18 | 53:47.43 | 2:54.14 | 242068 | 255131
19 | 56:41.57 | 2:36.14 | 255132 | 266845
20 | 59:17.71 | 3:01.72 | 266846 | 280492


Range status and errors

Selected range

Filename C:\Users\Alex\Desktop\ALLexxess\10cc\2017 Before, During, After (4CD Box Set Universal Music)\CD3\10cc - Before, During, After CD3.wav

Peak level 97.0 %
Extraction speed 7.4 X
Range quality 100.0 %
Test CRC 205A3142
Copy CRC 205A3142
Copy OK

No errors occurred


AccurateRip summary

Track 1 not present in database
Track 2 not present in database
Track 3 not present in database
Track 4 not present in database
Track 5 not present in database
Track 6 not present in database
Track 7 not present in database
Track 8 not present in database
Track 9 not present in database
Track 10 not present in database
Track 11 not present in database
Track 12 not present in database
Track 13 not present in database
Track 14 not present in database
Track 15 not present in database
Track 16 not present in database
Track 17 not present in database
Track 18 not present in database
Track 19 not present in database
Track 20 not present in database

None of the tracks are present in the AccurateRip database

End of status report

–– CUETools DB Plugin V2.1.6

[CTDB TOCID: lNZjekbN45BgPM73RQgDIWr9VNw-] disk not present in database
Submit result: lNZjekbN45BgPM73RQgDIWr9VNw- has been uploaded


==== Log checksum A2CD07F927F9EC12F4595A3E9D18008D4CCB71842FA5CA558140254C7BF643DE ====


[CUETools log; Date: 21.09.2017 11:05:14; Version: 2.1.5]
[CTDB TOCID: lNZjekbN45BgPM73RQgDIWr9VNw-] found.
Track | CTDB Status
1 | (2/2) Accurately ripped
2 | (2/2) Accurately ripped
3 | (2/2) Accurately ripped
4 | (2/2) Accurately ripped
5 | (2/2) Accurately ripped
6 | (2/2) Accurately ripped
7 | (2/2) Accurately ripped
8 | (2/2) Accurately ripped
9 | (2/2) Accurately ripped
10 | (2/2) Accurately ripped
11 | (2/2) Accurately ripped
12 | (2/2) Accurately ripped
13 | (2/2) Accurately ripped
14 | (2/2) Accurately ripped
15 | (2/2) Accurately ripped
16 | (2/2) Accurately ripped
17 | (2/2) Accurately ripped
18 | (2/2) Accurately ripped
19 | (2/2) Accurately ripped
20 | (2/2) Accurately ripped
[AccurateRip ID: 002d02c8-02993820-0d0e9b14] found.
Track [ CRC | V2 ] Status
01 [27c37a57|f72023f7] (0+1/1) Accurately ripped
02 [12eda400|74d1781f] (0+1/1) Accurately ripped
03 [75fd8a12|7a78aabf] (0+1/1) Accurately ripped
04 [576b285c|e2251026] (0+1/1) Accurately ripped
05 [18e8dc09|70eabb74] (0+1/1) Accurately ripped
06 [87cfc474|ad1ac8a9] (0+1/1) Accurately ripped
07 [56a43f10|e53c978f] (0+1/1) Accurately ripped
08 [351cce99|239489ca] (0+1/1) Accurately ripped
09 [a5cc114e|e4f6c95f] (0+1/1) Accurately ripped
10 [7ea35612|b007fbb0] (0+1/1) Accurately ripped
11 [bae5e148|70c1a989] (0+1/1) Accurately ripped
12 [ebcd105b|f4f38322] (0+1/1) Accurately ripped
13 [c8012d19|8defc925] (0+1/1) Accurately ripped
14 [bcd85dd0|1e4239cf] (0+1/1) Accurately ripped
15 [dcb2b9cc|65c6d8c5] (0+1/1) Accurately ripped
16 [f8755574|bfb16fa0] (0+1/1) Accurately ripped
17 [00105a1b|433bc2d1] (0+1/1) Accurately ripped
18 [d4d6e0c4|f87a077c] (0+1/1) Accurately ripped
19 [bdd04831|28a522bd] (0+1/1) Accurately ripped
20 [bcd751fe|f542a4fe] (0+1/1) Accurately ripped

Track Peak [ CRC32 ] [W/O NULL] [ LOG ]
– 97,0 [205A3142] [0DA0D4F5] CRC32
01 97,0 [E45C1170] [DA7CF57F]
02 97,0 [83AF74BD] [3A98CCE3]
03 97,0 [9A6B2921] [357A51D7]
04 97,0 [D7DEFB5C] [0FD77C4C]
05 97,0 [F568CDB3] [DFC972DE]
06 94,8 [BB17A2B3] [41E0D5E5]
07 97,0 [D3785890] [EDA4B1DD]
08 97,0 [65FADDF9] [8B32240E]
09 97,0 [6D94C945] [85DAA151]
10 97,0 [D96A8FBA] [9944E373]
11 97,0 [27425AE0] [7C03F147]
12 97,0 [3B1005DD] [1E93A8CB]
13 97,0 [6BE667AA] [7CA21451]
14 97,0 [D8193A86] [24391879]
15 97,0 [12E88413] [2D17A09A]
16 97,0 [8A2B2D8B] [3D889D14]
17 97,0 [6B94BBE3] [2A1E8E37]
18 97,0 [60E537B7] [3FBA0CB0]
19 97,0 [F928A48F] [F2265D88]
20 97,0 [A46DDDE4] [8E7EB40F]


10cc - Before During After: The Story of 10cc (2017) [4CD Box Set]

Tracklist CD4 - Before: The Early Yearly:

01 A Groovy Kind Of Love / feat: The Mindbenders
02 One More Time / feat: Wayne Fontana - The Mindbenders
03 Bus Stop / feat: Graham Gouldman
04 No Milk Today / feat: Graham Gouldman
05 For Your Love / feat: Graham Gouldman
06 Neanderthal Man / feat: Hotlegs
07 Desperate Dan / feat: Hotlegs
08 Life Child / feat: Ramases - Rameses
09 Quasar One / feat: Ramases - Rameses
10 That's When The Music Takes Me / feat: Neil Sedaka
11 Solitaire / feat: Neil Sedaka
12 Love Will Keep Us Together / feat: Neil Sedaka

Exact Audio Copy V1.3 from 2. September 2016

EAC extraction logfile from 5. September 2017, 14:13

10cc / Before, During, After CD4

Used drive : PLEXTOR BD-R PX-B950SA Adapter: 1 ID: 1

Read mode : Secure
Utilize accurate stream : Yes
Defeat audio cache : Yes
Make use of C2 pointers : No

Read offset correction : 6
Overread into Lead-In and Lead-Out : No
Fill up missing offset samples with silence : Yes
Delete leading and trailing silent blocks : No
Null samples used in CRC calculations : Yes
Used interface : Native Win32 interface for Win NT & 2000

Used output format : Internal WAV Routines
Sample format : 44.100 Hz; 16 Bit; Stereo


TOC of the extracted CD

Track | Start | Length | Start sector | End sector
––––––––––––––––––––––––––––-
1 | 0:00.00 | 2:00.32 | 0 | 9031
2 | 2:00.32 | 2:09.02 | 9032 | 18708
3 | 4:09.34 | 3:27.54 | 18709 | 34287
4 | 7:37.13 | 3:15.23 | 34288 | 48935
5 | 10:52.36 | 2:32.61 | 48936 | 60396
6 | 13:25.22 | 4:16.21 | 60397 | 79617
7 | 17:41.43 | 2:18.27 | 79618 | 89994
8 | 19:59.70 | 6:38.20 | 89995 | 119864
9 | 26:38.15 | 6:42.61 | 119865 | 150075
10 | 33:21.01 | 3:36.57 | 150076 | 166332
11 | 36:57.58 | 5:02.29 | 166333 | 189011
12 | 42:00.12 | 3:46.50 | 189012 | 206011


Range status and errors

Selected range

Filename C:\Users\Alex\Desktop\ALLexxess\10cc\2017 Before, During, After (4CD Box Set Universal Music)\CD4\10cc - Before, During, After CD4.wav

Peak level 97.0 %
Extraction speed 6.8 X
Range quality 100.0 %
Test CRC 17A2BBA8
Copy CRC 17A2BBA8
Copy OK

No errors occurred


AccurateRip summary

Track 1 not present in database
Track 2 not present in database
Track 3 not present in database
Track 4 not present in database
Track 5 not present in database
Track 6 not present in database
Track 7 not present in database
Track 8 not present in database
Track 9 not present in database
Track 10 not present in database
Track 11 not present in database
Track 12 not present in database

None of the tracks are present in the AccurateRip database

End of status report

–– CUETools DB Plugin V2.1.6

[CTDB TOCID: a0wJyAY3lvzMF0PXpZByhEq.cL8-] disk not present in database
Submit result: a0wJyAY3lvzMF0PXpZByhEq.cL8- has been uploaded


==== Log checksum 40BCA5F6DE2BB6C4567AC73921DBFB2E6B59298DF89A2369C168D74E51F49A20 ====


[CUETools log; Date: 21.09.2017 11:05:38; Version: 2.1.5]
[CTDB TOCID: a0wJyAY3lvzMF0PXpZByhEq.cL8-] found.
Track | CTDB Status
1 | (2/2) Accurately ripped
2 | (2/2) Accurately ripped
3 | (2/2) Accurately ripped
4 | (2/2) Accurately ripped
5 | (2/2) Accurately ripped
6 | (2/2) Accurately ripped
7 | (2/2) Accurately ripped
8 | (2/2) Accurately ripped
9 | (2/2) Accurately ripped
10 | (2/2) Accurately ripped
11 | (2/2) Accurately ripped
12 | (2/2) Accurately ripped
[AccurateRip ID: 0011e331-00aebb40-720aba0c] found.
Track [ CRC | V2 ] Status
01 [80e89124|68f07013] (0+1/1) Accurately ripped
02 [34732aab|b9a07d86] (0+1/1) Accurately ripped
03 [bbcfb14d|7325bcac] (0+1/1) Accurately ripped
04 [9ae53962|ffc098f2] (0+1/1) Accurately ripped
05 [fc4d0245|c78551fe] (0+1/1) Accurately ripped
06 [3c099da7|95fa3be4] (0+1/1) Accurately ripped
07 [ddb801ae|e0404cd3] (0+1/1) Accurately ripped
08 [0b3cb6f4|5db543dd] (0+1/1) Accurately ripped
09 [421c633f|ce579021] (0+1/1) Accurately ripped
10 [a08b2b7e|d8489bd6] (0+1/1) Accurately ripped
11 [763fadbf|47e017e7] (0+1/1) Accurately ripped
12 [1e43371e|c26c5e7b] (0+1/1) Accurately ripped

Track Peak [ CRC32 ] [W/O NULL] [ LOG ]
– 97,0 [17A2BBA8] [2A33A059] CRC32
01 97,0 [7940DBCF] [49405F7D]
02 97,0 [96E4851C] [5699D35F]
03 97,0 [F5F65341] [9FA3BDFF]
04 92,2 [15123401] [B38530BE]
05 93,3 [0B35926C] [29F799D7]
06 97,0 [96E77AD8] [D9A2BD3F]
07 97,0 [D0CDDCA9] [B6416F5D]
08 97,0 [AC6CF23C] [D7D2F363]
09 97,0 [3408DCDD] [76C762DB]
10 94,7 [9BDF8EA6] [35F44E08]
11 97,0 [B631AEE3] [1DB71695]
12 97,0 [0C06CB63] [565C8AB6]



All thanks go to ALLexxess

10cc in my Blog

Download 10cc - Before During After: The Story of 10cc (2017):