Tags
Language
Tags

Ely Guerra - Sweet & Sour, Hot Y Spicy (2004) {Higher Octave Music/Virgin}

Posted By: TestTickles
Ely Guerra - Sweet & Sour, Hot Y Spicy (2004) {Higher Octave Music/Virgin}

Ely Guerra - Sweet & Sour, Hot Y Spicy (2004) {Higher Octave Music/Virgin}
EAC Rip | FLAC with CUE and LOG | scans | 352 mb
MP3 CBR 320 kbps | RAR | 121 mb
Genre: Latin pop

Sweet & Sour, Hot Y Spicy is the 2004 compact disc by Mexican singer Ely Guerra. This was released by Higher Octave Music via Virgin.

Ely Guerra - Sweet & Sour, Hot Y Spicy (2004) {Higher Octave Music/Virgin}

Sweet & Sour
01. Te Amo, I Love You
02. Ojos Claros, Labios Rosas
03. Pa-Ra-Tí
04. Mas Bonita
05. Lucrecia Y Rigoberto
06. Angelito Heart

Hot Y Spicy
07. Mi Playa
08. El Colchón
09. Tu Boca
10. Puerto Vallarta
11. Bésame
12. Quiéreme Mucho

Exact Audio Copy V1.0 beta 6 from 9. April 2015

EAC extraction logfile from 29. July 2020, 15:33

Ely Guerra / Sweet & Sour, Hot Y Spicy

Used drive : TSSTcorpDVD+-RW TS-L633C Adapter: 1 ID: 0

Read mode : Secure
Utilize accurate stream : Yes
Defeat audio cache : Yes
Make use of C2 pointers : No

Read offset correction : 6
Overread into Lead-In and Lead-Out : No
Fill up missing offset samples with silence : Yes
Delete leading and trailing silent blocks : No
Null samples used in CRC calculations : Yes
Used interface : Native Win32 interface for Win NT & 2000
Gap handling : Appended to previous track

Used output format : Internal WAV Routines
Sample format : 44.100 Hz; 16 Bit; Stereo


TOC of the extracted CD

Track | Start | Length | Start sector | End sector
––––––––––––––––––––––––––––-
1 | 0:00.00 | 4:05.16 | 0 | 18390
2 | 4:05.16 | 4:22.05 | 18391 | 38045
3 | 8:27.21 | 3:16.18 | 38046 | 52763
4 | 11:43.39 | 5:11.11 | 52764 | 76099
5 | 16:54.50 | 4:03.17 | 76100 | 94341
6 | 20:57.67 | 5:48.67 | 94342 | 120508
7 | 26:46.59 | 3:42.52 | 120509 | 137210
8 | 30:29.36 | 5:11.11 | 137211 | 160546
9 | 35:40.47 | 6:23.50 | 160547 | 189321
10 | 42:04.22 | 6:11.19 | 189322 | 217165
11 | 48:15.41 | 3:21.52 | 217166 | 232292
12 | 51:37.18 | 3:38.69 | 232293 | 248711


Track 1

Filename C:\My Documents\My FLAC\Ely Guerra - Sweet & Sour, Hot Y Spicy (2004) [FLAC] {Higher Octave Music, Virgin}\01 - Te Amo, I Love You.wav

Pre-gap length 0:00:02.00

Peak level 99.8 %
Extraction speed 1.9 X
Track quality 100.0 %
Test CRC F1131C7D
Copy CRC F1131C7D
Cannot be verified as accurate (confidence 3) [72F65A9A], AccurateRip returned [F971A3FF] (AR v2)
Copy OK

Track 2

Filename C:\My Documents\My FLAC\Ely Guerra - Sweet & Sour, Hot Y Spicy (2004) [FLAC] {Higher Octave Music, Virgin}\02 - Ojos Claros, Labios Rosas.wav

Pre-gap length 0:00:01.02

Peak level 99.8 %
Extraction speed 2.2 X
Track quality 100.0 %
Test CRC A7803D57
Copy CRC A7803D57
Cannot be verified as accurate (confidence 3) [DF995759], AccurateRip returned [CC2C5462] (AR v2)
Copy OK

Track 3

Filename C:\My Documents\My FLAC\Ely Guerra - Sweet & Sour, Hot Y Spicy (2004) [FLAC] {Higher Octave Music, Virgin}\03 - Pa-Ra-Tí.wav

Pre-gap length 0:00:02.03

Peak level 99.8 %
Extraction speed 3.1 X
Track quality 100.0 %
Test CRC B4A49167
Copy CRC B4A49167
Cannot be verified as accurate (confidence 3) [C36F19EB], AccurateRip returned [A7ED73A8] (AR v2)
Copy OK

Track 4

Filename C:\My Documents\My FLAC\Ely Guerra - Sweet & Sour, Hot Y Spicy (2004) [FLAC] {Higher Octave Music, Virgin}\04 - Mas Bonita.wav

Pre-gap length 0:00:02.03

Peak level 99.8 %
Extraction speed 3.4 X
Track quality 100.0 %
Test CRC 66B9D2CD
Copy CRC 66B9D2CD
Cannot be verified as accurate (confidence 3) [1345E7F7], AccurateRip returned [5CA1D2B7] (AR v2)
Copy OK

Track 5

Filename C:\My Documents\My FLAC\Ely Guerra - Sweet & Sour, Hot Y Spicy (2004) [FLAC] {Higher Octave Music, Virgin}\05 - Lucrecia Y Rigoberto.wav

Pre-gap length 0:00:01.02

Peak level 98.6 %
Extraction speed 3.5 X
Track quality 100.0 %
Test CRC D0FA1471
Copy CRC D0FA1471
Cannot be verified as accurate (confidence 3) [FF2119D5], AccurateRip returned [0D7FA3E5] (AR v2)
Copy OK

Track 6

Filename C:\My Documents\My FLAC\Ely Guerra - Sweet & Sour, Hot Y Spicy (2004) [FLAC] {Higher Octave Music, Virgin}\06 - Angelito Heart.wav

Pre-gap length 0:00:01.02

Peak level 99.7 %
Extraction speed 3.3 X
Track quality 99.9 %
Test CRC F829FB4F
Copy CRC F829FB4F
Cannot be verified as accurate (confidence 3) [A208F9E3], AccurateRip returned [FAC36AA0] (AR v2)
Copy OK

Track 7

Filename C:\My Documents\My FLAC\Ely Guerra - Sweet & Sour, Hot Y Spicy (2004) [FLAC] {Higher Octave Music, Virgin}\07 - Mi Playa.wav

Pre-gap length 0:00:01.02

Peak level 99.8 %
Extraction speed 3.7 X
Track quality 100.0 %
Test CRC 9678BDA5
Copy CRC 9678BDA5
Cannot be verified as accurate (confidence 3) [C9DA1F09], AccurateRip returned [5791869D] (AR v2)
Copy OK

Track 8

Filename C:\My Documents\My FLAC\Ely Guerra - Sweet & Sour, Hot Y Spicy (2004) [FLAC] {Higher Octave Music, Virgin}\08 - El Colchón.wav

Pre-gap length 0:00:01.02

Peak level 99.8 %
Extraction speed 4.2 X
Track quality 100.0 %
Test CRC 592852A5
Copy CRC 592852A5
Cannot be verified as accurate (confidence 3) [EEBA57AA], AccurateRip returned [E546E6A0] (AR v2)
Copy OK

Track 9

Filename C:\My Documents\My FLAC\Ely Guerra - Sweet & Sour, Hot Y Spicy (2004) [FLAC] {Higher Octave Music, Virgin}\09 - Tu Boca.wav

Pre-gap length 0:00:01.02

Peak level 99.6 %
Extraction speed 4.4 X
Track quality 100.0 %
Test CRC C5031305
Copy CRC C5031305
Cannot be verified as accurate (confidence 3) [7E77A4A2], AccurateRip returned [23F5E800] (AR v2)
Copy OK

Track 10

Filename C:\My Documents\My FLAC\Ely Guerra - Sweet & Sour, Hot Y Spicy (2004) [FLAC] {Higher Octave Music, Virgin}\10 - Puerto Vallarta.wav

Pre-gap length 0:00:01.02

Peak level 99.8 %
Extraction speed 4.6 X
Track quality 100.0 %
Test CRC BB3D79A2
Copy CRC BB3D79A2
Cannot be verified as accurate (confidence 3) [05F44B7F], AccurateRip returned [26990D20] (AR v2)
Copy OK

Track 11

Filename C:\My Documents\My FLAC\Ely Guerra - Sweet & Sour, Hot Y Spicy (2004) [FLAC] {Higher Octave Music, Virgin}\11 - Bésame.wav

Pre-gap length 0:00:01.02

Peak level 99.8 %
Extraction speed 4.4 X
Track quality 100.0 %
Test CRC D5FB7AF3
Copy CRC D5FB7AF3
Cannot be verified as accurate (confidence 3) [642CD238], AccurateRip returned [D42B2005] (AR v2)
Copy OK

Track 12

Filename C:\My Documents\My FLAC\Ely Guerra - Sweet & Sour, Hot Y Spicy (2004) [FLAC] {Higher Octave Music, Virgin}\12 - Quiéreme Mucho.wav

Pre-gap length 0:00:02.03

Peak level 99.8 %
Extraction speed 4.6 X
Track quality 100.0 %
Test CRC 749F1557
Copy CRC 749F1557
Cannot be verified as accurate (confidence 3) [BCAED991], AccurateRip returned [B3714DCB] (AR v2)
Copy OK


No tracks could be verified as accurate
You may have a different pressing from the one(s) in the database

No errors occurred

End of status report

–– CUETools DB Plugin V2.1.6

[CTDB TOCID: 5VI9X6GUxfhWyTNov2PLVHi7Meo-] found
Submit result: 5VI9X6GUxfhWyTNov2PLVHi7Meo- has been submitted
Track | CTDB Status
1 | (0/4) No match
2 | (0/4) No match
3 | (0/4) No match
4 | (0/4) No match
5 | (0/4) No match
6 | (0/4) No match
7 | (0/4) No match
8 | (0/4) No match
9 | (0/4) No match
10 | (0/4) No match
11 | (0/4) No match
12 | (0/4) No match


==== Log checksum 6155A068B35CCF87EFB1851CA14EAEFFA6841C0326FF63CCC049D8130B087200 ====


Ely Guerra - Sweet & Sour, Hot Y Spicy (2004) {Higher Octave Music/Virgin}