Subcategories

Endon - Mama (2014) {Daymare}

Posted By: TestTickles
Endon - Mama (2014) {Daymare}

Endon - Mama (2014) {Daymare}
EAC Rip | FLAC with CUE and LOG | scans | 333 mb
MP3 CBR 320 kbps | RAR | 93 mb
Genre: noise rock, harsh noise wall

Mama is the 2014 debut album by Japanese noise rock band Endon. This was released by Daymare.

1. Etude For Lynching By Family (7:04)
2. Parricide Agent Service (3:40)
3. Acme Apathy Amok (15:32)
4. Pray For Me (4:01)
5. WIWTWM (7:37)
6. Just Like Everybody (4:30)

Exact Audio Copy V1.0 beta 4 from 7. December 2014

EAC extraction logfile from 10. October 2015, 12:17

Endon / Mama

Used drive : TSSTcorpCDDVDW SN-208AB Adapter: 1 ID: 0

Read mode : Secure
Utilize accurate stream : Yes
Defeat audio cache : Yes
Make use of C2 pointers : No

Read offset correction : 6
Overread into Lead-In and Lead-Out : No
Fill up missing offset samples with silence : Yes
Delete leading and trailing silent blocks : No
Null samples used in CRC calculations : Yes
Used interface : Native Win32 interface for Win NT & 2000
Gap handling : Appended to previous track

Used output format : User Defined Encoder
Selected bitrate : 896 kBit/s
Quality : High
Add ID3 tag : No
Command line compressor : C:\Program Files (x86)\Exact Audio Copy\Flac\flac.exe
Additional command line options : -8 -V -T "ARTIST=%artist%" -T "TITLE=%title%" -T "ALBUM=%albumtitle%" -T "DATE=%year%" -T "TRACKNUMBER=%tracknr%" -T "GENRE=%genre%" -T "PERFORMER=%albuminterpret%" -T "COMPOSER=%composer%" %haslyrics%–tag-from-file=LYRICS="%lyricsfile%"%haslyrics% -T "ALBUMARTIST=%albumartist%" -T "DISCNUMBER=%cdnumber%" -T "TOTALDISCS=%totalcds%" -T "TOTALTRACKS=%numtracks%" -T "COMMENT=%comment%" %source% -o %dest%

TOC of the extracted CD

Track | Start | Length | Start sector | End sector
––––––––––––––––––––––––––––-
1 | 0:00.00 | 7:03.42 | 0 | 31766
2 | 7:03.42 | 3:39.46 | 31767 | 48237
3 | 10:43.13 | 15:31.34 | 48238 | 118096
4 | 26:14.47 | 4:00.11 | 118097 | 136107
5 | 30:14.58 | 7:36.25 | 136108 | 170332
6 | 37:51.08 | 4:29.55 | 170333 | 190562

Track 1

Filename C:\cuntfist\FLAC\Endon - Mama (2014) [FLAC] {Hydra Head}\01 - Etude For Lynching by Family.wav

Pre-gap length 0:00:02.00

Peak level 99.4 %
Extraction speed 2.3 X
Track quality 100.0 %
Test CRC 9827236A
Copy CRC 9827236A
Track not present in AccurateRip database
Copy OK

Track 2

Filename C:\cuntfist\FLAC\Endon - Mama (2014) [FLAC] {Hydra Head}\02 - Parricide Agent Service.wav

Peak level 99.4 %
Extraction speed 2.5 X
Track quality 100.0 %
Test CRC C0965834
Copy CRC C0965834
Track not present in AccurateRip database
Copy OK

Track 3

Filename C:\cuntfist\FLAC\Endon - Mama (2014) [FLAC] {Hydra Head}\03 - Acme Apathy Amok.wav

Peak level 99.4 %
Extraction speed 3.2 X
Track quality 100.0 %
Test CRC 5E8A8A2B
Copy CRC 5E8A8A2B
Track not present in AccurateRip database
Copy OK

Track 4

Filename C:\cuntfist\FLAC\Endon - Mama (2014) [FLAC] {Hydra Head}\04 - Pray For Me.wav

Peak level 99.4 %
Extraction speed 3.3 X
Track quality 100.0 %
Test CRC 490CF5B4
Copy CRC 490CF5B4
Track not present in AccurateRip database
Copy OK

Track 5

Filename C:\cuntfist\FLAC\Endon - Mama (2014) [FLAC] {Hydra Head}\05 - WIWTWM.wav

Peak level 99.4 %
Extraction speed 3.7 X
Track quality 100.0 %
Test CRC 59537E3F
Copy CRC 59537E3F
Track not present in AccurateRip database
Copy OK

Track 6

Filename C:\cuntfist\FLAC\Endon - Mama (2014) [FLAC] {Hydra Head}\06 - Just Like Everybody.wav

Peak level 99.4 %
Extraction speed 3.7 X
Track quality 100.0 %
Test CRC 4AE003C8
Copy CRC 4AE003C8
Track not present in AccurateRip database
Copy OK

None of the tracks are present in the AccurateRip database

No errors occurred

End of status report

–– CUETools DB Plugin V2.1.4

[CTDB TOCID: Awp2zYMLlO7NYvJ0081FDUYj6TI-] found
Submit result: already submitted
Track | CTDB Status
1 | (1/1) Accurately ripped
2 | (1/1) Accurately ripped
3 | (1/1) Accurately ripped
4 | (1/1) Accurately ripped
5 | (1/1) Accurately ripped
6 | (1/1) Accurately ripped

==== Log checksum 71A8F42896B444F4577AC5CBF771B62F781B70D95C2B3512653AE9AB62A63C32 ====



Endon - Mama (2014) {Daymare}


Thank you to the original uploader.