Subcategories

Eric Clapton & Friends - In Concert (2CD) (2002) {USA}

Posted By: TestTickles
Eric Clapton & Friends - In Concert (2CD) (2002) {USA}

Eric Clapton & Friends - In Concert (2CD) (2002) {USA}
EAC Rip | FLAC with CUE and LOG | scans | 531 mb
MP3 CBR 320 kbps | RAR | 187 mb
Genre: rock, blues rock, classic rock

In Concert is a 2002 CD bootleg by Eric Clapton and some of his friends, including Jimmy Page, Jeff Beck and Joe Cocker, along with Ron Wood. This was allegedly released on a Brazilian label oddly called USA Records

Eric Clapton & Friends - In Concert (2CD) (2002) {USA}

DISC 1
1. Eric Clapton & Ron Wood - Cocaine
2. Eric Clapton & Joe Cocker - Don't Touch Me
3. Eric Clapton & Joe Cocker - Watiching River Flow
4. Eric Clapton & Joe Cocker - Warried Life Blues
5. Eric Clapton & Joe Cocker - You Are So Beautiful
6. Eric Clapton & Joe Cocker - Seven Days
7. Eric Clapton & Joe Cocker - Feelin' Alright
8. Eric Clapton & Jeff Beck - Star Cycle
9. Eric Clapton & Jeff Beck - The Pump
10. Eric Clapton & Jeff Beck - Definitely Maybe

DISC 2
1. Eric Clapton & Jeff Beck - Blue Wind
2. Eric Clapton & Jeff Beck - People Get Ready
3. Eric Clapton & Jeff Beck - Going Down
4. Eric Clapton & Jimmy Page - Prelude
5. Eric Clapton & Jimmy Page - Stairway To Heaven
6. Eric Clapton, Jeff Beck, Joe Cocker & Jimmy Page - Layla
7. Eric Clapton, Jeff Beck, Joe Cocker & Jimmy Page - With A Little Help From My Friends

Exact Audio Copy V1.0 beta 6 from 9. April 2015

EAC extraction logfile from 12. May 2018, 20:30

Eric Clapton & Friends / In Concert (Disc 1)

Used drive : HL-DT-STDVDRAM GP65NW60 Adapter: 1 ID: 1

Read mode : Secure
Utilize accurate stream : Yes
Defeat audio cache : Yes
Make use of C2 pointers : No

Read offset correction : 6
Overread into Lead-In and Lead-Out : No
Fill up missing offset samples with silence : Yes
Delete leading and trailing silent blocks : No
Null samples used in CRC calculations : Yes
Used interface : Native Win32 interface for Win NT & 2000
Gap handling : Appended to previous track

Used output format : User Defined Encoder
Selected bitrate : 768 kBit/s
Quality : High
Add ID3 tag : No
Command line compressor : C:\Program Files (x86)\Exact Audio Copy\Flac\flac.exe
Additional command line options : -8 -V -T "ARTIST=%artist%" -T "TITLE=%title%" -T "ALBUM=%albumtitle%" -T "DATE=%year%" -T "TRACKNUMBER=%tracknr%" -T "TOTALTRACKS=%numtracks%" -T "GENRE=%genre%" -T "ALBUM ARTIST=%albumartist%" -T "ALBUMARTIST=%albumartist%" -T "COMMENT=EAC V1.0 beta 3, Secure Mode, Test & Copy, AccurateRip, FLAC -8" %source%


TOC of the extracted CD

Track | Start | Length | Start sector | End sector
––––––––––––––––––––––––––––-
1 | 0:00.00 | 4:41.35 | 0 | 21109
2 | 4:41.35 | 3:36.15 | 21110 | 37324
3 | 8:17.50 | 3:28.73 | 37325 | 52997
4 | 11:46.48 | 3:49.40 | 52998 | 70212
5 | 15:36.13 | 3:47.02 | 70213 | 87239
6 | 19:23.15 | 4:34.05 | 87240 | 107794
7 | 23:57.20 | 3:37.32 | 107795 | 124101
8 | 27:34.52 | 4:40.68 | 124102 | 145169
9 | 32:15.45 | 4:44.38 | 145170 | 166507
10 | 37:00.08 | 4:42.08 | 166508 | 187665


Track 1

Filename C:\cuntfist\FLAC\Eric Clapton & Friends - In Concert (2CD) (2002) [FLAC] {USA}\Disc 1\01 - Cocaine.wav

Pre-gap length 0:00:02.00

Peak level 94.9 %
Extraction speed 1.2 X
Track quality 100.0 %
Test CRC 6FFC50F7
Copy CRC 6FFC50F7
Track not present in AccurateRip database
Copy OK

Track 2

Filename C:\cuntfist\FLAC\Eric Clapton & Friends - In Concert (2CD) (2002) [FLAC] {USA}\Disc 1\02 - Don't Touch.wav

Peak level 100.0 %
Extraction speed 1.3 X
Track quality 100.0 %
Test CRC 757E2FB3
Copy CRC 757E2FB3
Track not present in AccurateRip database
Copy OK

Track 3

Filename C:\cuntfist\FLAC\Eric Clapton & Friends - In Concert (2CD) (2002) [FLAC] {USA}\Disc 1\03 - Watching River Flow.wav

Peak level 100.0 %
Extraction speed 1.4 X
Track quality 100.0 %
Test CRC A3319657
Copy CRC A3319657
Track not present in AccurateRip database
Copy OK

Track 4

Filename C:\cuntfist\FLAC\Eric Clapton & Friends - In Concert (2CD) (2002) [FLAC] {USA}\Disc 1\04 - Warried Life Blues.wav

Peak level 100.0 %
Extraction speed 1.5 X
Track quality 100.0 %
Test CRC FC1F12E8
Copy CRC FC1F12E8
Track not present in AccurateRip database
Copy OK

Track 5

Filename C:\cuntfist\FLAC\Eric Clapton & Friends - In Concert (2CD) (2002) [FLAC] {USA}\Disc 1\05 - You Are So Beautiful.wav

Peak level 100.0 %
Extraction speed 1.6 X
Track quality 100.0 %
Test CRC 94611A24
Copy CRC 94611A24
Track not present in AccurateRip database
Copy OK

Track 6

Filename C:\cuntfist\FLAC\Eric Clapton & Friends - In Concert (2CD) (2002) [FLAC] {USA}\Disc 1\06 - Seven Days.wav

Peak level 100.0 %
Extraction speed 1.7 X
Track quality 100.0 %
Test CRC 442223AF
Copy CRC 442223AF
Track not present in AccurateRip database
Copy OK

Track 7

Filename C:\cuntfist\FLAC\Eric Clapton & Friends - In Concert (2CD) (2002) [FLAC] {USA}\Disc 1\07 - Feelin Alright.wav

Peak level 100.0 %
Extraction speed 1.6 X
Track quality 99.9 %
Test CRC DA9EEB98
Copy CRC DA9EEB98
Track not present in AccurateRip database
Copy OK

Track 8

Filename C:\cuntfist\FLAC\Eric Clapton & Friends - In Concert (2CD) (2002) [FLAC] {USA}\Disc 1\08 - Star Circle.wav

Peak level 100.0 %
Extraction speed 1.9 X
Track quality 100.0 %
Test CRC B7F44D27
Copy CRC B7F44D27
Track not present in AccurateRip database
Copy OK

Track 9

Filename C:\cuntfist\FLAC\Eric Clapton & Friends - In Concert (2CD) (2002) [FLAC] {USA}\Disc 1\09 - The Pump.wav

Peak level 91.8 %
Extraction speed 1.8 X
Track quality 99.9 %
Test CRC EA601753
Copy CRC EA601753
Track not present in AccurateRip database
Copy OK

Track 10

Filename C:\cuntfist\FLAC\Eric Clapton & Friends - In Concert (2CD) (2002) [FLAC] {USA}\Disc 1\10 - Definitely Maybe.wav

Peak level 100.0 %
Extraction speed 2.1 X
Track quality 100.0 %
Test CRC 734BB8BA
Copy CRC 734BB8BA
Track not present in AccurateRip database
Copy OK


None of the tracks are present in the AccurateRip database

No errors occurred

End of status report

==== Log checksum 4CD8EF256EEF183ECA7F7BE653D1366F2D648AABD839FF4373CBE0121AA31B35 ====







Exact Audio Copy V1.0 beta 6 from 9. April 2015

EAC extraction logfile from 12. May 2018, 21:15

Eric Clapton & Friends / In Concert (Disc 2)

Used drive : HL-DT-STDVDRAM GP65NW60 Adapter: 1 ID: 1

Read mode : Secure
Utilize accurate stream : Yes
Defeat audio cache : Yes
Make use of C2 pointers : No

Read offset correction : 6
Overread into Lead-In and Lead-Out : No
Fill up missing offset samples with silence : Yes
Delete leading and trailing silent blocks : No
Null samples used in CRC calculations : Yes
Used interface : Native Win32 interface for Win NT & 2000
Gap handling : Appended to previous track

Used output format : User Defined Encoder
Selected bitrate : 768 kBit/s
Quality : High
Add ID3 tag : No
Command line compressor : C:\Program Files (x86)\Exact Audio Copy\Flac\flac.exe
Additional command line options : -8 -V -T "ARTIST=%artist%" -T "TITLE=%title%" -T "ALBUM=%albumtitle%" -T "DATE=%year%" -T "TRACKNUMBER=%tracknr%" -T "TOTALTRACKS=%numtracks%" -T "GENRE=%genre%" -T "ALBUM ARTIST=%albumartist%" -T "ALBUMARTIST=%albumartist%" -T "COMMENT=EAC V1.0 beta 3, Secure Mode, Test & Copy, AccurateRip, FLAC -8" %source%


TOC of the extracted CD

Track | Start | Length | Start sector | End sector
––––––––––––––––––––––––––––-
1 | 0:00.00 | 6:01.44 | 0 | 27118
2 | 6:01.44 | 5:26.20 | 27119 | 51588
3 | 11:27.64 | 5:32.18 | 51589 | 76506
4 | 17:00.07 | 2:11.14 | 76507 | 86345
5 | 19:11.21 | 9:41.21 | 86346 | 129941
6 | 28:52.42 | 7:06.59 | 129942 | 161950
7 | 35:59.26 | 6:56.46 | 161951 | 193196


Track 1

Filename C:\cuntfist\FLAC\Eric Clapton & Friends - In Concert (2CD) (2002) [FLAC] {USA}\Disc 2\01 - Blue Wind.wav

Pre-gap length 0:00:02.00

Peak level 100.0 %
Extraction speed 1.1 X
Track quality 99.9 %
Test CRC 4C5D9DDB
Copy CRC 4C5D9DDB
Track not present in AccurateRip database
Copy OK

Track 2

Filename C:\cuntfist\FLAC\Eric Clapton & Friends - In Concert (2CD) (2002) [FLAC] {USA}\Disc 2\02 - People Get Ready.wav

Peak level 100.0 %
Extraction speed 1.4 X
Track quality 100.0 %
Test CRC 14B57807
Copy CRC 14B57807
Track not present in AccurateRip database
Copy OK

Track 3

Filename C:\cuntfist\FLAC\Eric Clapton & Friends - In Concert (2CD) (2002) [FLAC] {USA}\Disc 2\03 - Going Down.wav

Peak level 100.0 %
Extraction speed 1.6 X
Track quality 100.0 %
Test CRC 6BBA4A37
Copy CRC 6BBA4A37
Track not present in AccurateRip database
Copy OK

Track 4

Filename C:\cuntfist\FLAC\Eric Clapton & Friends - In Concert (2CD) (2002) [FLAC] {USA}\Disc 2\04 - Prelude.wav

Peak level 100.0 %
Extraction speed 1.4 X
Track quality 100.0 %
Test CRC 8E755ED2
Copy CRC 8E755ED2
Track not present in AccurateRip database
Copy OK

Track 5

Filename C:\cuntfist\FLAC\Eric Clapton & Friends - In Concert (2CD) (2002) [FLAC] {USA}\Disc 2\05 - Stairway To Heaven.wav

Peak level 100.0 %
Extraction speed 1.9 X
Track quality 100.0 %
Test CRC 42A99649
Copy CRC 42A99649
Track not present in AccurateRip database
Copy OK

Track 6

Filename C:\cuntfist\FLAC\Eric Clapton & Friends - In Concert (2CD) (2002) [FLAC] {USA}\Disc 2\06 - Layla.wav

Peak level 94.7 %
Extraction speed 2.1 X
Track quality 100.0 %
Test CRC E2A46682
Copy CRC E2A46682
Track not present in AccurateRip database
Copy OK

Track 7

Filename C:\cuntfist\FLAC\Eric Clapton & Friends - In Concert (2CD) (2002) [FLAC] {USA}\Disc 2\07 - With A Little Help From My Friends.wav

Peak level 100.0 %
Extraction speed 2.2 X
Track quality 100.0 %
Test CRC 012D94E4
Copy CRC 012D94E4
Track not present in AccurateRip database
Copy OK


None of the tracks are present in the AccurateRip database

No errors occurred

End of status report

==== Log checksum C7049C2C38540556DDE9AAE5DD7E0672267128E8A49541DAF80D7EC553147189 ====


Eric Clapton & Friends - In Concert (2CD) (2002) {USA}


Thank you to the original uploader.