Tags
Language
Tags

Everlast - Forever Everlasting (1990) {Warner Bros.} **[RE-UP]**

Posted By: TestTickles
Everlast - Forever Everlasting (1990) {Warner Bros.} **[RE-UP]**

Everlast - Forever Everlasting (1990) {Warner Bros.}
EAC Rip | FLAC with CUE and log | scans | 359 mb
MP3 CBR 320kbps | RAR | 156 mb
Genre: hip-hop, rap, hip-house

Forever Everlasting is the debut album recording by Caucasian rapper Everlast, who was part of Ice-T's Rhyme Syndicate. The album featured three minor hit singles, including "Never Missin' A Beat", "The Rhythm" (which features Ice-T, Donald D and Diva), and the great "I Got The Knack". This was his only album released through Warner Bros. Records before he formed House Of Pain. He wouldn't release anymore solo material until 1998, when he met with great success with "What It's Like".

Everlast - Forever Everlasting (1990) {Warner Bros.} **[RE-UP]**

1 Syndicate Soldier
2 Speak No Evil
3 Syndication (Remix)
4 What Is This?
5 The Rhythm
6 I Got The Knack
7 On The Edge
8 Fuck Everyone
9 Goodbye
10 Pass It On
11 Never Missin' A Beat

Exact Audio Copy V0.99 prebeta 4 from 23. January 2008

EAC extraction logfile from 27. February 2009, 18:47

Everlast / Forever Everlasting

Used drive : TSSTcorpDVD+-RW TS-H653B Adapter: 2 ID: 0

Read mode : Secure
Utilize accurate stream : Yes
Defeat audio cache : Yes
Make use of C2 pointers : No

Read offset correction : 6
Overread into Lead-In and Lead-Out : No
Fill up missing offset samples with silence : Yes
Delete leading and trailing silent blocks : No
Null samples used in CRC calculations : Yes
Used interface : Native Win32 interface for Win NT & 2000
Gap handling : Appended to previous track

Used output format : Internal WAV Routines
Sample format : 44.100 Hz; 16 Bit; Stereo


TOC of the extracted CD

Track | Start | Length | Start sector | End sector
––––––––––––––––––––––––––––-
1 | 0:00.33 | 3:38.72 | 33 | 16454
2 | 3:39.30 | 4:24.70 | 16455 | 36324
3 | 8:04.25 | 4:29.53 | 36325 | 56552
4 | 12:34.03 | 4:25.55 | 56553 | 76482
5 | 16:59.58 | 4:22.62 | 76483 | 96194
6 | 21:22.45 | 3:35.33 | 96195 | 112352
7 | 24:58.03 | 5:40.65 | 112353 | 137917
8 | 30:38.68 | 4:05.47 | 137918 | 156339
9 | 34:44.40 | 3:56.18 | 156340 | 174057
10 | 38:40.58 | 5:57.25 | 174058 | 200857
11 | 44:38.08 | 4:11.02 | 200858 | 219684


Track 1

Filename C:\FLAC\Everlast - Forever Everlasting (1990) [FLAC] {Warner Bros.}\01 - Syndicate Soldier.wav

Pre-gap length 0:00:02.44

Peak level 87.4 %
Track quality 100.0 %
Test CRC 9227283C
Copy CRC 9227283C
Accurately ripped (confidence 4) [23B691CF]
Copy OK

Track 2

Filename C:\FLAC\Everlast - Forever Everlasting (1990) [FLAC] {Warner Bros.}\02 - Speak No Evil.wav

Pre-gap length 0:00:03.40

Peak level 93.9 %
Track quality 100.0 %
Test CRC C57BA2DF
Copy CRC C57BA2DF
Accurately ripped (confidence 3) [CFECF2BF]
Copy OK

Track 3

Filename C:\FLAC\Everlast - Forever Everlasting (1990) [FLAC] {Warner Bros.}\03 - Syndication (Remix).wav

Pre-gap length 0:00:02.89

Peak level 92.4 %
Track quality 100.0 %
Test CRC E6A218A4
Copy CRC E6A218A4
Accurately ripped (confidence 3) [D9DA04DE]
Copy OK

Track 4

Filename C:\FLAC\Everlast - Forever Everlasting (1990) [FLAC] {Warner Bros.}\04 - What Is This .wav

Pre-gap length 0:00:02.77

Peak level 94.0 %
Track quality 100.0 %
Test CRC 85EC5101
Copy CRC 85EC5101
Accurately ripped (confidence 3) [88D08765]
Copy OK

Track 5

Filename C:\FLAC\Everlast - Forever Everlasting (1990) [FLAC] {Warner Bros.}\05 - The Rhythm.wav

Pre-gap length 0:00:02.97

Peak level 94.0 %
Track quality 100.0 %
Test CRC 8A1B7B46
Copy CRC 8A1B7B46
Accurately ripped (confidence 4) [6227A79B]
Copy OK

Track 6

Filename C:\FLAC\Everlast - Forever Everlasting (1990) [FLAC] {Warner Bros.}\06 - I Got The Knack.wav

Pre-gap length 0:00:02.93

Peak level 91.5 %
Track quality 100.0 %
Test CRC 64B817C0
Copy CRC 64B817C0
Accurately ripped (confidence 4) [AC5015FE]
Copy OK

Track 7

Filename C:\FLAC\Everlast - Forever Everlasting (1990) [FLAC] {Warner Bros.}\07 - On The Edge.wav

Pre-gap length 0:00:02.90

Peak level 94.0 %
Track quality 100.0 %
Test CRC D854D9E0
Copy CRC D854D9E0
Accurately ripped (confidence 4) [2B3EB46E]
Copy OK

Track 8

Filename C:\FLAC\Everlast - Forever Everlasting (1990) [FLAC] {Warner Bros.}\08 - Fuck Everyone.wav

Pre-gap length 0:00:01.50

Peak level 88.9 %
Track quality 99.9 %
Test CRC D9070126
Copy CRC D9070126
Accurately ripped (confidence 4) [E832B8F9]
Copy OK

Track 9

Filename C:\FLAC\Everlast - Forever Everlasting (1990) [FLAC] {Warner Bros.}\09 - Goodbye.wav

Pre-gap length 0:00:02.60

Peak level 94.0 %
Track quality 100.0 %
Test CRC 26BF7137
Copy CRC 26BF7137
Accurately ripped (confidence 4) [F707AFF4]
Copy OK

Track 10

Filename C:\FLAC\Everlast - Forever Everlasting (1990) [FLAC] {Warner Bros.}\10 - Pass It On.wav

Pre-gap length 0:00:03.53

Peak level 94.0 %
Track quality 100.0 %
Test CRC C0C16D6A
Copy CRC C0C16D6A
Accurately ripped (confidence 4) [C6507B72]
Copy OK

Track 11

Filename C:\FLAC\Everlast - Forever Everlasting (1990) [FLAC] {Warner Bros.}\11 - Never Missin' A Beat.wav

Pre-gap length 0:00:01.80

Peak level 85.7 %
Track quality 100.0 %
Test CRC 4BB07499
Copy CRC 4BB07499
Accurately ripped (confidence 4) [4AD9D35F]
Copy OK


All tracks accurately ripped

No errors occurred

End of status report


Everlast - Forever Everlasting (1990) {Warner Bros.} **[RE-UP]**