Tags
Language
Tags

Shakira - Live & Off The Record (2004) {Epic Europe}

Posted By: TestTickles
Shakira - Live & Off The Record (2004) {Epic Europe}

Shakira - Live & Off The Record (2004) {Epic Europe}
EAC Rip | FLAC with LOG | scans | 377 mb
MP3 CBR 320 kbps | RAR | 123 mb
Genre: Latin pop

Live & Off The Record is the 2004 live album by Colombian pop sensation Shakira. This was released in Europe by Epic Records.

Shakira - Live & Off The Record (2004) {Epic Europe}

01. Ojos Asi
02. Si Te Vas
03. Underneath Your Clothes
04. Ciega, Sordomuda
05. The One
06. Back In Black
07. Tu
08. Poem To A Horse
09. Objection (Tango)
10. Whenever, Wherever

Exact Audio Copy V0.99 prebeta 4 from 23. January 2008

Отчёт EAC об извлечении, выполненном 24. ноябрь 2008, 4:02

Shakira / Live & Off The Record

Дисковод: MATSHITADVD-RAM UJ-841S Adapter: 0 ID: 1

Режим чтения : Достоверность
Использование точного потока : Да
Отключение кэша аудио : Да
Использование указателей C2 : Нет

Коррекция смещения при чтении : 102
Способность читать области Lead-in и Lead-out : Нет
Заполнение пропущенных сэмплов тишиной : Да
Удаление блоков с тишиной в начале и конце : Нет
При вычислениях CRC использовались нулевые сэмплы : Нет
Интерфейс : Установленный внешний ASPI-интерфейс

Выходной формат : Внутренние WAV-операции
Формат сэмплов : 44.100 Гц; 16 бит; стерео

TOC извлечённого CD

Трек | Старт | Длительность | Начальный сектор | Конечный сектор
––––––––––––––––––––––––––––––––––-
1 | 0:00.00 | 8:14.45 | 0 | 37094
2 | 8:14.45 | 4:36.55 | 37095 | 57849
3 | 12:51.25 | 4:13.42 | 57850 | 76866
4 | 17:04.67 | 4:58.63 | 76867 | 99279
5 | 22:03.55 | 3:46.72 | 99280 | 116301
6 | 25:50.52 | 5:23.68 | 116302 | 140594
7 | 31:14.45 | 4:50.25 | 140595 | 162369
8 | 36:04.70 | 7:13.32 | 162370 | 194876
9 | 43:18.27 | 4:22.45 | 194877 | 214571
10 | 47:40.72 | 7:52.43 | 214572 | 250014

Характеристики диапазона извлечения и сообщения об ошибках

Выбранный диапазон

Имя файла C:\cuntfist\FLAC\Shakira - Live & Off The Record (2004) [FLAC] {Epic Europe}\Shakira - Live & Off The Record.wav

Пиковый уровень 100.0 %
Качество диапазона 100.0 %
CRC копии B7974B68
Копирование… OK

Ошибок не произошло

Конец отчёта


Shakira - Live & Off The Record (2004) {Epic Europe}


Thank you to the original uploader.