Tags
Language
Tags

Stanley Clarke - Journey To Love (1975) {198x Epic} **[RE-UP]**

Posted By: TestTickles
Stanley Clarke - Journey To Love (1975) {198x Epic} **[RE-UP]**

Stanley Clarke - Journey To Love (1975)
EAC Rip | FLAC with CUE and log | scans | 217 mb
MP3 CBR 320kbps | RAR | 96 mb
Genre: jazz, fusion

Journey To Love is a 1975 album by American jazz bassist Stanley Clarke. Some of the people joining Clarke on the album include Chick Corea, John McLaughlin, George Duke, Steve Gadd, Lenny White, and Jeff Beck. No reissue date on the packaging for this, the first digital version of the album, but it was released by Epic Records sometime in the late 1980's or early 1990's, possibly 1991.

Stanley Clarke - Journey To Love (1975) {198x Epic} **[RE-UP]**

1. Silly Putty
2. Journey To Love
3. Hello Jeff
4. Song To John (Part I)
5. Song To John (Part II)
6. Concerto For Jazz/Rock Orchestra (Part I, Part II, Part III, Part IV)

EAC extraction logfile from 1. November 2005, 15:21 for CD
Stanley Clarke / Journey To Love

Used drive : LITE-ON DVDRW SOHW-1633S Adapter: 0 ID: 0
Read mode : Secure with NO C2, accurate stream, disable cache
Read offset correction : 12
Overread into Lead-In and Lead-Out : No

Used output format : Internal WAV Routines
44.100 Hz; 16 Bit; Stereo

Other options :
Fill up missing offset samples with silence : Yes
Delete leading and trailing silent blocks : No
Installed external ASPI interface


Track 1
Filename C:\FLAC\Stanley Clarke - Journey To Love (1975) [FLAC] {198x Epic}\01 - Silly Putty.wav

Pre-gap length 0:00:02.00

Peak level 84.9 %
Track quality 100.0 %
Test CRC F466459C
Copy CRC F466459C
Copy OK

Track 2
Filename C:\FLAC\Stanley Clarke - Journey To Love (1975) [FLAC] {198x Epic}\02 - Journey To Love.wav

Peak level 93.6 %
Track quality 100.0 %
Test CRC C8159522
Copy CRC C8159522
Copy OK

Track 3
Filename C:\FLAC\Stanley Clarke - Journey To Love (1975) [FLAC] {198x Epic}\03 - Hello Jeff.wav

Pre-gap length 0:00:00.10

Peak level 78.3 %
Track quality 100.0 %
Test CRC EB450FE9
Copy CRC EB450FE9
Copy OK

Track 4
Filename C:\FLAC\Stanley Clarke - Journey To Love (1975) [FLAC] {198x Epic}\04 - Song To John (Part I).wav

Pre-gap length 0:00:01.10

Peak level 36.8 %
Track quality 99.9 %
Test CRC 373288D9
Copy CRC 373288D9
Copy OK

Track 5
Filename C:\FLAC\Stanley Clarke - Journey To Love (1975) [FLAC] {198x Epic}\05 - Song To John (Part II).wav

Peak level 48.6 %
Track quality 100.0 %
Test CRC 4A13F0DA
Copy CRC 4A13F0DA
Copy OK

Track 6
Filename C:\FLAC\Stanley Clarke - Journey To Love (1975) [FLAC] {198x Epic}\06 - Concerto For Jazz,Rock Orchestra (Part I, Part II, Part III, Part IV).wav

Pre-gap length 0:00:00.63

Peak level 89.1 %
Track quality 99.9 %
Test CRC 84F63687
Copy CRC 84F63687
Copy OK

No errors occured


End of status report


Stanley Clarke - Journey To Love (1975) {198x Epic} **[RE-UP]**