Tags
Language
Tags

VA - Super Love Duets Vol. II (1994) {Arisa Ltd.}

Posted By: TestTickles
VA - Super Love Duets Vol. II (1994) {Arisa Ltd.}

VA - Super Love Duets Vol. II (1994) {Arisa Ltd.}
EAC Rip | FLAC with CUE and LOG | scans | 461 mb
MP3 CBR 320 kbps | RAR | 164 mb
Genre: pop, soft rock, soul, R&B

Super Love Duets Vol. II is a 1994 compilation of some of the most choishesh love songs of our generation from the decade that matters, whatever decade that is. This was releash by Arisa Ltd., an illegal label made for our generation, whatever generation that is.

VA - Super Love Duets Vol. II (1994) {Arisa Ltd.}

01. George Michael & Lisa Stansfield - These Are The Days Of Our Lives (4:44)
02. David Bowie & Annie Lennox - Under Pressure (3:53)
03. Peabo Bryson & Regina Belle - A Whole New World (Aladdin's Theme) (4:06)
04. Michael Jackson & Siedah Garrett - I Just Can't Stop Loving You (4:24)
05. Al Bano & Romina Power - Liberta (4:22)
06. Rod Stewart & Tina Turner - It Takes Two (4:16)
07. Zucchero & Randy Crawford - Diamante (4:43)
08. Freddie Mercury & Montserrat Caballe - How Can I Go On (4:01)
09. Peabo Bryson & Celine Dion - Beauty And The Beast (4:07)
10. Keith Washington & Letitia Body - Let Me Make Love To You (5:38)
11. Nat King Cole & Natalie Cole - Unforgettable (3:33)
12. Aretha Franklin & George Benson - Love All The Hurt Away (4:11)
13. Dionne Warwick & Jeffrey Osborne - Love Power (4:37)
14. Aretha Franklin & Elton John - Through The Storm (4:25)
15. Joe Cocker & Jennifer Warnes - Up Where We Belong (3:53)
16. Elton John & Bonnie Raitt - Love Letters (4:02)
17. Lita Ford & Ozzy Osbourne - Close My Eyes Forever (4:41)

Exact Audio Copy V1.0 beta 3 from 29. August 2011

Отчёт EAC об извлечении, выполненном 26. Oктября 2018, 10:34

VA / Super Love Duets Vol. II

Дисковод: ASUS DRW-1814BLT Adapter: 5 ID: 0

Режим чтения : Достоверность
Использование точного потока : Да
Отключение кэша аудио : Да
Использование указателей C2 : Нет

Коррекция смещения при чтении : 6
Способность читать области Lead-in и Lead-out : Нет
Заполнение пропущенных сэмплов тишиной : Да
Удаление блоков с тишиной в начале и конце : Нет
При вычислениях CRC использовались нулевые сэмплы : Да
Интерфейс : Встроенный Win32-интерфейс для Win NT/2000
Обработка зазоров : Добавлено к предыдущему треку

Выходной формат : Пользовательский кодировщик
Выбранный битрейт : 128 kBit/s
Качество : Высокий
Добавление ID3-тега : Нет
Утилита сжатия : C:\Program Files\Exact Audio Copy\Flac\flac.exe
Дополнительные параметры : -V -8 -T "Genre=%genre%" -T "Artist=%artist%" -T "Title=%title%" -T "Album=%albumtitle%" -T "Date=%year%" -T "Tracknumber=%tracknr%" -T "Comment=EAC1.0b2 FLAC -8" %source%


TOC извлечённого CD

Трек | Старт | Длительность | Начальный сектор | Конечный сектор
––––––––––––––––––––––––––––––––––-
1 | 0:00.22 | 4:44.68 | 22 | 21389
2 | 4:45.15 | 3:53.40 | 21390 | 38904
3 | 8:38.55 | 4:06.62 | 38905 | 57416
4 | 12:45.42 | 4:24.38 | 57417 | 77254
5 | 17:10.05 | 4:22.15 | 77255 | 96919
6 | 21:32.20 | 4:16.07 | 96920 | 116126
7 | 25:48.27 | 4:43.23 | 116127 | 137374
8 | 30:31.50 | 4:01.67 | 137375 | 155516
9 | 34:33.42 | 4:07.40 | 155517 | 174081
10 | 38:41.07 | 5:38.53 | 174082 | 199484
11 | 44:19.60 | 3:33.12 | 199485 | 215471
12 | 47:52.72 | 4:11.30 | 215472 | 234326
13 | 52:04.27 | 4:37.30 | 234327 | 255131
14 | 56:41.57 | 4:25.18 | 255132 | 275024
15 | 61:07.00 | 3:53.65 | 275025 | 292564
16 | 65:00.65 | 4:02.72 | 292565 | 310786
17 | 69:03.62 | 4:41.03 | 310787 | 331864


Трек 1

Имя файла C:\cuntfist\FLAC\VA - Super Love Duets Vol. II (1994) [FLAC] {Arisa Ltd.}\01 - These Are The Days Of Our Lives .wav

Длина предзазора 0:00:02.22

Пиковый уровень 55.7 %
Скорость извлечения 5.1 X
Качество трека 100.0 %
CRC теста E5F7F421
CRC копии E5F7F421
Точное извлечение (достоверность 1) [910FA1C9] (AR v2)
Копирование… OK

Трек 2

Имя файла C:\cuntfist\FLAC\VA - Super Love Duets Vol. II (1994) [FLAC] {Arisa Ltd.}\02 - Under Pressure .wav

Длина предзазора 0:00:00.03

Пиковый уровень 80.3 %
Скорость извлечения 5.4 X
Качество трека 100.0 %
CRC теста 03A536E5
CRC копии 03A536E5
Точное извлечение (достоверность 1) [351AF46A] (AR v2)
Копирование… OK

Трек 3

Имя файла C:\cuntfist\FLAC\VA - Super Love Duets Vol. II (1994) [FLAC] {Arisa Ltd.}\03 - A Whole New World (Aladdin's Theme) .wav

Длина предзазора 0:00:00.03

Пиковый уровень 65.9 %
Скорость извлечения 5.8 X
Качество трека 100.0 %
CRC теста 1080BBB0
CRC копии 1080BBB0
Точное извлечение (достоверность 1) [6B9EE79A] (AR v2)
Копирование… OK

Трек 4

Имя файла C:\cuntfist\FLAC\VA - Super Love Duets Vol. II (1994) [FLAC] {Arisa Ltd.}\04 - I Just Can't Stop Loving You .wav

Длина предзазора 0:00:00.05

Пиковый уровень 77.0 %
Скорость извлечения 6.3 X
Качество трека 100.0 %
CRC теста F0E082DB
CRC копии F0E082DB
Точное извлечение (достоверность 1) [91F0BA67] (AR v2)
Копирование… OK

Трек 5

Имя файла C:\cuntfist\FLAC\VA - Super Love Duets Vol. II (1994) [FLAC] {Arisa Ltd.}\05 - Liberta .wav

Длина предзазора 0:00:00.03

Пиковый уровень 93.0 %
Скорость извлечения 6.7 X
Качество трека 100.0 %
CRC теста DE14D9A5
CRC копии DE14D9A5
Точное извлечение (достоверность 1) [44EF6032] (AR v2)
Копирование… OK

Трек 6

Имя файла C:\cuntfist\FLAC\VA - Super Love Duets Vol. II (1994) [FLAC] {Arisa Ltd.}\06 It Takes Two .wav

Длина предзазора 0:00:00.03

Пиковый уровень 68.4 %
Скорость извлечения 7.0 X
Качество трека 100.0 %
CRC теста 7D4E6337
CRC копии 7D4E6337
Точное извлечение (достоверность 1) [162C4972] (AR v2)
Копирование… OK

Трек 7

Имя файла C:\cuntfist\FLAC\VA - Super Love Duets Vol. II (1994) [FLAC] {Arisa Ltd.}\07 - Diamante .wav

Длина предзазора 0:00:00.05

Пиковый уровень 84.8 %
Скорость извлечения 7.5 X
Качество трека 100.0 %
CRC теста 0B6C5A0F
CRC копии 0B6C5A0F
Точное извлечение (достоверность 1) [3A1BCEC1] (AR v2)
Копирование… OK

Трек 8

Имя файла C:\cuntfist\FLAC\VA - Super Love Duets Vol. II (1994) [FLAC] {Arisa Ltd.}\08 - How Can I Go On .wav

Длина предзазора 0:00:00.05

Пиковый уровень 78.5 %
Скорость извлечения 7.6 X
Качество трека 100.0 %
CRC теста B101978E
CRC копии B101978E
Точное извлечение (достоверность 1) [3C09B823] (AR v2)
Копирование… OK

Трек 9

Имя файла C:\cuntfist\FLAC\VA - Super Love Duets Vol. II (1994) [FLAC] {Arisa Ltd.}\09 - Beauty And The Beast .wav

Длина предзазора 0:00:00.02

Пиковый уровень 88.4 %
Скорость извлечения 7.9 X
Качество трека 100.0 %
CRC теста 2E1317E4
CRC копии 2E1317E4
Точное извлечение (достоверность 1) [AF4CF84C] (AR v2)
Копирование… OK

Трек 10

Имя файла C:\cuntfist\FLAC\VA - Super Love Duets Vol. II (1994) [FLAC] {Arisa Ltd.}\10 - Let Me Make Love To You .wav

Длина предзазора 0:00:00.05

Пиковый уровень 84.7 %
Скорость извлечения 8.6 X
Качество трека 100.0 %
CRC теста 49EF16C7
CRC копии 49EF16C7
Точное извлечение (достоверность 1) [8971C5A3] (AR v2)
Копирование… OK

Трек 11

Имя файла C:\cuntfist\FLAC\VA - Super Love Duets Vol. II (1994) [FLAC] {Arisa Ltd.}\11 - Unforgettable .wav

Длина предзазора 0:00:00.05

Пиковый уровень 62.0 %
Скорость извлечения 8.3 X
Качество трека 100.0 %
CRC теста 9A487E0E
CRC копии 9A487E0E
Точное извлечение (достоверность 1) [243E1F99] (AR v2)
Копирование… OK

Трек 12

Имя файла C:\cuntfist\FLAC\VA - Super Love Duets Vol. II (1994) [FLAC] {Arisa Ltd.}\12 - Love All The Hurt Away .wav

Длина предзазора 0:00:00.05

Пиковый уровень 77.9 %
Скорость извлечения 8.8 X
Качество трека 100.0 %
CRC теста 44592ACD
CRC копии 44592ACD
Точное извлечение (достоверность 1) [4D10F1A6] (AR v2)
Копирование… OK

Трек 13

Имя файла C:\cuntfist\FLAC\VA - Super Love Duets Vol. II (1994) [FLAC] {Arisa Ltd.}\13 - Love Power .wav

Длина предзазора 0:00:00.02

Пиковый уровень 100.0 %
Скорость извлечения 9.2 X
Качество трека 100.0 %
CRC теста 01B5F559
CRC копии 01B5F559
Точное извлечение (достоверность 1) [4E6B46FD] (AR v2)
Копирование… OK

Трек 14

Имя файла C:\cuntfist\FLAC\VA - Super Love Duets Vol. II (1994) [FLAC] {Arisa Ltd.}\14 - Through The Storm .wav

Длина предзазора 0:00:00.05

Пиковый уровень 100.0 %
Скорость извлечения 6.8 X
Качество трека 99.9 %
CRC теста 28201057
CRC копии 28201057
Точное извлечение (достоверность 1) [CFEE895C] (AR v2)
Копирование… OK

Трек 15

Имя файла C:\cuntfist\FLAC\VA - Super Love Duets Vol. II (1994) [FLAC] {Arisa Ltd.}\15 - Up Where We Belong .wav

Длина предзазора 0:00:00.03

Пиковый уровень 100.0 %
Скорость извлечения 9.4 X
Качество трека 100.0 %
CRC теста B72C5C60
CRC копии B72C5C60
Точное извлечение (достоверность 1) [05624F70] (AR v2)
Копирование… OK

Трек 16

Имя файла C:\cuntfist\FLAC\VA - Super Love Duets Vol. II (1994) [FLAC] {Arisa Ltd.}\16 - Love Letters .wav

Длина предзазора 0:00:00.05

Пиковый уровень 100.0 %
Скорость извлечения 5.0 X
Качество трека 99.9 %
CRC теста F787C22B
CRC копии F787C22B
Точное извлечение (достоверность 1) [E7362F8F] (AR v2)
Копирование… OK

Трек 17

Имя файла C:\cuntfist\FLAC\VA - Super Love Duets Vol. II (1994) [FLAC] {Arisa Ltd.}\17 - Close My Eyes Forever .wav

Длина предзазора 0:00:00.02

Пиковый уровень 96.8 %
Скорость извлечения 10.0 X
Качество трека 100.0 %
CRC теста 13B33C2C
CRC копии 13B33C2C
Точное извлечение (достоверность 1) [5A944637] (AR v2)
Копирование… OK


Все треки извлечены точно

Ошибок не произошло

Конец отчёта

==== Контрольная сумма отчёта 470BD071BF32DBF5D3017FFA51C35ADF3DF235DFA6745755AD1FF8E6CEDA017A ====


VA - Super Love Duets Vol. II (1994) {Arisa Ltd.}


Thank you to the original uploader.