Subcategories
Tags
Language
Tags

System Of A Down - Chop Suey (Europe CD5) (2001) {american recordings/Columbia}

Posted By: TestTickles
System Of A Down - Chop Suey (Europe CD5) (2001) {american recordings/Columbia}

System Of A Down - Chop Suey (Europe CD5) (2001) {american recordings/Columbia}
EAC Rip | FLAC with CUE and log | scans | 83 mb
MP3 CBR 320kbps | RAR | 29 mb
Genre: heavy metal, nu metal

"Chop Suey" is a 2001 single by System Of A Down, taken from their second album Toxicity. This is a European CD5 featuring two live tracks. This was released by american recordings via Columbia.

System Of A Down - Chop Suey (Europe CD5) (2001) {american recordings/Columbia}

1. Chop Suey! (3:30)
2. Johnny (2:08)
3. Sugar (Live) (2:27)
4. War? (Live) (2:47)

Tracks 3 & 4 recorded on 19th January, 1999 at Irving Plaza in New York City, New York

Exact Audio Copy V0.99 prebeta 4 from 23. January 2008

EAC extraction logfile from 10. May 2009, 08:29

System of a Down / Chop Suey (Europe CD5)

Used drive : HL-DT-STDVDRRW GSA-H30L Adapter: 0 ID: 1

Read mode : Secure
Utilize accurate stream : Yes
Defeat audio cache : Yes
Make use of C2 pointers : No

Read offset correction : 102
Overread into Lead-In and Lead-Out : No
Fill up missing offset samples with silence : Yes
Delete leading and trailing silent blocks : No
Null samples used in CRC calculations : Yes
Used interface : Native Win32 interface for Win NT & 2000
Gap handling : Appended to previous track

Used output format : User Defined Encoder
Selected bitrate : 192 kBit/s
Quality : High
Add ID3 tag : No
Command line compressor : C:\Program Files\FLAC\flac.exe
Additional command line options : -V -8 -T "artist=%a" -T "title=%t" -T "album=%g" -T "date=%y" -T "tracknumber=%n" -T "genre=%m" %s


TOC of the extracted CD

Track | Start | Length | Start sector | End sector
––––––––––––––––––––––––––––-
1 | 0:00.00 | 3:31.09 | 0 | 15833
2 | 3:31.09 | 2:07.48 | 15834 | 25406
3 | 5:38.57 | 2:27.58 | 25407 | 36489
4 | 8:06.40 | 2:48.14 | 36490 | 49103


Track 1

Filename C:\cuntfist\FLAC\System Of A Down - Chop Suey (Europe CD5) (2001) [FLAC] {american recordings, Columbia}\01 - Chop Suey.wav

Pre-gap length 0:00:02.00

Peak level 98.8 %
Track quality 100.0 %
Test CRC 24C81B58
Copy CRC 24C81B58
Accurately ripped (confidence 3) [7E2DD20C]
Copy OK

Track 2

Filename C:\cuntfist\FLAC\System Of A Down - Chop Suey (Europe CD5) (2001) [FLAC] {american recordings, Columbia}\02 - Johnny.wav

Peak level 98.8 %
Track quality 100.0 %
Test CRC 6DA261AE
Copy CRC 6DA261AE
Accurately ripped (confidence 3) [08C02395]
Copy OK

Track 3

Filename C:\cuntfist\FLAC\System Of A Down - Chop Suey (Europe CD5) (2001) [FLAC] {american recordings, Columbia}\03 - Sugar (Live).wav

Peak level 99.9 %
Track quality 99.9 %
Test CRC 045CC4DA
Copy CRC 045CC4DA
Accurately ripped (confidence 3) [0B238C3C]
Copy OK

Track 4

Filename C:\cuntfist\FLAC\System Of A Down - Chop Suey (Europe CD5) (2001) [FLAC] {american recordings, Columbia}\04 - War (Live).wav

Peak level 99.9 %
Track quality 100.0 %
Test CRC 66D5E912
Copy CRC 66D5E912
Accurately ripped (confidence 3) [B31CD1DE]
Copy OK


All tracks accurately ripped

No errors occurred

End of status report


System Of A Down - Chop Suey (Europe CD5) (2001) {american recordings/Columbia}


Thank you to the original uploader.