Tags
Language
Tags

ATB: CD and DVD Collection (1999 - 2014) [13CD + 2DVD]

Posted By: v3122
ATB: CD and DVD Collection (1999 - 2014) [13CD + 2DVD]

ATB: CD and DVD Collection (1999 - 2014)
EAC | Flac(Image) + Cue + Log & MP3 CBR 320Kbps
13CD | Label: Various | ~ 5983 or 2057 Mb | Scans(png) -> 2899 Mb
DVD9: PAL 4:3 (720x576) VBR / Dolby AC3, 6 ch -> 8.10 Gb
DVD5: PAL 4:3 (720x576) VBR / Dolby AC3, 6 ch -> 3.34 Gb
Trance, Techno, Uplifting, Breakbeat, Ambient

ATB is the alias of progressive house/trance DJ and producer André Tanneberger, a native of Freiberg, Germany, born in 1973. ATB's catchy, vocal-driven singles crossed over from clubs to mainstream pop radio, making him one of the most recognizable artists of trance's late-'90s/early-2000s commercial peak. He is best known for his first single, "9 PM (Till I Come)," a euphoric yet chilled-out progressive house instrumental featuring a smooth, distinctive guitar riff. This guitar sound became ATB's trademark, but his lengthy discography has incorporated elements of ambient, drum'n'bass, and rock. His popularity has continued, earning him rankings in numerous international DJ polls, and he has a particularly strong following in Poland, where several of his studio albums and mix CDs have gone gold or platinum.

Tanneberger started his career in the early '90s, forming Euro-house group Sequential One in 1993. The group was moderately successful in Europe, releasing three albums and over a dozen singles until their dissolution in 1999. In the wake of remixes for acts including the Outhere Brothers, Technotronic, and Haddaway, Tanneberger began using the name ATB for his original solo material. He scored a major hit with 1998's "9 PM (Till I Come)," which hit number one in the U.K. and went gold or platinum in a few other countries. Similar-sounding 1999 follow-up "Don't Stop" nearly duplicated the success, and full-length debut Movin' Melodies arrived later that same year. The album also featured the single "Killer," a remake of the Seal and Adamski hit, with Drew Williams on vocals. The song was another smash hit, and began ATB's successful run of vocal trance anthems.

At the end of October 2000, Tanneberger released his sophomore album, Two Worlds. For the album, ATB collaborated with Heather Nova, Enigma, and the Canadian rock band Wild Strawberries. The release was a double CD, the first consisting of more dancefloor-friendly tunes and the second featuring more downtempo/ambient tracks. Following a few more hit singles, third album Dedicated appeared in 2002, featuring a hit cover of Olive's "You're Not Alone." Fourth album Addicted to Music arrived in 2003, along with a DVD of the same name that collected his music videos to date along with a U.S. tour documentary, interviews, and other content. Toward the end of the year, he also released The DJ in the Mix, his first of many continuous mix CDs.

Fifth studio album No Silence was released in 2004, featuring another DVD in its bonus edition. The year 2005 brought ATB's first retrospective compilation, Seven Years: 1998-2005, which featured all of his hits from that period as well as six new songs. The 2007 album Trilogy contained two discs, the first being more pop/rock-leaning and the second more ambient. Future Memories followed in 2009, and also featured separate uptempo/downtempo discs, but this time the uptempo disc featured tracks with higher BPMs influenced by drum'n'bass. The 2011 release Distant Earth expanded the format, not only featuring pop-trance songs on the first disc and downtempo/ambient tracks (including an Armin van Buuren collaboration) on the second, but also a club-centric third disc with the album's bonus edition. The album was followed later in the year by the two-CD remix collection Distant Earth Remixed. Contact, ATB's ninth studio album, continued his tradition of two discs focusing on dance and chillout tracks, as well as a bonus version featuring a third disc of remixes. Contact peaked in the Top Ten of the German and Polish charts. ATB returned in 2017 with his tenth effort, Next.

by Jason Ankeny, allmusic
ATB: CD and DVD Collection (1999 - 2014) [13CD + 2DVD]

ATB: CD and DVD Collection (1999 - 2014):

ATB: CD and DVD Collection (1999 - 2014) [13CD + 2DVD]

CD01: ATB - Movin' Melodies (1999)
EAC | Flac(Image) + Cue + Log & MP3 CBR 320Kbps
Kontor068, 547526-2 | ~ 494 or 174 Mb | Scans(png) -> 250 Mb
Trance, Techno, Uplifting, Breakbeat, Ambient

Most notable for including the song "9 P.M. (Till I Come)," Movin' Melodies also features a few other hit songs such as "Killer 2000" and "Don't Stop" along with lots of forgettable filler. Throughout 1999, the year "9 P.M. (Till I Come)" became an international sensation, ATB remained a one-hit wonder. He had the one hit song but no album to accompany it. Then, late in 1999, approximately a year after "9 P.M. (Till I Come)" had spread across the world like wildfire, he delivered Movin' Melodies, his proper debut album. First of all, keep in mind that it's not easy to produce a satisfying album of strictly trance, even if it is trance of the dance-pop variety. Europe's top trance producer, Paul Van Dyk, had continually struggled to produced a satisfying album, and no one else had even come close with the possible exception of BT, but he did more than just produce trance songs. So, given that no one had ever produced a satisfying studio album of trance since the genre sprouted up in the early '90s, ATB didn't have much hope of creating a classic album, particularly since he was a relative newcomer to production. And indeed, he flounders here, somewhat confirming his one-hit wonder reputation. Granted, "9 P.M. (Till I Come)" is surely melodic, but the many other songs are mostly retreads, none of them especially novel. When taken as a whole, Movin' Melodies is a difficult listen, even for those with a weakness for the melodies of "9 P.M. (Till I Come)." By the time you make it halfway through the album, you feel exhausted from the relentless, steady tempo and continuous intensity, not to mention the countless buildups. Frankly, Movin' Melodies is overindulgent – too much for even those with a taste for "9 P.M. (Till I Come)." You're better off appreciating the hit single on its own.

by Jason Birchmeier, allmusic
Tracklist:

01. The First Tones (2:07)
02. Emotion (4:24)
03. Underwater World (4:11)
04. Zwischenstuck (0:58)
05. 9 PM (Till I Come) (3:14)
06. Killer 2000 (5:36)
07. Too Much Rain By United Deejays For Central America (ATB VS. Woody Van Eyden Mix) (5:37)
08. Don't Stop (3:41)
09. Obsession (6:26)
10. My Dream (7:06)
11. Kayama (4:26)
12. Beach Vibes By EFF (8:26)
13. Movin' Melodies (5:57)
14. Sunburn (3:53)
15. 9 PM (Till I Come) (Signum Mix) (7:35)

Converted to Image (CUETools 2.1.4)

Exact Audio Copy V1.0 beta 3 from 29. August 2011

EAC extraction logfile from 22. May 2015, 23:41

ATB / Movin' Melodies

Used drive : SONY DVD RW AD-7260S Adapter: 9 ID: 0

Read mode : Secure
Utilize accurate stream : Yes
Defeat audio cache : Yes
Make use of C2 pointers : No

Read offset correction : 48
Overread into Lead-In and Lead-Out : No
Fill up missing offset samples with silence : Yes
Delete leading and trailing silent blocks : No
Null samples used in CRC calculations : Yes
Used interface : Installed external ASPI interface
Gap handling : Appended to previous track

Used output format : Internal WAV Routines
Sample format : 44.100 Hz; 16 Bit; Stereo


TOC of the extracted CD

Track | Start | Length | Start sector | End sector
––––––––––––––––––––––––––––-
1 | 0:00.00 | 2:07.25 | 0 | 9549
2 | 2:07.25 | 4:23.72 | 9550 | 29346
3 | 6:31.22 | 4:11.33 | 29347 | 48204
4 | 10:42.55 | 0:58.00 | 48205 | 52554
5 | 11:40.55 | 3:13.66 | 52555 | 67095
6 | 14:54.46 | 5:35.48 | 67096 | 92268
7 | 20:30.19 | 5:36.60 | 92269 | 117528
8 | 26:07.04 | 3:41.12 | 117529 | 134115
9 | 29:48.16 | 6:25.39 | 134116 | 163029
10 | 36:13.55 | 7:05.50 | 163030 | 194954
11 | 43:19.30 | 4:25.70 | 194955 | 214899
12 | 47:45.25 | 8:26.10 | 214900 | 252859
13 | 56:11.35 | 5:56.62 | 252860 | 279621
14 | 62:08.22 | 3:52.39 | 279622 | 297060
15 | 66:00.61 | 7:34.52 | 297061 | 331162


Track 1

Filename U:\Torrents To Upload\\ATB (Albums)\1999 - Movin' Melodies\01. The First Tones.wav

Pre-gap length 0:00:02.00

Peak level 86.5 %
Extraction speed 2.2 X
Track quality 100.0 %
Test CRC 784B4494
Copy CRC 784B4494
Accurately ripped (confidence 9) [182DB215] (AR v2)
Copy OK

Track 2

Filename U:\Torrents To Upload\ATB (Albums)\1999 - Movin' Melodies\02. Emotion.wav

Peak level 100.0 %
Extraction speed 2.4 X
Track quality 99.9 %
Test CRC AF1B9D4F
Copy CRC AF1B9D4F
Accurately ripped (confidence 9) [0E75D4C6] (AR v2)
Copy OK

Track 3

Filename U:\Torrents To Upload\ATB (Albums)\1999 - Movin' Melodies\03. Underwater World.wav

Peak level 97.2 %
Extraction speed 3.0 X
Track quality 100.0 %
Test CRC CA22AA2B
Copy CRC CA22AA2B
Accurately ripped (confidence 9) [2B62037D] (AR v2)
Copy OK

Track 4

Filename U:\Torrents To Upload\ATB (Albums)\1999 - Movin' Melodies\04. Zwischenstück.wav

Peak level 95.0 %
Extraction speed 2.1 X
Track quality 100.0 %
Test CRC 7D967A90
Copy CRC 7D967A90
Accurately ripped (confidence 9) [549CC560] (AR v2)
Copy OK

Track 5

Filename U:\Torrents To Upload\ATB (Albums)\1999 - Movin' Melodies\05. 9 PM (Till I Come).wav

Peak level 98.8 %
Extraction speed 2.6 X
Track quality 99.9 %
Test CRC E7EFC6B0
Copy CRC E7EFC6B0
Accurately ripped (confidence 9) [82EA8DEB] (AR v2)
Copy OK

Track 6

Filename U:\Torrents To Upload\ATB (Albums)\1999 - Movin' Melodies\06. Killer 2000.wav

Peak level 100.0 %
Extraction speed 3.2 X
Track quality 99.9 %
Test CRC B20CC2E2
Copy CRC B20CC2E2
Accurately ripped (confidence 9) [76C876AF] (AR v2)
Copy OK

Track 7

Filename U:\Torrents To Upload\ATB (Albums)\1999 - Movin' Melodies\07. Too Much Rain By United Deejays For Central America (ATB VS. Woody Van Eyden Mix).wav

Peak level 100.0 %
Extraction speed 3.8 X
Track quality 100.0 %
Test CRC 71C0C552
Copy CRC 71C0C552
Accurately ripped (confidence 9) [C5942BAC] (AR v2)
Copy OK

Track 8

Filename U:\Torrents To Upload\ATB (Albums)\1999 - Movin' Melodies\08. Don't Stop.wav

Peak level 100.0 %
Extraction speed 3.8 X
Track quality 100.0 %
Test CRC FB1D5F44
Copy CRC FB1D5F44
Accurately ripped (confidence 9) [A65B3D9E] (AR v2)
Copy OK

Track 9

Filename U:\Torrents To Upload\ATB (Albums)\1999 - Movin' Melodies\09. Obsession.wav

Peak level 100.0 %
Extraction speed 4.3 X
Track quality 100.0 %
Test CRC 43FC7ACB
Copy CRC 43FC7ACB
Accurately ripped (confidence 9) [04BE52D0] (AR v2)
Copy OK

Track 10

Filename U:\Torrents To Upload\ATB (Albums)\1999 - Movin' Melodies\10. My Dream.wav

Peak level 100.0 %
Extraction speed 4.6 X
Track quality 100.0 %
Test CRC 69EEDB61
Copy CRC 69EEDB61
Accurately ripped (confidence 9) [5674D989] (AR v2)
Copy OK

Track 11

Filename U:\Torrents To Upload\ATB (Albums)\1999 - Movin' Melodies\11. Kayama.wav

Peak level 100.0 %
Extraction speed 4.1 X
Track quality 99.9 %
Test CRC 8D683DA4
Copy CRC 8D683DA4
Accurately ripped (confidence 9) [C848C7D8] (AR v2)
Copy OK

Track 12

Filename U:\Torrents To Upload\ATB (Albums)\1999 - Movin' Melodies\12. Beach Vibes By EFF.wav

Peak level 100.0 %
Extraction speed 5.1 X
Track quality 100.0 %
Test CRC 0FA05F42
Copy CRC 0FA05F42
Accurately ripped (confidence 9) [523B8FD3] (AR v2)
Copy OK

Track 13

Filename U:\Torrents To Upload\ATB (Albums)\1999 - Movin' Melodies\13. Movin' Melodies.wav

Peak level 100.0 %
Extraction speed 5.2 X
Track quality 100.0 %
Test CRC E5AAA6A2
Copy CRC E5AAA6A2
Accurately ripped (confidence 9) [AD4C24DA] (AR v2)
Copy OK

Track 14

Filename U:\Torrents To Upload\ATB (Albums)\1999 - Movin' Melodies\14. Sunburn.wav

Peak level 97.8 %
Extraction speed 5.1 X
Track quality 100.0 %
Test CRC 06B843D3
Copy CRC 06B843D3
Accurately ripped (confidence 9) [6F2716C5] (AR v2)
Copy OK

Track 15

Filename U:\Torrents To Upload\ATB (Albums)\1999 - Movin' Melodies\15. 9 PM (Till I Come) (Signum Mix).wav

Peak level 100.0 %
Extraction speed 5.7 X
Track quality 100.0 %
Test CRC 031081E1
Copy CRC 031081E1
Accurately ripped (confidence 8) [DF1BB1AA] (AR v2)
Copy OK


All tracks accurately ripped

No errors occurred

End of status report

==== Log checksum 4E2EA7B4219D2028BBD5F11F452F1088BC758070AB8A2760A272421B2AE01E40 ====

* * * * *

ATB: CD and DVD Collection (1999 - 2014) [13CD + 2DVD]

CD02-03: ATB - Two Worlds (2000)
EAC | Flac(Image) + Cue + Log & MP3 CBR 320Kbps
2CD | 0117192CLU | ~ 618 or 228 Mb | Scans(png) -> 240 Mb
Trance, Techno, Uplifting, Breakbeat, Ambient

Artists like Paul van Dyk, Chicane, and BT (when he's not harboring aspirations of rock stardom) piece together driving 4/4 beats, soaring vocals, and swirling sounds to create moods perfect for a crowded dancefloor or a solitary daydream. One might also consider adding German-born DJ/producer/artist Andre Tanneberger, better known as ATB, to this elite list. ATB's second release, the double album Two Worlds, is a musical journey striving to match van Dyk's Out There and Back, Chicane's Behind the Sun, and BT's ESCM. The trip is divided into two legs, "The World of Movement" (CD1) and "The Relaxing World" (CD2), neither of which wholly impresses or disappoints. On the first leg, ATB builds from the aching beauty of "Love Will Find You" and "Feel You Like a River," both featuring vocals from Heather Nova, to the all-out dancefloor assault of "Bring It Back" and "Klangwelt." "The Summer" and "The Fields of Love," his best work here, meld these two extremes, fashioning moody yet danceable vibes from simple keyboard phrases and his signature guitar-string bends. The second leg is a mellower and less exciting affair that, when experienced after its counterpart, has a pleasantly calming effect. "First Love" and "Timeless" sparkle in comparison with the suspect ATB/Enigma collaboration "Enigmatic Encounters" and the ill-advised Caribbean love theme "Engrossing Moments." Disc two also includes chilled-out remixes of "The Summer" and "Feel You Like a River" (this time entitled "Feel You"). Despite variations, ATB has a habit of stretching ideas beyond their usefulness. As singles, songs with drawn-out themes give club DJs more options. As album tracks, they can test a listener's resolve. He also uses a fairly limited range of sounds, all of which appear often and wear a bit thin by album's end. Confining Two Worlds to one disc of its best moments would make for a stellar album. As it stands, ATB needs a discerning producer to help him pare down the excess.

by Norm Elrod, allmusic
Tracklist CD1 - The World Of Movement:

01. See U Again (6:35)
02. Love Will Find You (ATB and Heather Nova) (5:50)
03. The Summer (3:39)
04. Loose The Gravity (6:39)
05. Feel You Like A River (ATB and Heather Nova) (3:48)
06. The Fields Of Love (ATB feat. York) (3:44)
07. Let U Go (ATB with The Wild Strawberries) (3:54)
08. Bring It Back (4:52)
09. Hypnotic Beach (5:46)
10. Fall Asleep (5:05)
11. Klangwelt (7:17)

Converted to Image (CUETools 2.1.4)

Exact Audio Copy V1.0 beta 3 from 29. August 2011

EAC extraction logfile from 25. May 2015, 22:45

ATB / CD1 - The World of Movement

Used drive : SONY DVD RW AD-7260S Adapter: 0 ID: 0

Read mode : Secure
Utilize accurate stream : Yes
Defeat audio cache : Yes
Make use of C2 pointers : No

Read offset correction : 48
Overread into Lead-In and Lead-Out : No
Fill up missing offset samples with silence : Yes
Delete leading and trailing silent blocks : No
Null samples used in CRC calculations : Yes
Used interface : Installed external ASPI interface
Gap handling : Appended to previous track

Used output format : Internal WAV Routines
Sample format : 44.100 Hz; 16 Bit; Stereo


TOC of the extracted CD

Track | Start | Length | Start sector | End sector
––––––––––––––––––––––––––––-
1 | 0:00.00 | 6:35.72 | 0 | 29696
2 | 6:35.72 | 5:50.56 | 29697 | 56002
3 | 12:26.53 | 3:39.55 | 56003 | 72482
4 | 16:06.33 | 6:39.61 | 72483 | 102468
5 | 22:46.19 | 3:48.43 | 102469 | 119611
6 | 26:34.62 | 3:44.01 | 119612 | 136412
7 | 30:18.63 | 3:54.45 | 136413 | 154007
8 | 34:13.33 | 4:52.51 | 154008 | 175958
9 | 39:06.09 | 5:46.32 | 175959 | 201940
10 | 44:52.41 | 5:05.00 | 201941 | 224815
11 | 49:57.41 | 7:17.68 | 224816 | 257658


Track 1

Filename U:\Torrents To Upload\ATB (Albums)\2000 - Two Worlds (2CD)\CD1 - The World of Movement\01. See U Again.wav

Pre-gap length 0:00:02.00

Peak level 93.8 %
Extraction speed 2.5 X
Track quality 100.0 %
Test CRC B8FF78AF
Copy CRC B8FF78AF
Accurately ripped (confidence 9) [97977D0E] (AR v2)
Copy OK

Track 2

Filename U:\Torrents To Upload\ATB (Albums)\2000 - Two Worlds (2CD)\CD1 - The World of Movement\02. Love Will Find You (ATB and Heather Nova).wav

Peak level 93.8 %
Extraction speed 2.9 X
Track quality 100.0 %
Test CRC 16E70EC8
Copy CRC 16E70EC8
Accurately ripped (confidence 9) [58467162] (AR v2)
Copy OK

Track 3

Filename U:\Torrents To Upload\ATB (Albums)\2000 - Two Worlds (2CD)\CD1 - The World of Movement\03. The Summer.wav

Peak level 93.8 %
Extraction speed 2.6 X
Track quality 99.9 %
Test CRC 88FE4EB9
Copy CRC 88FE4EB9
Accurately ripped (confidence 9) [2967CB1F] (AR v2)
Copy OK

Track 4

Filename U:\Torrents To Upload\ATB (Albums)\2000 - Two Worlds (2CD)\CD1 - The World of Movement\04. Loose The Gravity.wav

Peak level 93.8 %
Extraction speed 3.5 X
Track quality 100.0 %
Test CRC 4EA5726E
Copy CRC 4EA5726E
Accurately ripped (confidence 9) [1C61D9FA] (AR v2)
Copy OK

Track 5

Filename U:\Torrents To Upload\ATB (Albums)\2000 - Two Worlds (2CD)\CD1 - The World of Movement\05. Feel You Like A River (ATB and Heather Nova).wav

Peak level 93.8 %
Extraction speed 3.5 X
Track quality 100.0 %
Test CRC 4C4271D0
Copy CRC 4C4271D0
Accurately ripped (confidence 9) [8A3FB365] (AR v2)
Copy OK

Track 6

Filename U:\Torrents To Upload\ATB (Albums)\2000 - Two Worlds (2CD)\CD1 - The World of Movement\06. The Fields Of Love (ATB feat. York).wav

Peak level 93.8 %
Extraction speed 3.7 X
Track quality 100.0 %
Test CRC DE18252B
Copy CRC DE18252B
Accurately ripped (confidence 9) [3DFFB02B] (AR v2)
Copy OK

Track 7

Filename U:\Torrents To Upload\ATB (Albums)\2000 - Two Worlds (2CD)\CD1 - The World of Movement\07. Let U Go (ATB with The Wild Strawberries).wav

Peak level 99.9 %
Extraction speed 3.8 X
Track quality 100.0 %
Test CRC 1F96D3CD
Copy CRC 1F96D3CD
Accurately ripped (confidence 8) [8AD28A82] (AR v2)
Copy OK

Track 8

Filename U:\Torrents To Upload\ATB (Albums)\2000 - Two Worlds (2CD)\CD1 - The World of Movement\08. Bring It Back.wav

Peak level 93.8 %
Extraction speed 4.1 X
Track quality 100.0 %
Test CRC EEAD0AF0
Copy CRC EEAD0AF0
Accurately ripped (confidence 9) [31782367] (AR v2)
Copy OK

Track 9

Filename U:\Torrents To Upload\ATB (Albums)\2000 - Two Worlds (2CD)\CD1 - The World of Movement\09. Hypnotic Beach.wav

Peak level 93.8 %
Extraction speed 4.4 X
Track quality 100.0 %
Test CRC F5D70DFB
Copy CRC F5D70DFB
Accurately ripped (confidence 9) [4AD3EFDA] (AR v2)
Copy OK

Track 10

Filename U:\Torrents To Upload\ATB (Albums)\2000 - Two Worlds (2CD)\CD1 - The World of Movement\10. Fall Asleep.wav

Peak level 93.1 %
Extraction speed 4.6 X
Track quality 100.0 %
Test CRC C34409C0
Copy CRC C34409C0
Accurately ripped (confidence 9) [6968A82B] (AR v2)
Copy OK

Track 11

Filename U:\Torrents To Upload\ATB (Albums)\2000 - Two Worlds (2CD)\CD1 - The World of Movement\11. Klangwelt.wav

Peak level 93.8 %
Extraction speed 4.6 X
Track quality 99.9 %
Test CRC 245BE5AA
Copy CRC 245BE5AA
Accurately ripped (confidence 9) [918766DB] (AR v2)
Copy OK


All tracks accurately ripped

No errors occurred

End of status report

==== Log checksum 5EC03D8E962990A97424C24E51ACA6AECAE7A1B6B8C62DBFEEC88373CE0F838F ====

Tracklist CD2 - The Relaxing World:

01. First Love (6:21)
02. Feel You (3:58)
03. The Summer (Ibiza Influence Version) (5:19)
04. Engrossing Moments (3:41)
05. Timeless (4:54)
06. Repulse (2:31)
07. Enigmatic Encounter (ATB And Enigma) (4:39)
08. Sensuality (3:53)
09. Endless Silence (4:05)

Converted to Image (CUETools 2.1.4)

Exact Audio Copy V1.0 beta 3 from 29. August 2011

EAC extraction logfile from 25. May 2015, 23:48

ATB / CD2 - The Relaxing World

Used drive : SONY DVD RW AD-7260S Adapter: 0 ID: 0

Read mode : Secure
Utilize accurate stream : Yes
Defeat audio cache : Yes
Make use of C2 pointers : No

Read offset correction : 48
Overread into Lead-In and Lead-Out : No
Fill up missing offset samples with silence : Yes
Delete leading and trailing silent blocks : No
Null samples used in CRC calculations : Yes
Used interface : Installed external ASPI interface
Gap handling : Appended to previous track

Used output format : Internal WAV Routines
Sample format : 44.100 Hz; 16 Bit; Stereo


TOC of the extracted CD

Track | Start | Length | Start sector | End sector
––––––––––––––––––––––––––––-
1 | 0:00.00 | 6:21.19 | 0 | 28593
2 | 6:21.19 | 3:58.26 | 28594 | 46469
3 | 10:19.45 | 5:19.37 | 46470 | 70431
4 | 15:39.07 | 3:41.01 | 70432 | 87007
5 | 19:20.08 | 4:54.36 | 87008 | 109093
6 | 24:14.44 | 2:31.20 | 109094 | 120438
7 | 26:45.64 | 4:39.18 | 120439 | 141381
8 | 31:25.07 | 3:53.14 | 141382 | 158870
9 | 35:18.21 | 4:05.53 | 158871 | 177298


Track 1

Filename U:\Torrents To Upload\ATB (Albums)\2000 - Two Worlds (2CD)\CD2 - The Relaxing World\01. First Love.wav

Pre-gap length 0:00:02.00

Peak level 93.8 %
Extraction speed 2.5 X
Track quality 100.0 %
Test CRC 594E2D73
Copy CRC 594E2D73
Accurately ripped (confidence 9) [C570704D] (AR v2)
Copy OK

Track 2

Filename U:\Torrents To Upload\ATB (Albums)\2000 - Two Worlds (2CD)\CD2 - The Relaxing World\02. Feel You.wav

Peak level 93.8 %
Extraction speed 2.4 X
Track quality 99.9 %
Test CRC C613D138
Copy CRC C613D138
Accurately ripped (confidence 9) [72FA53E4] (AR v2)
Copy OK

Track 3

Filename U:\Torrents To Upload\ATB (Albums)\2000 - Two Worlds (2CD)\CD2 - The Relaxing World\03. The Summer (Ibiza Influence Version).wav

Peak level 93.8 %
Extraction speed 3.1 X
Track quality 100.0 %
Test CRC BC0F8A56
Copy CRC BC0F8A56
Accurately ripped (confidence 9) [D9916A17] (AR v2)
Copy OK

Track 4

Filename U:\Torrents To Upload\ATB (Albums)\2000 - Two Worlds (2CD)\CD2 - The Relaxing World\04. Engrossing Moments.wav

Peak level 93.8 %
Extraction speed 3.1 X
Track quality 100.0 %
Test CRC 8615F5DE
Copy CRC 8615F5DE
Accurately ripped (confidence 9) [DA75983A] (AR v2)
Copy OK

Track 5

Filename U:\Torrents To Upload\ATB (Albums)\2000 - Two Worlds (2CD)\CD2 - The Relaxing World\05. Timeless.wav

Peak level 93.8 %
Extraction speed 3.2 X
Track quality 99.9 %
Test CRC BA99FD14
Copy CRC BA99FD14
Accurately ripped (confidence 9) [B4B235B4] (AR v2)
Copy OK

Track 6

Filename U:\Torrents To Upload\ATB (Albums)\2000 - Two Worlds (2CD)\CD2 - The Relaxing World\06. Repulse.wav

Peak level 99.9 %
Extraction speed 3.3 X
Track quality 100.0 %
Test CRC 9212F046
Copy CRC 9212F046
Accurately ripped (confidence 9) [7567A6B7] (AR v2)
Copy OK

Track 7

Filename U:\Torrents To Upload\ATB (Albums)\2000 - Two Worlds (2CD)\CD2 - The Relaxing World\07. Enigmatic Encounter (ATB And Enigma).wav

Peak level 93.8 %
Extraction speed 3.4 X
Track quality 99.9 %
Test CRC 6E045CD7
Copy CRC 6E045CD7
Accurately ripped (confidence 9) [046A1C5B] (AR v2)
Copy OK

Track 8

Filename U:\Torrents To Upload\ATB (Albums)\2000 - Two Worlds (2CD)\CD2 - The Relaxing World\08. Sensuality.wav

Peak level 93.8 %
Extraction speed 3.9 X
Track quality 100.0 %
Test CRC F0458CA1
Copy CRC F0458CA1
Accurately ripped (confidence 8) [1E892977] (AR v2)
Copy OK

Track 9

Filename U:\Torrents To Upload\ATB (Albums)\2000 - Two Worlds (2CD)\CD2 - The Relaxing World\09. Endless Silence.wav

Peak level 84.5 %
Extraction speed 3.6 X
Track quality 99.9 %
Test CRC 2987D159
Copy CRC 2987D159
Accurately ripped (confidence 9) [6F3DC22D] (AR v2)
Copy OK


All tracks accurately ripped

No errors occurred

End of status report

==== Log checksum 4DF08646211CA7531F3893177DDD7B2A38C2BAF8ABC4645549168C1C477F880E ====

* * * * *

ATB: CD and DVD Collection (1999 - 2014) [13CD + 2DVD]

CD04: ATB - Dedicated (2002) Japanese Edition
EAC | Flac(Image) + Cue + Log & MP3 CBR 320Kbps
VICP-61860 | ~ 524 or 169 Mb | Scans(png) -> 268 Mb
Trance, Techno, Uplifting, Breakbeat, Ambient

In grand pop fashion, ATB's first two albums featured a few hit singles and lots of forgettable filler, and though his third album, Dedicated, is an improvement, it's still driven by two or three great songs and lots of filler. The album's best moments feature vocalist Roberta Carter Harrison, a Canadian vocalist who perhaps unsurprisingly sounds quite a bit like Sarah McLachlan (another trance-pop star). In particular, "You're Not Alone" and "Hold You" stand out, both coming early in the album and propelled by gaudy synth melodies. Elsewhere, ATB stretches out a bit, trying to incorporate different styles of songwriting (some breaks, house, and ambient here and there) as he had attempted to do on Two Worlds. So even though most of the songs are still little more than dull filler, ATB does show a bit of promise here, certainly more than he did on his previous albums. Still, he's second-rate at best as a producer, able to effectively craft catchy trance-pop but little else. As with ATB's previous albums, it's best to appreciate Dedicated's singles as singles and not bother with the album itself.

by Jason Birchmeier, allmusic
Tracklist:

01. Dedicated (4:14)
02. Hold You (3:29)
03. Get High (3:57)
04. You're Not Alone (5:55)
05. Halcyon (3:59)
06. Let U Go (3:28)
07. I Can't Stand… (5:51)
08. Hero (4:22)
09. I See It (4:24)
10. Basic Love (7:25)
11. I Wanna Cry (4:21)
12. Remember (6:22)
13. Hold You (Svenson & Gielen Remix) (6:35)
14. Let U Go (Wippenberg Remix) (6:39)

Converted to Image (CUETools 2.1.4)

Exact Audio Copy V1.0 beta 3 from 29. August 2011

EAC extraction logfile from 3. June 2015, 15:41

ATB / Dedicated (Japan)

Used drive : SONY DVD RW AD-7260S Adapter: 9 ID: 0

Read mode : Secure
Utilize accurate stream : Yes
Defeat audio cache : Yes
Make use of C2 pointers : No

Read offset correction : 48
Overread into Lead-In and Lead-Out : No
Fill up missing offset samples with silence : Yes
Delete leading and trailing silent blocks : No
Null samples used in CRC calculations : Yes
Used interface : Installed external ASPI interface
Gap handling : Appended to previous track

Used output format : Internal WAV Routines
Sample format : 44.100 Hz; 16 Bit; Stereo


TOC of the extracted CD

Track | Start | Length | Start sector | End sector
––––––––––––––––––––––––––––-
1 | 0:00.00 | 4:15.68 | 0 | 19192
2 | 4:15.68 | 3:31.10 | 19193 | 35027
3 | 7:47.03 | 3:59.37 | 35028 | 52989
4 | 11:46.40 | 5:57.28 | 52990 | 79792
5 | 17:43.68 | 4:00.55 | 79793 | 97847
6 | 21:44.48 | 3:30.32 | 97848 | 113629
7 | 25:15.05 | 5:53.00 | 113630 | 140104
8 | 31:08.05 | 4:24.23 | 140105 | 159927
9 | 35:32.28 | 4:25.67 | 159928 | 179869
10 | 39:58.20 | 7:27.10 | 179870 | 213404
11 | 47:25.30 | 4:23.28 | 213405 | 233157
12 | 51:48.58 | 6:24.15 | 233158 | 261972
13 | 58:12.73 | 6:35.67 | 261973 | 291664
14 | 64:48.65 | 6:39.23 | 291665 | 321612


Track 1

Filename T:\Torrents To Upload\ATB (Albums)\2002 - Dedicated (Japan)\01. Dedicated.wav

Pre-gap length 0:00:02.00

Peak level 100.0 %
Extraction speed 2.5 X
Track quality 100.0 %
Test CRC A19AB780
Copy CRC A19AB780
Track not present in AccurateRip database
Copy OK

Track 2

Filename T:\Torrents To Upload\ATB (Albums)\2002 - Dedicated (Japan)\02. Hold You.wav

Pre-gap length 0:00:01.44

Peak level 100.0 %
Extraction speed 2.3 X
Track quality 99.9 %
Test CRC E72297E9
Copy CRC E72297E9
Track not present in AccurateRip database
Copy OK

Track 3

Filename T:\Torrents To Upload\ATB (Albums)\2002 - Dedicated (Japan)\03. Get High.wav

Pre-gap length 0:00:01.39

Peak level 100.0 %
Extraction speed 2.9 X
Track quality 100.0 %
Test CRC 5196B8D1
Copy CRC 5196B8D1
Track not present in AccurateRip database
Copy OK

Track 4

Filename T:\Torrents To Upload\ATB (Albums)\2002 - Dedicated (Japan)\04. You're Not Alone.wav

Pre-gap length 0:00:01.39

Peak level 100.0 %
Extraction speed 3.4 X
Track quality 100.0 %
Test CRC B29BDB60
Copy CRC B29BDB60
Track not present in AccurateRip database
Copy OK

Track 5

Filename T:\Torrents To Upload\ATB (Albums)\2002 - Dedicated (Japan)\05. Halcyon.wav

Pre-gap length 0:00:01.37

Peak level 100.0 %
Extraction speed 3.4 X
Track quality 100.0 %
Test CRC 750C6C94
Copy CRC 750C6C94
Track not present in AccurateRip database
Copy OK

Track 6

Filename T:\Torrents To Upload\ATB (Albums)\2002 - Dedicated (Japan)\06. Let U Go.wav

Pre-gap length 0:00:01.37

Peak level 100.0 %
Extraction speed 3.5 X
Track quality 100.0 %
Test CRC 586284AB
Copy CRC 586284AB
Track not present in AccurateRip database
Copy OK

Track 7

Filename T:\Torrents To Upload\ATB (Albums)\2002 - Dedicated (Japan)\07. I Can't Stand….wav

Pre-gap length 0:00:01.36

Peak level 100.0 %
Extraction speed 4.0 X
Track quality 100.0 %
Test CRC 0249A060
Copy CRC 0249A060
Track not present in AccurateRip database
Copy OK

Track 8

Filename T:\Torrents To Upload\ATB (Albums)\2002 - Dedicated (Japan)\08. Hero.wav

Pre-gap length 0:00:01.39

Peak level 100.0 %
Extraction speed 4.1 X
Track quality 100.0 %
Test CRC F1C9A607
Copy CRC F1C9A607
Track not present in AccurateRip database
Copy OK

Track 9

Filename T:\Torrents To Upload\ATB (Albums)\2002 - Dedicated (Japan)\09. I See It.wav

Pre-gap length 0:00:01.34

Peak level 100.0 %
Extraction speed 4.3 X
Track quality 100.0 %
Test CRC ABC31A25
Copy CRC ABC31A25
Track not present in AccurateRip database
Copy OK

Track 10

Filename T:\Torrents To Upload\ATB (Albums)\2002 - Dedicated (Japan)\10. Basic Love.wav

Pre-gap length 0:00:01.31

Peak level 100.0 %
Extraction speed 4.7 X
Track quality 100.0 %
Test CRC A30F2254
Copy CRC A30F2254
Track not present in AccurateRip database
Copy OK

Track 11

Filename T:\Torrents To Upload\ATB (Albums)\2002 - Dedicated (Japan)\11. I Wanna Cry.wav

Pre-gap length 0:00:01.34

Peak level 100.0 %
Extraction speed 4.7 X
Track quality 100.0 %
Test CRC 72CA036E
Copy CRC 72CA036E
Track not present in AccurateRip database
Copy OK

Track 12

Filename T:\Torrents To Upload\ATB (Albums)\2002 - Dedicated (Japan)\12. Remember.wav

Pre-gap length 0:00:01.42

Peak level 100.0 %
Extraction speed 5.1 X
Track quality 100.0 %
Test CRC 9DCEDD30
Copy CRC 9DCEDD30
Track not present in AccurateRip database
Copy OK

Track 13

Filename T:\Torrents To Upload\ATB (Albums)\2002 - Dedicated (Japan)\13. Hold You (Svenson & Gielen Remix).wav

Pre-gap length 0:00:01.37

Peak level 96.6 %
Extraction speed 5.3 X
Track quality 100.0 %
Test CRC E01E8810
Copy CRC E01E8810
Track not present in AccurateRip database
Copy OK

Track 14

Filename T:\Torrents To Upload\ATB (Albums)\2002 - Dedicated (Japan)\14. Let U Go (Wippenberg Remix).wav

Pre-gap length 0:00:01.36

Peak level 94.4 %
Extraction speed 5.6 X
Track quality 100.0 %
Test CRC EE239798
Copy CRC EE239798
Track not present in AccurateRip database
Copy OK


None of the tracks are present in the AccurateRip database

No errors occurred

End of status report

==== Log checksum 718F84C31C43AF848EB042FAFBC1FC8B1B1C5F46B7B00B91E3A6611F1183F33D ====

* * * * *

ATB: CD and DVD Collection (1999 - 2014) [13CD + 2DVD]

CD05: ATB - Addicted To Music (2003) Japanese Edition
EAC | Flac(Image) + Cue + Log & MP3 CBR 320Kbps
VICP-62347 | ~ 522 or 171 Mb | Scans(png) -> 285 Mb
Trance, Techno, Uplifting, Breakbeat, Ambient

Tracklist:

01. In Love With The DJ (6:45)
02. I Don't Wanna Stop (3:32)
03. Everything Is Wrong (5:02)
04. Long Way Home (5:15)
05. We Belong (4:24)
06. Gentle Melody (5:18)
07. I Will Not Forget (4:55)
08. Break My Heart (4:24)
09. Sunset Girl (6:50)
10. Do You Love Me (6:29)
11. Peace = Illusion (4:31)
12. Trilogy (3:35)
13. Cabana Moon + Ruby (feat. Wild Strawberries) [Hidden Track] (10:51)

Converted to Image (CUETools 2.1.4)

Exact Audio Copy V1.0 beta 3 from 29. August 2011

EAC extraction logfile from 3. June 2015, 16:19

ATB / Addicted To Music (Japan)

Used drive : SONY DVD RW AD-7260S Adapter: 9 ID: 0

Read mode : Secure
Utilize accurate stream : Yes
Defeat audio cache : Yes
Make use of C2 pointers : No

Read offset correction : 48
Overread into Lead-In and Lead-Out : No
Fill up missing offset samples with silence : Yes
Delete leading and trailing silent blocks : No
Null samples used in CRC calculations : Yes
Used interface : Installed external ASPI interface
Gap handling : Appended to previous track

Used output format : Internal WAV Routines
Sample format : 44.100 Hz; 16 Bit; Stereo


TOC of the extracted CD

Track | Start | Length | Start sector | End sector
––––––––––––––––––––––––––––-
1 | 0:00.00 | 6:47.45 | 0 | 30569
2 | 6:47.45 | 3:34.17 | 30570 | 46636
3 | 10:21.62 | 5:04.15 | 46637 | 69451
4 | 15:26.02 | 5:17.35 | 69452 | 93261
5 | 20:43.37 | 4:26.20 | 93262 | 113231
6 | 25:09.57 | 5:20.15 | 113232 | 137246
7 | 30:29.72 | 4:57.13 | 137247 | 159534
8 | 35:27.10 | 4:25.67 | 159535 | 179476
9 | 39:53.02 | 6:52.13 | 179477 | 210389
10 | 46:45.15 | 6:31.42 | 210390 | 239756
11 | 53:16.57 | 4:32.55 | 239757 | 260211
12 | 57:49.37 | 3:34.53 | 260212 | 276314
13 | 61:24.15 | 10:51.22 | 276315 | 325161


Track 1

Filename T:\Torrents To Upload\ATB (Albums)\2003 - Addicted To Music (Japan)\01. In Love With The DJ.wav

Pre-gap length 0:00:02.00

Peak level 99.9 %
Extraction speed 2.8 X
Track quality 100.0 %
Test CRC 0DFF97BC
Copy CRC 0DFF97BC
Track not present in AccurateRip database
Copy OK

Track 2

Filename T:\Torrents To Upload\ATB (Albums)\2003 - Addicted To Music (Japan)\02. I Don't Wanna Stop.wav

Pre-gap length 0:00:01.49

Peak level 99.9 %
Extraction speed 2.9 X
Track quality 100.0 %
Test CRC E801BCF4
Copy CRC E801BCF4
Track not present in AccurateRip database
Copy OK

Track 3

Filename T:\Torrents To Upload\ATB (Albums)\2003 - Addicted To Music (Japan)\03. Everything Is Wrong.wav

Pre-gap length 0:00:01.49

Peak level 99.9 %
Extraction speed 3.3 X
Track quality 100.0 %
Test CRC 303BA41E
Copy CRC 303BA41E
Track not present in AccurateRip database
Copy OK

Track 4

Filename T:\Torrents To Upload\ATB (Albums)\2003 - Addicted To Music (Japan)\04. Long Way Home.wav

Pre-gap length 0:00:01.49

Peak level 99.9 %
Extraction speed 3.6 X
Track quality 100.0 %
Test CRC 63902EAF
Copy CRC 63902EAF
Track not present in AccurateRip database
Copy OK

Track 5

Filename T:\Torrents To Upload\ATB (Albums)\2003 - Addicted To Music (Japan)\05. We Belong.wav

Pre-gap length 0:00:01.49

Peak level 99.9 %
Extraction speed 3.3 X
Track quality 99.9 %
Test CRC 226DC248
Copy CRC 226DC248
Track not present in AccurateRip database
Copy OK

Track 6

Filename T:\Torrents To Upload\ATB (Albums)\2003 - Addicted To Music (Japan)\06. Gentle Melody.wav

Pre-gap length 0:00:01.74

Peak level 99.9 %
Extraction speed 4.0 X
Track quality 100.0 %
Test CRC 10E9EA39
Copy CRC 10E9EA39
Track not present in AccurateRip database
Copy OK

Track 7

Filename T:\Torrents To Upload\ATB (Albums)\2003 - Addicted To Music (Japan)\07. I Will Not Forget.wav

Pre-gap length 0:00:01.49

Peak level 99.9 %
Extraction speed 4.2 X
Track quality 100.0 %
Test CRC 09CAA711
Copy CRC 09CAA711
Track not present in AccurateRip database
Copy OK

Track 8

Filename T:\Torrents To Upload\ATB (Albums)\2003 - Addicted To Music (Japan)\08. Break My Heart.wav

Pre-gap length 0:00:01.49

Peak level 99.9 %
Extraction speed 4.3 X
Track quality 100.0 %
Test CRC 50B6391F
Copy CRC 50B6391F
Track not present in AccurateRip database
Copy OK

Track 9

Filename T:\Torrents To Upload\ATB (Albums)\2003 - Addicted To Music (Japan)\09. Sunset Girl.wav

Pre-gap length 0:00:01.49

Peak level 99.9 %
Extraction speed 4.8 X
Track quality 100.0 %
Test CRC 0EAA9B2A
Copy CRC 0EAA9B2A
Track not present in AccurateRip database
Copy OK

Track 10

Filename T:\Torrents To Upload\ATB (Albums)\2003 - Addicted To Music (Japan)\10. Do You Love Me.wav

Pre-gap length 0:00:01.49

Peak level 99.9 %
Extraction speed 5.0 X
Track quality 100.0 %
Test CRC 33BE73BB
Copy CRC 33BE73BB
Track not present in AccurateRip database
Copy OK

Track 11

Filename T:\Torrents To Upload\ATB (Albums)\2003 - Addicted To Music (Japan)\11. Peace = Illusion.wav

Pre-gap length 0:00:01.49

Peak level 99.9 %
Extraction speed 5.0 X
Track quality 100.0 %
Test CRC AD32875E
Copy CRC AD32875E
Track not present in AccurateRip database
Copy OK

Track 12

Filename T:\Torrents To Upload\ATB (Albums)\2003 - Addicted To Music (Japan)\12. Trilogy.wav

Pre-gap length 0:00:01.49

Peak level 99.9 %
Extraction speed 4.9 X
Track quality 100.0 %
Test CRC 8B820833
Copy CRC 8B820833
Track not present in AccurateRip database
Copy OK

Track 13

Filename T:\Torrents To Upload\ATB (Albums)\2003 - Addicted To Music (Japan)\13. Cabana Moon + Ruby (feat. Wild Strawberries) [Hidden Track].wav

Pre-gap length 0:00:01.49

Peak level 99.9 %
Extraction speed 5.8 X
Track quality 100.0 %
Test CRC A0EFF90B
Copy CRC A0EFF90B
Track not present in AccurateRip database
Copy OK


None of the tracks are present in the AccurateRip database

No errors occurred

End of status report

==== Log checksum EC155DD466B0508CA17860DB3A321B04A3F30F6354EED709FED51B8D7F39B236 ====

* * * * *

ATB: CD and DVD Collection (1999 - 2014) [13CD + 2DVD]

CD06: ATB - No Silence (2004) Limited Edition
EAC | Flac(Image) + Cue + Log & MP3 CBR 320Kbps
0155032KON | ~ 472 or 160 Mb | Scans(png) -> 393 Mb
Trance, Techno, Uplifting, Breakbeat, Ambient

No Silence is the fifth studio album released by German DJ and producer, ATB. It was released in 2004 and includes hits such as "Marrakech", "Ecstasy" and "Here with Me" (all featuring vocals by Tiff Lacey). These three songs were released as singles, with promotional videos for the first two. The first two singles were released from the album No Silence, while "Here With Me" was released from The DJ 2 in the Mix, ATB's second DJ mix compilation. The song "Marrakech" was used in the Mindhunters film. There is also a special edition album version, which includes a bonus DVD with remixes and videos.[1][2][3] Unlike his other album releases, ATB used a cross fade effect on each song as a transition to the next song on the album with dream-like sequences and sounds of nature…

~ wiki
Tracklist:

01. Marrakech (4:22)
02. Ecstasy (4:21)
03. The Autumn Leaves (5:42)
04. Here With Me (5:12)
05. Black Nights (5:02)
06. Mysterious Skies (5:30)
07. Collides With Beauty (5:49)
08. Sun Goes Down (4:07)
09. After The Flame (6:02)
10. IntenCity (5:26)
11. Eternal Swells (5:14)
12. Wait For Your Heart (5:16)
13. Circular Symetry (5:38)

Converted to Image (CUETools 2.1.4)

Exact Audio Copy V1.0 beta 3 from 29. August 2011

EAC extraction logfile from 14. June 2015, 16:38

ATB / No Silence (Limited Edition)

Used drive : SONY DVD RW AD-7260S Adapter: 9 ID: 0

Read mode : Secure
Utilize accurate stream : Yes
Defeat audio cache : Yes
Make use of C2 pointers : No

Read offset correction : 48
Overread into Lead-In and Lead-Out : No
Fill up missing offset samples with silence : Yes
Delete leading and trailing silent blocks : No
Null samples used in CRC calculations : Yes
Used interface : Installed external ASPI interface
Gap handling : Appended to previous track

Used output format : Internal WAV Routines
Sample format : 44.100 Hz; 16 Bit; Stereo


TOC of the extracted CD

Track | Start | Length | Start sector | End sector
––––––––––––––––––––––––––––-
1 | 0:00.00 | 4:22.13 | 0 | 19662
2 | 4:22.13 | 4:21.07 | 19663 | 39244
3 | 8:43.20 | 5:42.41 | 39245 | 64935
4 | 14:25.61 | 5:12.31 | 64936 | 88366
5 | 19:38.17 | 5:02.30 | 88367 | 111046
6 | 24:40.47 | 5:30.39 | 111047 | 135835
7 | 30:11.11 | 5:49.00 | 135836 | 162010
8 | 36:00.11 | 4:07.23 | 162011 | 180558
9 | 40:07.34 | 6:02.53 | 180559 | 207761
10 | 46:10.12 | 5:26.16 | 207762 | 232227
11 | 51:36.28 | 5:14.52 | 232228 | 255829
12 | 56:51.05 | 5:16.01 | 255830 | 279530
13 | 62:07.06 | 5:38.12 | 279531 | 304892


Track 1

Filename V:\Torrents To Upload\ATB (Albums)\2004 - No Silence (Limited Edition)\01. Marrakech.wav

Pre-gap length 0:00:02.00

Peak level 96.6 %
Extraction speed 2.4 X
Track quality 100.0 %
Test CRC 28380326
Copy CRC 28380326
Accurately ripped (confidence 21) [ABEFDCD4] (AR v2)
Copy OK

Track 2

Filename V:\Torrents To Upload\ATB (Albums)\2004 - No Silence (Limited Edition)\02. Ecstasy.wav

Peak level 96.6 %
Extraction speed 2.7 X
Track quality 100.0 %
Test CRC 03ABB15C
Copy CRC 03ABB15C
Accurately ripped (confidence 22) [B5A8CA65] (AR v2)
Copy OK

Track 3

Filename V:\Torrents To Upload\ATB (Albums)\2004 - No Silence (Limited Edition)\03. The Autumn Leaves.wav

Peak level 96.6 %
Extraction speed 3.0 X
Track quality 100.0 %
Test CRC 59AAA287
Copy CRC 59AAA287
Accurately ripped (confidence 22) [7008D988] (AR v2)
Copy OK

Track 4

Filename V:\Torrents To Upload\ATB (Albums)\2004 - No Silence (Limited Edition)\04. Here With Me.wav

Peak level 96.6 %
Extraction speed 3.0 X
Track quality 99.9 %
Test CRC 85FE7D7B
Copy CRC 85FE7D7B
Accurately ripped (confidence 21) [79E6FDD5] (AR v2)
Copy OK

Track 5

Filename V:\Torrents To Upload\ATB (Albums)\2004 - No Silence (Limited Edition)\05. Black Nights.wav

Peak level 96.6 %
Extraction speed 3.5 X
Track quality 100.0 %
Test CRC 69321E9A
Copy CRC 69321E9A
Accurately ripped (confidence 22) [A30B6D11] (AR v2)
Copy OK

Track 6

Filename V:\Torrents To Upload\ATB (Albums)\2004 - No Silence (Limited Edition)\06. Mysterious Skies.wav

Peak level 96.6 %
Extraction speed 3.8 X
Track quality 100.0 %
Test CRC 459A7EBD
Copy CRC 459A7EBD
Accurately ripped (confidence 22) [1C77D15C] (AR v2)
Copy OK

Track 7

Filename V:\Torrents To Upload\ATB (Albums)\2004 - No Silence (Limited Edition)\07. Collides With Beauty.wav

Peak level 96.6 %
Extraction speed 4.0 X
Track quality 100.0 %
Test CRC FE8A418D
Copy CRC FE8A418D
Accurately ripped (confidence 21) [AB4ECBD9] (AR v2)
Copy OK

Track 8

Filename V:\Torrents To Upload\ATB (Albums)\2004 - No Silence (Limited Edition)\08. Sun Goes Down.wav

Peak level 96.6 %
Extraction speed 3.6 X
Track quality 99.9 %
Test CRC B3227578
Copy CRC B3227578
Accurately ripped (confidence 22) [5DA1917F] (AR v2)
Copy OK

Track 9

Filename V:\Torrents To Upload\ATB (Albums)\2004 - No Silence (Limited Edition)\09. After The Flame.wav

Peak level 96.6 %
Extraction speed 4.4 X
Track quality 100.0 %
Test CRC C60628D4
Copy CRC C60628D4
Accurately ripped (confidence 22) [1F8852D3] (AR v2)
Copy OK

Track 10

Filename V:\Torrents To Upload\ATB (Albums)\2004 - No Silence (Limited Edition)\10. IntenCity.wav

Peak level 96.6 %
Extraction speed 4.6 X
Track quality 100.0 %
Test CRC C83D3583
Copy CRC C83D3583
Accurately ripped (confidence 21) [E3571D43] (AR v2)
Copy OK

Track 11

Filename V:\Torrents To Upload\ATB (Albums)\2004 - No Silence (Limited Edition)\11. Eternal Swells.wav

Peak level 96.6 %
Extraction speed 4.3 X
Track quality 99.9 %
Test CRC 6E491FA0
Copy CRC 6E491FA0
Accurately ripped (confidence 21) [0B60F18E] (AR v2)
Copy OK

Track 12

Filename V:\Torrents To Upload\ATB (Albums)\2004 - No Silence (Limited Edition)\12. Wait For Your Heart.wav

Peak level 96.6 %
Extraction speed 4.9 X
Track quality 100.0 %
Test CRC 7D85FBE9
Copy CRC 7D85FBE9
Accurately ripped (confidence 21) [7099DF8E] (AR v2)
Copy OK

Track 13

Filename V:\Torrents To Upload\ATB (Albums)\2004 - No Silence (Limited Edition)\13. Circular Symetry.wav

Peak level 96.6 %
Extraction speed 5.1 X
Track quality 100.0 %
Test CRC B61FAD49
Copy CRC B61FAD49
Accurately ripped (confidence 21) [9288B570] (AR v2)
Copy OK


All tracks accurately ripped

No errors occurred

End of status report

==== Log checksum C810E0BB06F0491CA593A31F5E66AC56D23AC899E9FD9FAE82935DD43D0AF4A1 ====

* * * * *

ATB: CD and DVD Collection (1999 - 2014) [13CD + 2DVD]

CD07-08: ATB - Trilogy (2007) Limited Edition
EAC | Flac(Image) + Cue + Log & MP3 CBR 320Kbps
2CD | 0180412KON | ~ 817 or 305 Mb | Scans(png) -> 368 Mb
Trance, Techno, Uplifting, Breakbeat, Ambient

Still best known for his 1999 number one smash "9 PM (Till I Come)," Andre Tanneburger, aka ATB, returns with Trilogy, his first release since 2005's Seven Years retrospective. Featuring contributions from Bermudian singer/songwriter Heather Nova, Jan Löchel, and Karen Ires, it's a two-disc album, with one half devoted to his trademark progressive trance and the other to Chicane-style chillout electronica. Released in 2007, ATB's sixth studio album features the singles "Renegade," "Feel Alive," and "Desperate Religion."

by Jon O'Brien, allmusic
Tracklist CD1:

01. Justify (3:47)
02. Desperate Religion (4:37)
03. Renegade (5:36)
04. Beautiful Worlds (5:07)
05. Stars Come Out (3:27)
06. Feel Alive Airplay (3:44)
07. Made Of Glass (4:18)
08. Alcarda (4:58)
09. These Days (5:34)
10. Better Give Up (5:08)
11. Something (5:26)
12. The Chosen Ones (4:13)

Converted to Image (CUETools 2.1.4)

Exact Audio Copy V1.0 beta 3 from 29. August 2011

EAC extraction logfile from 28. June 2015, 20:25

ATB / Trilogy (Limited Edition) (CD1)

Used drive : SONY DVD RW AD-7260S Adapter: 0 ID: 0

Read mode : Secure
Utilize accurate stream : Yes
Defeat audio cache : Yes
Make use of C2 pointers : No

Read offset correction : 48
Overread into Lead-In and Lead-Out : No
Fill up missing offset samples with silence : Yes
Delete leading and trailing silent blocks : No
Null samples used in CRC calculations : Yes
Used interface : Installed external ASPI interface
Gap handling : Appended to previous track

Used output format : Internal WAV Routines
Sample format : 44.100 Hz; 16 Bit; Stereo


TOC of the extracted CD

Track | Start | Length | Start sector | End sector
––––––––––––––––––––––––––––-
1 | 0:00.00 | 3:48.74 | 0 | 17173
2 | 3:48.74 | 4:39.10 | 17174 | 38108
3 | 8:28.09 | 5:38.05 | 38109 | 63463
4 | 14:06.14 | 5:09.39 | 63464 | 86677
5 | 19:15.53 | 3:29.32 | 86678 | 102384
6 | 22:45.10 | 3:46.23 | 102385 | 119357
7 | 26:31.33 | 4:20.25 | 119358 | 138882
8 | 30:51.58 | 5:00.30 | 138883 | 161412
9 | 35:52.13 | 5:36.33 | 161413 | 186645
10 | 41:28.46 | 5:10.48 | 186646 | 209943
11 | 46:39.19 | 5:28.14 | 209944 | 234557
12 | 52:07.33 | 4:13.59 | 234558 | 253591


Track 1

Filename V:\Torrents To Upload\ATB (Albums)\2007 - Trilogy (Limited Edition) (2CD)\CD1\01. Justify.wav

Pre-gap length 0:00:02.00

Peak level 100.0 %
Extraction speed 2.3 X
Track quality 100.0 %
Test CRC 33753E25
Copy CRC 33753E25
Accurately ripped (confidence 21) [E4F39DC7] (AR v2)
Copy OK

Track 2

Filename V:\Torrents To Upload\ATB (Albums)\2007 - Trilogy (Limited Edition) (2CD)\CD1\02. Desperate Religion.wav

Pre-gap length 0:00:01.38

Peak level 100.0 %
Extraction speed 2.6 X
Track quality 100.0 %
Test CRC 8D0B92D9
Copy CRC 8D0B92D9
Accurately ripped (confidence 20) [3C9C302C] (AR v2)
Copy OK

Track 3

Filename V:\Torrents To Upload\ATB (Albums)\2007 - Trilogy (Limited Edition) (2CD)\CD1\03. Renegade.wav

Pre-gap length 0:00:01.61

Peak level 100.0 %
Extraction speed 3.0 X
Track quality 100.0 %
Test CRC 27BD5AF0
Copy CRC 27BD5AF0
Accurately ripped (confidence 21) [0F117531] (AR v2)
Copy OK

Track 4

Filename V:\Torrents To Upload\ATB (Albums)\2007 - Trilogy (Limited Edition) (2CD)\CD1\04. Beautiful Worlds.wav

Pre-gap length 0:00:01.46

Peak level 100.0 %
Extraction speed 3.3 X
Track quality 100.0 %
Test CRC B9DDD1A4
Copy CRC B9DDD1A4
Accurately ripped (confidence 21) [E583B269] (AR v2)
Copy OK

Track 5

Filename V:\Torrents To Upload\ATB (Albums)\2007 - Trilogy (Limited Edition) (2CD)\CD1\05. Stars Come Out.wav

Pre-gap length 0:00:01.60

Peak level 99.9 %
Extraction speed 3.3 X
Track quality 100.0 %
Test CRC 9BB1ABE3
Copy CRC 9BB1ABE3
Accurately ripped (confidence 20) [20885582] (AR v2)
Copy OK

Track 6

Filename V:\Torrents To Upload\ATB (Albums)\2007 - Trilogy (Limited Edition) (2CD)\CD1\06. Feel Alive Airplay.wav

Pre-gap length 0:00:01.46

Peak level 100.0 %
Extraction speed 3.5 X
Track quality 100.0 %
Test CRC 33230104
Copy CRC 33230104
Accurately ripped (confidence 20) [49A4C6A3] (AR v2)
Copy OK

Track 7

Filename V:\Torrents To Upload\ATB (Albums)\2007 - Trilogy (Limited Edition) (2CD)\CD1\07. Made Of Glass.wav

Pre-gap length 0:00:01.42

Peak level 100.0 %
Extraction speed 3.8 X
Track quality 100.0 %
Test CRC 0E130109
Copy CRC 0E130109
Accurately ripped (confidence 20) [86F3010E] (AR v2)
Copy OK

Track 8

Filename V:\Torrents To Upload\ATB (Albums)\2007 - Trilogy (Limited Edition) (2CD)\CD1\08. Alcarda.wav

Pre-gap length 0:00:01.37

Peak level 100.0 %
Extraction speed 4.0 X
Track quality 100.0 %
Test CRC 92539659
Copy CRC 92539659
Accurately ripped (confidence 21) [06F7CDF9] (AR v2)
Copy OK

Track 9

Filename V:\Torrents To Upload\ATB (Albums)\2007 - Trilogy (Limited Edition) (2CD)\CD1\09. These Days.wav

Pre-gap length 0:00:01.54

Peak level 100.0 %
Extraction speed 4.3 X
Track quality 100.0 %
Test CRC 7A9C4A3E
Copy CRC 7A9C4A3E
Accurately ripped (confidence 19) [E74EF9C0] (AR v2)
Copy OK

Track 10

Filename V:\Torrents To Upload\ATB (Albums)\2007 - Trilogy (Limited Edition) (2CD)\CD1\10. Better Give Up.wav

Pre-gap length 0:00:01.39

Peak level 100.0 %
Extraction speed 4.5 X
Track quality 100.0 %
Test CRC AD5E9F98
Copy CRC AD5E9F98
Accurately ripped (confidence 21) [CB8D1CC6] (AR v2)
Copy OK

Track 11

Filename V:\Torrents To Upload\ATB (Albums)\2007 - Trilogy (Limited Edition) (2CD)\CD1\11. Something.wav

Pre-gap length 0:00:01.46

Peak level 100.0 %
Extraction speed 4.7 X
Track quality 100.0 %
Test CRC 9B5139B7
Copy CRC 9B5139B7
Accurately ripped (confidence 21) [23BE43E0] (AR v2)
Copy OK

Track 12

Filename V:\Torrents To Upload\ATB (Albums)\2007 - Trilogy (Limited Edition) (2CD)\CD1\12. The Chosen Ones.wav

Pre-gap length 0:00:01.59

Peak level 100.0 %
Extraction speed 4.7 X
Track quality 100.0 %
Test CRC F67C1053
Copy CRC F67C1053
Accurately ripped (confidence 20) [E87F8AE5] (AR v2)
Copy OK


All tracks accurately ripped

No errors occurred

End of status report

==== Log checksum 2E39F80E8B2A3B7DD5053353FEDCFFA3BB60F664C82CBCB370FC084181B7CD64 ====

Tracklist CD2:

01. Searching For Satellite (6:16)
02. Fahrenheit 451 (4:26)
03. Trilogy (5:07)
04. A Rainy Afternoon (3:45)
05. No Fate (7:07)
06. One Small Step (4:22)
07. Dooley's World (4:56)
08. 9 Am (5:20)
09. Tristan Da Cunha (4:16)
10. A Dream About You (4:46)
11. Illuminated Mind (6:22)
12. Shine On (7:39)
13. Under The Sky (4:20)
14. One Million Miles (4:04)

Converted to Image (CUETools 2.1.4)

Exact Audio Copy V1.0 beta 3 from 29. August 2011

EAC extraction logfile from 28. June 2015, 21:37

ATB / Trilogy (Limited Edition) (CD2)

Used drive : SONY DVD RW AD-7260S Adapter: 0 ID: 0

Read mode : Secure
Utilize accurate stream : Yes
Defeat audio cache : Yes
Make use of C2 pointers : No

Read offset correction : 48
Overread into Lead-In and Lead-Out : No
Fill up missing offset samples with silence : Yes
Delete leading and trailing silent blocks : No
Null samples used in CRC calculations : Yes
Used interface : Installed external ASPI interface
Gap handling : Appended to previous track

Used output format : Internal WAV Routines
Sample format : 44.100 Hz; 16 Bit; Stereo


TOC of the extracted CD

Track | Start | Length | Start sector | End sector
––––––––––––––––––––––––––––-
1 | 0:00.00 | 6:16.57 | 0 | 28256
2 | 6:16.57 | 4:26.62 | 28257 | 48268
3 | 10:43.44 | 5:07.72 | 48269 | 71365
4 | 15:51.41 | 3:46.00 | 71366 | 88315
5 | 19:37.41 | 7:07.65 | 88316 | 120405
6 | 26:45.31 | 4:22.72 | 120406 | 140127
7 | 31:08.28 | 4:56.47 | 140128 | 162374
8 | 36:05.00 | 5:20.13 | 162375 | 186387
9 | 41:25.13 | 4:16.14 | 186388 | 205601
10 | 45:41.27 | 4:46.12 | 205602 | 227063
11 | 50:27.39 | 6:22.60 | 227064 | 255773
12 | 56:50.24 | 7:39.33 | 255774 | 290231
13 | 64:29.57 | 4:20.31 | 290232 | 309762
14 | 68:50.13 | 4:04.68 | 309763 | 328130


Track 1

Filename V:\Torrents To Upload\ATB (Albums)\2007 - Trilogy (Limited Edition) (2CD)\CD2\01. Searching For Satellite.wav

Pre-gap length 0:00:02.00

Peak level 100.0 %
Extraction speed 2.6 X
Track quality 100.0 %
Test CRC 39A3C08B
Copy CRC 39A3C08B
Accurately ripped (confidence 16) [52288CA8] (AR v2)
Copy OK

Track 2

Filename V:\Torrents To Upload\ATB (Albums)\2007 - Trilogy (Limited Edition) (2CD)\CD2\02. Fahrenheit 451.wav

Peak level 99.8 %
Extraction speed 2.8 X
Track quality 100.0 %
Test CRC DAC8C70D
Copy CRC DAC8C70D
Accurately ripped (confidence 16) [07C0E14C] (AR v2)
Copy OK

Track 3

Filename V:\Torrents To Upload\ATB (Albums)\2007 - Trilogy (Limited Edition) (2CD)\CD2\03. Trilogy.wav

Peak level 100.0 %
Extraction speed 3.2 X
Track quality 100.0 %
Test CRC 082C938A
Copy CRC 082C938A
Accurately ripped (confidence 15) [47C8747D] (AR v2)
Copy OK

Track 4

Filename V:\Torrents To Upload\ATB (Albums)\2007 - Trilogy (Limited Edition) (2CD)\CD2\04. A Rainy Afternoon.wav

Peak level 100.0 %
Extraction speed 3.3 X
Track quality 100.0 %
Test CRC 73AE5CA0
Copy CRC 73AE5CA0
Accurately ripped (confidence 15) [602E4760] (AR v2)
Copy OK

Track 5

Filename V:\Torrents To Upload\ATB (Albums)\2007 - Trilogy (Limited Edition) (2CD)\CD2\05. No Fate.wav

Peak level 100.0 %
Extraction speed 3.8 X
Track quality 100.0 %
Test CRC 0102DD3A
Copy CRC 0102DD3A
Accurately ripped (confidence 16) [57A55BE1] (AR v2)
Copy OK

Track 6

Filename V:\Torrents To Upload\ATB (Albums)\2007 - Trilogy (Limited Edition) (2CD)\CD2\06. One Small Step.wav

Peak level 80.8 %
Extraction speed 3.5 X
Track quality 99.9 %
Test CRC 6E25DCEF
Copy CRC 6E25DCEF
Accurately ripped (confidence 15) [3DEC6E01] (AR v2)
Copy OK

Track 7

Filename V:\Torrents To Upload\ATB (Albums)\2007 - Trilogy (Limited Edition) (2CD)\CD2\07. Dooley's World.wav

Peak level 100.0 %
Extraction speed 4.1 X
Track quality 100.0 %
Test CRC FF6D2FDF
Copy CRC FF6D2FDF
Accurately ripped (confidence 16) [ADACF94F] (AR v2)
Copy OK

Track 8

Filename V:\Torrents To Upload\ATB (Albums)\2007 - Trilogy (Limited Edition) (2CD)\CD2\08. 9 Am.wav

Peak level 100.0 %
Extraction speed 4.4 X
Track quality 100.0 %
Test CRC 28774DB3
Copy CRC 28774DB3
Accurately ripped (confidence 16) [551F1128] (AR v2)
Copy OK

Track 9

Filename V:\Torrents To Upload\ATB (Albums)\2007 - Trilogy (Limited Edition) (2CD)\CD2\09. Tristan Da Cunha.wav

Peak level 100.0 %
Extraction speed 4.4 X
Track quality 100.0 %
Test CRC CA9B74B3
Copy CRC CA9B74B3
Accurately ripped (confidence 15) [EBDB7DCF] (AR v2)
Copy OK

Track 10

Filename V:\Torrents To Upload\ATB (Albums)\2007 - Trilogy (Limited Edition) (2CD)\CD2\10. A Dream About You.wav

Peak level 100.0 %
Extraction speed 4.2 X
Track quality 99.9 %
Test CRC 808E41C6
Copy CRC 808E41C6
Accurately ripped (confidence 15) [D7818BF4] (AR v2)
Copy OK

Track 11

Filename V:\Torrents To Upload\ATB (Albums)\2007 - Trilogy (Limited Edition) (2CD)\CD2\11. Illuminated Mind.wav

Peak level 100.0 %
Extraction speed 4.6 X
Track quality 99.9 %
Test CRC 6653B9AD
Copy CRC 6653B9AD
Accurately ripped (confidence 15) [67D1EE3D] (AR v2)
Copy OK

Track 12

Filename V:\Torrents To Upload\ATB (Albums)\2007 - Trilogy (Limited Edition) (2CD)\CD2\12. Shine On.wav

Peak level 100.0 %
Extraction speed 4.9 X
Track quality 99.9 %
Test CRC AD576A8B
Copy CRC AD576A8B
Accurately ripped (confidence 15) [4846D172] (AR v2)
Copy OK

Track 13

Filename V:\Torrents To Upload\ATB (Albums)\2007 - Trilogy (Limited Edition) (2CD)\CD2\13. Under The Sky.wav

Peak level 100.0 %
Extraction speed 5.2 X
Track quality 100.0 %
Test CRC A15A04D4
Copy CRC A15A04D4
Accurately ripped (confidence 15) [405A91CB] (AR v2)
Copy OK

Track 14

Filename V:\Torrents To Upload\ATB (Albums)\2007 - Trilogy (Limited Edition) (2CD)\CD2\14. One Million Miles.wav

Peak level 95.9 %
Extraction speed 5.3 X
Track quality 100.0 %
Test CRC 53B89A48
Copy CRC 53B89A48
Accurately ripped (confidence 15) [A2BA5631] (AR v2)
Copy OK


All tracks accurately ripped

No errors occurred

End of status report

==== Log checksum 550C126418BEED863627297F403402196E354E2BFD5549F1B2AF05EDCB3EE5EB ====

* * * * *

ATB: CD and DVD Collection (1999 - 2014) [13CD + 2DVD]

CD09-10: ATB - Future Memories (2009) Limited Edition
EAC | Flac(Image) + Cue + Log & MP3 CBR 320Kbps
2CD | 0196968KON | ~ 864 or 314 Mb | Scans(png) -> 702 Mb
Trance, Techno, Uplifting, Breakbeat, Ambient

The seventh studio album from influential dance producer ATB, Future Memories is perhaps his most experimental effort to date, adding a harder-edged drum'n'bass sound to his trademark progressive trance. Like his previous double LP Trilogy, its first disc is packed with uptempo floor-fillers, while the second disc focuses on more ambient downtempo tracks. This 2009 release features vocal contributions from Josh Gallahan, Haley Gibby, and Betsie Larkin, and includes a cover of Everything But the Girl's "Missing" alongside singles "What About Us," "L.A. Nights," and "Behind."

by Jon O'Brien, allmusic
Tracklist CD1:

01. L.A. Nights (4:33)
02. What About Us (5:37)
03. Swept Away (6:43)
04. A New Day (5:01)
05. My Everything (5:07)
06. Summervibes With 9PM (5:31)
07. Gravity (5:59)
08. Luminescence (ATB Presents Josh Gallahan) (4:32)
09. Behind (ATB Presents Flanders) (4:02)
10. Future Memories (5:59)
11. Still Here (5:36)
12. My Saving Grace (4:10)
13. Terra 260273 (5:50)
14. Communicate (ATB Presents Jades) (4:06)

Converted to Image (CUETools 2.1.4)

Exact Audio Copy V1.0 beta 3 from 29. August 2011

EAC extraction logfile from 9. June 2015, 10:23

ATB / Future Memories (CD1)

Used drive : SONY DVD RW AD-7260S Adapter: 9 ID: 0

Read mode : Secure
Utilize accurate stream : Yes
Defeat audio cache : Yes
Make use of C2 pointers : No

Read offset correction : 48
Overread into Lead-In and Lead-Out : No
Fill up missing offset samples with silence : Yes
Delete leading and trailing silent blocks : No
Null samples used in CRC calculations : Yes
Used interface : Installed external ASPI interface
Gap handling : Appended to previous track

Used output format : Internal WAV Routines
Sample format : 44.100 Hz; 16 Bit; Stereo


TOC of the extracted CD

Track | Start | Length | Start sector | End sector
––––––––––––––––––––––––––––-
1 | 0:00.00 | 4:33.00 | 0 | 20474
2 | 4:33.00 | 5:36.51 | 20475 | 45725
3 | 10:09.51 | 6:42.54 | 45726 | 75929
4 | 16:52.30 | 5:01.30 | 75930 | 98534
5 | 21:53.60 | 5:06.42 | 98535 | 121526
6 | 27:00.27 | 5:31.22 | 121527 | 146373
7 | 32:31.49 | 5:58.43 | 146374 | 173266
8 | 38:30.17 | 4:31.74 | 173267 | 193665
9 | 43:02.16 | 4:01.41 | 193666 | 211781
10 | 47:03.57 | 5:58.52 | 211782 | 238683
11 | 53:02.34 | 5:36.29 | 238684 | 263912
12 | 58:38.63 | 4:09.73 | 263913 | 282660
13 | 62:48.61 | 5:49.52 | 282661 | 308887
14 | 68:38.38 | 4:05.57 | 308888 | 327319


Track 1

Filename T:\Torrents To Upload\ATB (Albums)\2009 - Future Memories (2CD)\CD1\01. L.A. Nights.wav

Pre-gap length 0:00:02.00

Peak level 100.0 %
Extraction speed 2.5 X
Track quality 100.0 %
Test CRC D4434045
Copy CRC D4434045
Accurately ripped (confidence 11) [74683B99] (AR v2)
Copy OK

Track 2

Filename T:\Torrents To Upload\ATB (Albums)\2009 - Future Memories (2CD)\CD1\02. What About Us.wav

Peak level 100.0 %
Extraction speed 2.9 X
Track quality 100.0 %
Test CRC CF117660
Copy CRC CF117660
Accurately ripped (confidence 11) [D116D867] (AR v2)
Copy OK

Track 3

Filename T:\Torrents To Upload\ATB (Albums)\2009 - Future Memories (2CD)\CD1\03. Swept Away.wav

Pre-gap length 0:00:01.17

Peak level 100.0 %
Extraction speed 3.0 X
Track quality 99.9 %
Test CRC 8B990199
Copy CRC 8B990199
Accurately ripped (confidence 11) [D3EA0F6E] (AR v2)
Copy OK

Track 4

Filename T:\Torrents To Upload\ATB (Albums)\2009 - Future Memories (2CD)\CD1\04. A New Day.wav

Pre-gap length 0:00:01.74

Peak level 100.0 %
Extraction speed 3.5 X
Track quality 100.0 %
Test CRC 44E798B1
Copy CRC 44E798B1
Accurately ripped (confidence 11) [8FE4EB80] (AR v2)
Copy OK

Track 5

Filename T:\Torrents To Upload\ATB (Albums)\2009 - Future Memories (2CD)\CD1\05. My Everything.wav

Pre-gap length 0:00:01.38

Peak level 100.0 %
Extraction speed 3.7 X
Track quality 100.0 %
Test CRC C82F4CD9
Copy CRC C82F4CD9
Accurately ripped (confidence 11) [59932A27] (AR v2)
Copy OK

Track 6

Filename T:\Torrents To Upload\ATB (Albums)\2009 - Future Memories (2CD)\CD1\06. Summervibes With 9PM.wav

Pre-gap length 0:00:01.64

Peak level 100.0 %
Extraction speed 4.0 X
Track quality 100.0 %
Test CRC DD190F80
Copy CRC DD190F80
Accurately ripped (confidence 11) [686CEE69] (AR v2)
Copy OK

Track 7

Filename T:\Torrents To Upload\ATB (Albums)\2009 - Future Memories (2CD)\CD1\07. Gravity.wav

Pre-gap length 0:00:00.64

Peak level 100.0 %
Extraction speed 3.9 X
Track quality 99.9 %
Test CRC A5F15657
Copy CRC A5F15657
Accurately ripped (confidence 11) [579D5E39] (AR v2)
Copy OK

Track 8

Filename T:\Torrents To Upload\ATB (Albums)\2009 - Future Memories (2CD)\CD1\08. Luminescence (ATB Presents Josh Gallahan).wav

Pre-gap length 0:00:01.46

Peak level 100.0 %
Extraction speed 4.4 X
Track quality 100.0 %
Test CRC B98F6BFC
Copy CRC B98F6BFC
Accurately ripped (confidence 11) [DE72BDDB] (AR v2)
Copy OK

Track 9

Filename T:\Torrents To Upload\ATB (Albums)\2009 - Future Memories (2CD)\CD1\09. Behind (ATB Presents Flanders).wav

Pre-gap length 0:00:02.27

Peak level 100.0 %
Extraction speed 4.4 X
Track quality 100.0 %
Test CRC D13CE84F
Copy CRC D13CE84F
Accurately ripped (confidence 11) [D3D9A3F4] (AR v2)
Copy OK

Track 10

Filename T:\Torrents To Upload\ATB (Albums)\2009 - Future Memories (2CD)\CD1\10. Future Memories.wav

Pre-gap length 0:00:02.33

Peak level 100.0 %
Extraction speed 4.9 X
Track quality 100.0 %
Test CRC E87E33AB
Copy CRC E87E33AB
Accurately ripped (confidence 11) [5F81D0C6] (AR v2)
Copy OK

Track 11

Filename T:\Torrents To Upload\ATB (Albums)\2009 - Future Memories (2CD)\CD1\11. Still Here.wav

Pre-gap length 0:00:00.55

Peak level 100.0 %
Extraction speed 5.0 X
Track quality 100.0 %
Test CRC 2DC84F72
Copy CRC 2DC84F72
Accurately ripped (confidence 11) [8A844115] (AR v2)
Copy OK

Track 12

Filename T:\Torrents To Upload\ATB (Albums)\2009 - Future Memories (2CD)\CD1\12. My Saving Grace.wav

Peak level 100.0 %
Extraction speed 4.4 X
Track quality 99.9 %
Test CRC 20974F1A
Copy CRC 20974F1A
Accurately ripped (confidence 11) [4B2D3ECB] (AR v2)
Copy OK

Track 13

Filename T:\Torrents To Upload\ATB (Albums)\2009 - Future Memories (2CD)\CD1\13. Terra 260273.wav

Pre-gap length 0:00:01.29

Peak level 100.0 %
Extraction speed 5.4 X
Track quality 100.0 %
Test CRC DAD02975
Copy CRC DAD02975
Accurately ripped (confidence 11) [90836A6C] (AR v2)
Copy OK

Track 14

Filename T:\Torrents To Upload\ATB (Albums)\2009 - Future Memories (2CD)\CD1\14. Communicate (ATB Presents Jades).wav

Pre-gap length 0:00:01.73

Peak level 100.0 %
Extraction speed 5.3 X
Track quality 100.0 %
Test CRC D5A1D248
Copy CRC D5A1D248
Accurately ripped (confidence 11) [F61FD74B] (AR v2)
Copy OK


All tracks accurately ripped

No errors occurred

End of status report

==== Log checksum BD89F24FA8004860A35B91B56E0CE1435EF9433F03F7F81D3D950B4D6131B29C ====

Tracklist CD2:

01. Talismanic (5:40)
02. Missing (4:16)
03. Horizon (6:16)
04. Voices (4:36)
05. Behind (ATB's Ambient version) (ATB Presents Flanders) (3:02)
06. Authentic Reaction (ATB Presents Apple & Stone) (3:52)
07. Careless (6:57)
08. Twilight (5:49)
09. Listen to Me (4:06)
10. Living Life Over (5:33)
11. Silent Meaning (5:36)
12. Malibu Road (4:25)

Converted to Image (CUETools 2.1.4)

Exact Audio Copy V1.0 beta 3 from 29. August 2011

EAC extraction logfile from 9. June 2015, 10:59

ATB / Future Memories (CD2)

Used drive : SONY DVD RW AD-7260S Adapter: 9 ID: 0

Read mode : Secure
Utilize accurate stream : Yes
Defeat audio cache : Yes
Make use of C2 pointers : No

Read offset correction : 48
Overread into Lead-In and Lead-Out : No
Fill up missing offset samples with silence : Yes
Delete leading and trailing silent blocks : No
Null samples used in CRC calculations : Yes
Used interface : Installed external ASPI interface
Gap handling : Appended to previous track

Used output format : Internal WAV Routines
Sample format : 44.100 Hz; 16 Bit; Stereo


TOC of the extracted CD

Track | Start | Length | Start sector | End sector
––––––––––––––––––––––––––––-
1 | 0:00.00 | 5:39.56 | 0 | 25480
2 | 5:39.56 | 4:15.39 | 25481 | 44644
3 | 9:55.20 | 6:15.62 | 44645 | 72831
4 | 16:11.07 | 4:35.52 | 72832 | 93508
5 | 20:46.59 | 3:02.22 | 93509 | 107180
6 | 23:49.06 | 3:52.37 | 107181 | 124617
7 | 27:41.43 | 6:56.60 | 124618 | 155877
8 | 34:38.28 | 5:48.72 | 155878 | 182049
9 | 40:27.25 | 4:06.30 | 182050 | 200529
10 | 44:33.55 | 5:33.23 | 200530 | 225527
11 | 50:07.03 | 5:35.46 | 225528 | 250698
12 | 55:42.49 | 4:24.44 | 250699 | 270542


Track 1

Filename T:\Torrents To Upload\ATB (Albums)\2009 - Future Memories (2CD)\CD2\01. ATB - Talismanic.wav

Pre-gap length 0:00:02.00

Peak level 100.0 %
Extraction speed 2.5 X
Track quality 100.0 %
Test CRC 22F01350
Copy CRC 22F01350
Accurately ripped (confidence 7) [96E45FD1] (AR v2)
Copy OK

Track 2

Filename T:\Torrents To Upload\ATB (Albums)\2009 - Future Memories (2CD)\CD2\02. ATB - Missing.wav

Peak level 100.0 %
Extraction speed 2.7 X
Track quality 100.0 %
Test CRC 37C28CF3
Copy CRC 37C28CF3
Accurately ripped (confidence 7) [85340880] (AR v2)
Copy OK

Track 3

Filename T:\Torrents To Upload\ATB (Albums)\2009 - Future Memories (2CD)\CD2\03. ATB - Horizon.wav

Peak level 100.0 %
Extraction speed 2.9 X
Track quality 99.9 %
Test CRC D32F461B
Copy CRC D32F461B
Accurately ripped (confidence 7) [13A175D6] (AR v2)
Copy OK

Track 4

Filename T:\Torrents To Upload\ATB (Albums)\2009 - Future Memories (2CD)\CD2\04. ATB - Voices.wav

Peak level 100.0 %
Extraction speed 3.3 X
Track quality 100.0 %
Test CRC DA820F2D
Copy CRC DA820F2D
Accurately ripped (confidence 7) [DC264983] (AR v2)
Copy OK

Track 5

Filename T:\Torrents To Upload\ATB (Albums)\2009 - Future Memories (2CD)\CD2\05. ATB presents Flanders - Behind (ATB’s Ambient version).wav

Peak level 100.0 %
Extraction speed 3.3 X
Track quality 100.0 %
Test CRC 904B11B4
Copy CRC 904B11B4
Accurately ripped (confidence 7) [27252064] (AR v2)
Copy OK

Track 6

Filename T:\Torrents To Upload\ATB (Albums)\2009 - Future Memories (2CD)\CD2\06. ATB presents Apple & Stone - Authentic Reaction.wav

Peak level 100.0 %
Extraction speed 3.6 X
Track quality 100.0 %
Test CRC 3DE5ACBB
Copy CRC 3DE5ACBB
Accurately ripped (confidence 7) [FFA530B2] (AR v2)
Copy OK

Track 7

Filename T:\Torrents To Upload\ATB (Albums)\2009 - Future Memories (2CD)\CD2\07. ATB - Careless.wav

Peak level 97.7 %
Extraction speed 4.1 X
Track quality 100.0 %
Test CRC 3E947C1E
Copy CRC 3E947C1E
Accurately ripped (confidence 7) [D48CC298] (AR v2)
Copy OK

Track 8

Filename T:\Torrents To Upload\ATB (Albums)\2009 - Future Memories (2CD)\CD2\08. ATB - Twilight.wav

Peak level 100.0 %
Extraction speed 4.3 X
Track quality 100.0 %
Test CRC 2591660A
Copy CRC 2591660A
Accurately ripped (confidence 7) [B1467FD6] (AR v2)
Copy OK

Track 9

Filename T:\Torrents To Upload\ATB (Albums)\2009 - Future Memories (2CD)\CD2\09. ATB - Listen to Me.wav

Peak level 100.0 %
Extraction speed 4.3 X
Track quality 100.0 %
Test CRC C4E7E8CB
Copy CRC C4E7E8CB
Accurately ripped (confidence 7) [6147F468] (AR v2)
Copy OK

Track 10

Filename T:\Torrents To Upload\ATB (Albums)\2009 - Future Memories (2CD)\CD2\10. ATB - Living Life Over.wav

Peak level 98.9 %
Extraction speed 4.2 X
Track quality 99.9 %
Test CRC 0E269578
Copy CRC 0E269578
Accurately ripped (confidence 7) [7B26DAFA] (AR v2)
Copy OK

Track 11

Filename T:\Torrents To Upload\ATB (Albums)\2009 - Future Memories (2CD)\CD2\11. ATB - Silent Meaning.wav

Peak level 100.0 %
Extraction speed 4.4 X
Track quality 99.9 %
Test CRC F940FC81
Copy CRC F940FC81
Accurately ripped (confidence 7) [318F88F8] (AR v2)
Copy OK

Track 12

Filename T:\Torrents To Upload\ATB (Albums)\2009 - Future Memories (2CD)\CD2\12. ATB - Malibu Road.wav

Peak level 100.0 %
Extraction speed 4.4 X
Track quality 99.9 %
Test CRC C86009F1
Copy CRC C86009F1
Accurately ripped (confidence 7) [0346739C] (AR v2)
Copy OK


All tracks accurately ripped

No errors occurred

End of status report

==== Log checksum 0EF7BFC7489918575C5E7E87A56960026A7ADF3DF178F4F179D2D4311E1C6B9C ====

* * * * *

ATB: CD and DVD Collection (1999 - 2014) [13CD + 2DVD]

CD11-12: ATB - Distant Earth Remixed (2011)
EAC | Flac(Image) + Cue + Log & MP3 CBR 320Kbps
2CD | 1061429KON | ~ 1059 or 351 Mb | Scans(png) -> 92 Mb
Trance, Techno, Uplifting, Breakbeat, Ambient

Tracklist CD1:

01. Heartbeat (with Amurai feat. Melissa Loretta) (ATB's Deep From The Heart Remix) (8:48)
02. Killing Me Inside (feat. Sean Ryan) (Josh Gallahan Remix) (8:06)
03. Move On (feat. JanSoon) (Jashari Remix) (6:47)
04. One More (feat. Cristina Soto) (Inpetto Dub Remix) (6:23)
05. If It's Love (feat. Melissa Loretta) (Jeziel Quintela, Jquintel & Manufactured Superstars Remix) (8:06)
06. Twisted Love (feat. Cristina Soto) (Otto Knows Remix) (6:35)
07. All I Need Is You (feat. Sean Ryan) (Fade Remix) (6:48)
08. Apollo Road (with Dash Berlin) (Patric La Funk Remix) (6:23)
09. Heartbeat (with Amurai feat. Melissa Loretta) (Laserkraft 3D Remix Vocal Edit) (7:00)
10. White Letters (feat. Melissa Loretta) (DBN Remix) (7:34)

Converted to Image (CUETools 2.1.4)

Exact Audio Copy V1.0 beta 3 from 29. August 2011

EAC extraction logfile from 28. June 2015, 22:39

ATB / Distant Earth Remixed (CD1)

Used drive : SONY DVD RW AD-7260S Adapter: 9 ID: 0

Read mode : Secure
Utilize accurate stream : Yes
Defeat audio cache : Yes
Make use of C2 pointers : No

Read offset correction : 48
Overread into Lead-In and Lead-Out : No
Fill up missing offset samples with silence : Yes
Delete leading and trailing silent blocks : No
Null samples used in CRC calculations : Yes
Used interface : Installed external ASPI interface
Gap handling : Appended to previous track

Used output format : Internal WAV Routines
Sample format : 44.100 Hz; 16 Bit; Stereo


TOC of the extracted CD

Track | Start | Length | Start sector | End sector
––––––––––––––––––––––––––––-
1 | 0:00.00 | 8:49.23 | 0 | 39697
2 | 8:49.23 | 8:05.10 | 39698 | 76082
3 | 16:54.33 | 6:50.12 | 76083 | 106844
4 | 23:44.45 | 6:22.46 | 106845 | 135540
5 | 30:07.16 | 8:05.37 | 135541 | 171952
6 | 38:12.53 | 6:37.38 | 171953 | 201765
7 | 44:50.16 | 6:47.53 | 201766 | 232343
8 | 51:37.69 | 6:25.28 | 232344 | 261246
9 | 58:03.22 | 6:59.07 | 261247 | 292678
10 | 65:02.29 | 7:32.52 | 292679 | 326630


Track 1

Filename V:\Torrents To Upload\ATB (Albums)\2011 - Distant Earth Remixed (2CD)\CD1\01. ATB with Amurai feat. Melissa Loretta - Heartbeat (ATB's Deep From The Heart Remix).wav

Pre-gap length 0:00:02.00

Peak level 74.9 %
Extraction speed 2.8 X
Track quality 100.0 %
Test CRC 86EDB8B6
Copy CRC 86EDB8B6
Accurately ripped (confidence 7) [EBBAAC39] (AR v2)
Copy OK

Track 2

Filename V:\Torrents To Upload\ATB (Albums)\2011 - Distant Earth Remixed (2CD)\CD1\02. ATB feat. Sean Ryan - Killing Me Inside (Josh Gallahan Remix).wav

Pre-gap length 0:00:01.13

Peak level 84.5 %
Extraction speed 3.3 X
Track quality 100.0 %
Test CRC D05F656E
Copy CRC D05F656E
Accurately ripped (confidence 6) [39836E62] (AR v2)
Copy OK

Track 3

Filename V:\Torrents To Upload\ATB (Albums)\2011 - Distant Earth Remixed (2CD)\CD1\03. ATB feat. JanSoon - Move On (Jashari Remix).wav

Peak level 99.6 %
Extraction speed 3.6 X
Track quality 100.0 %
Test CRC B6E851C3
Copy CRC B6E851C3
Accurately ripped (confidence 6) [6B06D920] (AR v2)
Copy OK

Track 4

Filename V:\Torrents To Upload\ATB (Albums)\2011 - Distant Earth Remixed (2CD)\CD1\04. ATB feat. Cristina Soto - One More (Inpetto Dub Remix).wav

Pre-gap length 0:00:02.42

Peak level 99.4 %
Extraction speed 3.9 X
Track quality 100.0 %
Test CRC 26B74506
Copy CRC 26B74506
Accurately ripped (confidence 6) [0650D124] (AR v2)
Copy OK

Track 5

Filename V:\Torrents To Upload\ATB (Albums)\2011 - Distant Earth Remixed (2CD)\CD1\05. ATB feat. Melissa Loretta - If It's Love (Jeziel Quintela, Jquintel & Manufactured Superstars Remix).wav

Pre-gap length 0:00:01.21

Peak level 95.4 %
Extraction speed 4.3 X
Track quality 100.0 %
Test CRC 53BC2CEB
Copy CRC 53BC2CEB
Accurately ripped (confidence 6) [0B01537E] (AR v2)
Copy OK

Track 6

Filename V:\Torrents To Upload\ATB (Albums)\2011 - Distant Earth Remixed (2CD)\CD1\06. ATB feat. Cristina Soto - Twisted Love (Otto Knows Remix).wav

Peak level 94.3 %
Extraction speed 4.6 X
Track quality 100.0 %
Test CRC 5DEB70B0
Copy CRC 5DEB70B0
Accurately ripped (confidence 7) [AE5BD2A6] (AR v2)
Copy OK

Track 7

Filename V:\Torrents To Upload\ATB (Albums)\2011 - Distant Earth Remixed (2CD)\CD1\07. ATB feat. Sean Ryan - All I Need Is You (Fade Remix).wav

Pre-gap length 0:00:01.49

Peak level 85.0 %
Extraction speed 4.4 X
Track quality 99.9 %
Test CRC 60DEB5F3
Copy CRC 60DEB5F3
Accurately ripped (confidence 6) [767C80C8] (AR v2)
Copy OK

Track 8

Filename V:\Torrents To Upload\ATB (Albums)\2011 - Distant Earth Remixed (2CD)\CD1\08. ATB with Dash Berlin - Apollo Road (Patric La Funk Remix).wav

Pre-gap length 0:00:00.67

Peak level 99.9 %
Extraction speed 5.0 X
Track quality 100.0 %
Test CRC 9B037BFE
Copy CRC 9B037BFE
Accurately ripped (confidence 6) [E6ADEB39] (AR v2)
Copy OK

Track 9

Filename V:\Torrents To Upload\ATB (Albums)\2011 - Distant Earth Remixed (2CD)\CD1\09. ATB with Amurai feat. Melissa Loretta - Heartbeat (Laserkraft 3D Remix Vocal Edit).wav

Pre-gap length 0:00:02.38

Peak level 99.9 %
Extraction speed 5.3 X
Track quality 100.0 %
Test CRC F3650B93
Copy CRC F3650B93
Accurately ripped (confidence 6) [25B2B574] (AR v2)
Copy OK

Track 10

Filename V:\Torrents To Upload\ATB (Albums)\2011 - Distant Earth Remixed (2CD)\CD1\10. ATB feat. Melissa Loretta - White Letters (DBN Remix).wav

Pre-gap length 0:00:01.43

Peak level 90.1 %
Extraction speed 5.6 X
Track quality 100.0 %
Test CRC 9C903CC4
Copy CRC 9C903CC4
Accurately ripped (confidence 6) [7134D302] (AR v2)
Copy OK


All tracks accurately ripped

No errors occurred

End of status report

==== Log checksum 34E28C324F173E8F0225081EAD391CE9804FB73453ABC6C93B127D6E34E6688E ====

Tracklist CD2:

01. Move On (feat. JanSoon) (ATB Club Version) (8:26)
02. Heartbeat (with Amurai feat. Melissa Loretta) (MYNC Remix) (6:04)
03. Move On (feat. JanSoon) (Lissat & Voltaxx Remix) (7:27)
04. Where You Are (feat. Kate Louise Smith) (Mike Foyle Remix) (8:29)
05. One More (feat. Cristina Soto) (Manuel De La Mare & Luca Monticelli Remix) (7:50)
06. Where You Are (feat. Kate Louise Smith) (Club Version) (5:55)
07. Heartbeat (with Amurai feat. Melissa Loretta) (Club Version) (7:21)
08. Chapter One (with Josh Gallahan) (Club Version) (8:41)
09. Apollo Road (with Dash Berlin) (Club Version) (8:16)
10. Twisted Love (feat. Cristina Soto) (Distant Earth Vocal Club Version) (7:47)

Converted to Image (CUETools 2.1.4)

Exact Audio Copy V1.0 beta 3 from 29. August 2011

EAC extraction logfile from 28. June 2015, 23:24

ATB / Distant Earth Remixed (CD2)

Used drive : SONY DVD RW AD-7260S Adapter: 9 ID: 0

Read mode : Secure
Utilize accurate stream : Yes
Defeat audio cache : Yes
Make use of C2 pointers : No

Read offset correction : 48
Overread into Lead-In and Lead-Out : No
Fill up missing offset samples with silence : Yes
Delete leading and trailing silent blocks : No
Null samples used in CRC calculations : Yes
Used interface : Installed external ASPI interface
Gap handling : Appended to previous track

Used output format : Internal WAV Routines
Sample format : 44.100 Hz; 16 Bit; Stereo


TOC of the extracted CD

Track | Start | Length | Start sector | End sector
––––––––––––––––––––––––––––-
1 | 0:00.00 | 8:26.43 | 0 | 37992
2 | 8:26.43 | 6:04.38 | 37993 | 65330
3 | 14:31.06 | 7:27.62 | 65331 | 98917
4 | 21:58.68 | 8:28.49 | 98918 | 137066
5 | 30:27.42 | 7:50.23 | 137067 | 172339
6 | 38:17.65 | 5:56.01 | 172340 | 199040
7 | 44:13.66 | 7:20.62 | 199041 | 232102
8 | 51:34.53 | 8:43.59 | 232103 | 271386
9 | 60:18.37 | 8:16.45 | 271387 | 308631
10 | 68:35.07 | 7:45.47 | 308632 | 343553


Track 1

Filename V:\Torrents To Upload\ATB (Albums)\2011 - Distant Earth Remixed (2CD)\CD2\01. ATB feat. JanSoon - Move On (ATB Club Version).wav

Pre-gap length 0:00:02.00

Peak level 99.9 %
Extraction speed 2.8 X
Track quality 100.0 %
Test CRC 9DEFC3EE
Copy CRC 9DEFC3EE
Accurately ripped (confidence 6) [0CDDF97E] (AR v2)
Copy OK

Track 2

Filename V:\Torrents To Upload\ATB (Albums)\2011 - Distant Earth Remixed (2CD)\CD2\02. ATB with Amurai feat. Melissa Loretta - Heartbeat (MYNC Remix).wav

Peak level 79.3 %
Extraction speed 2.9 X
Track quality 99.9 %
Test CRC 65CD42F4
Copy CRC 65CD42F4
Accurately ripped (confidence 6) [1DEB064B] (AR v2)
Copy OK

Track 3

Filename V:\Torrents To Upload\ATB (Albums)\2011 - Distant Earth Remixed (2CD)\CD2\03. ATB feat. JanSoon - Move On (Lissat & Voltaxx Remix).wav

Peak level 81.7 %
Extraction speed 3.4 X
Track quality 99.9 %
Test CRC 367EA53B
Copy CRC 367EA53B
Accurately ripped (confidence 6) [43C94CB0] (AR v2)
Copy OK

Track 4

Filename V:\Torrents To Upload\ATB (Albums)\2011 - Distant Earth Remixed (2CD)\CD2\04. ATB feat. Kate Louise Smith - Where You Are (Mike Foyle Remix).wav

Pre-gap length 0:00:00.49

Peak level 94.3 %
Extraction speed 4.0 X
Track quality 100.0 %
Test CRC 235DEE2B
Copy CRC 235DEE2B
Accurately ripped (confidence 6) [0CFDFCFF] (AR v2)
Copy OK

Track 5

Filename V:\Torrents To Upload\ATB (Albums)\2011 - Distant Earth Remixed (2CD)\CD2\05. ATB feat. Cristina Soto - One More (Manuel De La Mare & Luca Monticelli Remix).wav

Peak level 78.4 %
Extraction speed 4.3 X
Track quality 100.0 %
Test CRC A1B310B6
Copy CRC A1B310B6
Accurately ripped (confidence 6) [02BF83B5] (AR v2)
Copy OK

Track 6

Filename V:\Torrents To Upload\ATB (Albums)\2011 - Distant Earth Remixed (2CD)\CD2\06. ATB feat. Kate Louise Smith - Where You Are (Club Version).wav

Peak level 100.0 %
Extraction speed 4.6 X
Track quality 100.0 %
Test CRC 225C46B5
Copy CRC 225C46B5
Accurately ripped (confidence 6) [F7311BF7] (AR v2)
Copy OK

Track 7

Filename V:\Torrents To Upload\ATB (Albums)\2011 - Distant Earth Remixed (2CD)\CD2\07. ATB with Amurai feat. Melissa Loretta - Heartbeat (Club Version).wav

Pre-gap length 0:00:00.30

Peak level 99.9 %
Extraction speed 4.9 X
Track quality 100.0 %
Test CRC 9B7CF76C
Copy CRC 9B7CF76C
Accurately ripped (confidence 6) [99DE79BB] (AR v2)
Copy OK

Track 8

Filename V:\Torrents To Upload\ATB (Albums)\2011 - Distant Earth Remixed (2CD)\CD2\08. ATB with Josh Gallahan - Chapter One (Club Version).wav

Peak level 99.9 %
Extraction speed 5.2 X
Track quality 100.0 %
Test CRC CB31C0F3
Copy CRC CB31C0F3
Accurately ripped (confidence 6) [4D3C7939] (AR v2)
Copy OK

Track 9

Filename V:\Torrents To Upload\ATB (Albums)\2011 - Distant Earth Remixed (2CD)\CD2\09. ATB with Dash Berlin - Apollo Road (Club Version).wav

Pre-gap length 0:00:01.71

Peak level 99.9 %
Extraction speed 5.5 X
Track quality 100.0 %
Test CRC 545303BE
Copy CRC 545303BE
Accurately ripped (confidence 6) [F1A24B33] (AR v2)
Copy OK

Track 10

Filename V:\Torrents To Upload\ATB (Albums)\2011 - Distant Earth Remixed (2CD)\CD2\10. ATB feat. Cristina Soto - Twisted Love (Distant Earth Vocal Club Version).wav

Pre-gap length 0:00:01.62

Peak level 99.9 %
Extraction speed 5.7 X
Track quality 100.0 %
Test CRC 3941AB83
Copy CRC 3941AB83
Accurately ripped (confidence 6) [55DFB91A] (AR v2)
Copy OK


All tracks accurately ripped

No errors occurred

End of status report

==== Log checksum 937CCBB0C8078EAB85F1FA7C0D6D21DE7CF787EB23257663DF2B2F338AC11D08 ====

* * * * *

ATB: CD and DVD Collection (1999 - 2014) [13CD + 2DVD]

CD13: ATB - Contact (2014) Japanese Edition
EAC | Flac(Image) + Cue + Log & MP3 CBR 320Kbps
VICP-65243 | ~ 613 or 185 Mb | Scans(png) -> 301 Mb
Trance, Techno, Uplifting, Breakbeat, Ambient

Tracklist:

01. When It Ends It Starts Again (4:52)
02. Raging Bull (3:38)
03. Together (4:43)
04. Face To Face (3:42)
05. Beam Me Up (4:33)
06. Hard To Cure (6:06)
07. Now Or Never (4:37)
08. Straight To The Stars (4:22)
09. Walking Awake (5:10)
10. Everything Is Beautiful (5:02)
11. What Are You Waiting For (4:12)
12. Still Here (Atb's Anthem 2014 Version) (5:45)
13. Arms Wide Open (4:09)
14. Right Back To You (4:49)
15. Raging Bull (Junkx Remix) (5:39)
16. Face To Face (Rudee Remix) (6:52)

Converted to Image (CUETools 2.1.4)

Exact Audio Copy V1.0 beta 3 from 29. August 2011

EAC extraction logfile from 3. June 2015, 17:39

ATB / Contact (Japan)

Used drive : SONY DVD RW AD-7260S Adapter: 9 ID: 0

Read mode : Secure
Utilize accurate stream : Yes
Defeat audio cache : Yes
Make use of C2 pointers : No

Read offset correction : 48
Overread into Lead-In and Lead-Out : No
Fill up missing offset samples with silence : Yes
Delete leading and trailing silent blocks : No
Null samples used in CRC calculations : Yes
Used interface : Installed external ASPI interface
Gap handling : Appended to previous track

Used output format : Internal WAV Routines
Sample format : 44.100 Hz; 16 Bit; Stereo


TOC of the extracted CD

Track | Start | Length | Start sector | End sector
––––––––––––––––––––––––––––-
1 | 0:00.00 | 4:52.00 | 0 | 21899
2 | 4:52.00 | 3:38.65 | 21900 | 38314
3 | 8:30.65 | 4:43.25 | 38315 | 59564
4 | 13:14.15 | 3:42.10 | 59565 | 76224
5 | 16:56.25 | 4:33.00 | 76225 | 96699
6 | 21:29.25 | 6:06.55 | 96700 | 124204
7 | 27:36.05 | 4:37.10 | 124205 | 144989
8 | 32:13.15 | 4:22.70 | 144990 | 164709
9 | 36:36.10 | 5:10.30 | 164710 | 187989
10 | 41:46.40 | 5:02.15 | 187990 | 210654
11 | 46:48.55 | 4:12.35 | 210655 | 229589
12 | 51:01.15 | 5:45.15 | 229590 | 255479
13 | 56:46.30 | 4:09.20 | 255480 | 274174
14 | 60:55.50 | 4:49.40 | 274175 | 295889
15 | 65:45.15 | 5:39.00 | 295890 | 321314
16 | 71:24.15 | 6:52.50 | 321315 | 352264


Track 1

Filename T:\Torrents To Upload\ATB (Albums)\2014 - Contact\2014 - Contact (Japan)\01. When It Ends It Starts Again.wav

Pre-gap length 0:00:02.00

Peak level 99.9 %
Extraction speed 2.7 X
Track quality 100.0 %
Test CRC 4BD2E69D
Copy CRC 4BD2E69D
Track not present in AccurateRip database
Copy OK

Track 2

Filename T:\Torrents To Upload\ATB (Albums)\2014 - Contact\2014 - Contact (Japan)\02. Raging Bull.wav

Pre-gap length 0:00:00.25

Peak level 100.0 %
Extraction speed 2.8 X
Track quality 100.0 %
Test CRC 18E4E206
Copy CRC 18E4E206
Track not present in AccurateRip database
Copy OK

Track 3

Filename T:\Torrents To Upload\ATB (Albums)\2014 - Contact\2014 - Contact (Japan)\03. Together.wav

Pre-gap length 0:00:00.70

Peak level 99.1 %
Extraction speed 3.1 X
Track quality 100.0 %
Test CRC FF5D4207
Copy CRC FF5D4207
Track not present in AccurateRip database
Copy OK

Track 4

Filename T:\Torrents To Upload\ATB (Albums)\2014 - Contact\2014 - Contact (Japan)\04. Face To Face.wav

Pre-gap length 0:00:00.25

Peak level 100.0 %
Extraction speed 3.2 X
Track quality 100.0 %
Test CRC E3B35008
Copy CRC E3B35008
Track not present in AccurateRip database
Copy OK

Track 5

Filename T:\Torrents To Upload\ATB (Albums)\2014 - Contact\2014 - Contact (Japan)\05. Beam Me Up.wav

Pre-gap length 0:00:00.25

Peak level 99.8 %
Extraction speed 3.5 X
Track quality 100.0 %
Test CRC E06C89CD
Copy CRC E06C89CD
Track not present in AccurateRip database
Copy OK

Track 6

Filename T:\Torrents To Upload\ATB (Albums)\2014 - Contact\2014 - Contact (Japan)\06. Hard To Cure.wav

Pre-gap length 0:00:00.25

Peak level 100.0 %
Extraction speed 3.9 X
Track quality 100.0 %
Test CRC 3D4AE073
Copy CRC 3D4AE073
Track not present in AccurateRip database
Copy OK

Track 7

Filename T:\Torrents To Upload\ATB (Albums)\2014 - Contact\2014 - Contact (Japan)\07. Now Or Never.wav

Pre-gap length 0:00:00.25

Peak level 100.0 %
Extraction speed 4.0 X
Track quality 100.0 %
Test CRC 6E56FAFB
Copy CRC 6E56FAFB
Track not present in AccurateRip database
Copy OK

Track 8

Filename T:\Torrents To Upload\ATB (Albums)\2014 - Contact\2014 - Contact (Japan)\08. Straight To The Stars.wav

Pre-gap length 0:00:00.30

Peak level 99.1 %
Extraction speed 3.7 X
Track quality 99.9 %
Test CRC 3845EFD0
Copy CRC 3845EFD0
Track not present in AccurateRip database
Copy OK

Track 9

Filename T:\Torrents To Upload\ATB (Albums)\2014 - Contact\2014 - Contact (Japan)\09. Walking Awake.wav

Pre-gap length 0:00:00.70

Peak level 100.0 %
Extraction speed 4.0 X
Track quality 99.9 %
Test CRC EA67A979
Copy CRC EA67A979
Track not present in AccurateRip database
Copy OK

Track 10

Filename T:\Torrents To Upload\ATB (Albums)\2014 - Contact\2014 - Contact (Japan)\10. Everything Is Beautiful.wav

Pre-gap length 0:00:00.25

Peak level 98.0 %
Extraction speed 4.6 X
Track quality 100.0 %
Test CRC 073323DB
Copy CRC 073323DB
Track not present in AccurateRip database
Copy OK

Track 11

Filename T:\Torrents To Upload\ATB (Albums)\2014 - Contact\2014 - Contact (Japan)\11. What Are You Waiting For.wav

Pre-gap length 0:00:00.30

Peak level 100.0 %
Extraction speed 4.7 X
Track quality 100.0 %
Test CRC 000BF65D
Copy CRC 000BF65D
Track not present in AccurateRip database
Copy OK

Track 12

Filename T:\Torrents To Upload\ATB (Albums)\2014 - Contact\2014 - Contact (Japan)\12. Still Here (Atb's Anthem 2014 Version).wav

Pre-gap length 0:00:00.25

Peak level 99.7 %
Extraction speed 5.0 X
Track quality 100.0 %
Test CRC 7D69A5A0
Copy CRC 7D69A5A0
Track not present in AccurateRip database
Copy OK

Track 13

Filename T:\Torrents To Upload\ATB (Albums)\2014 - Contact\2014 - Contact (Japan)\13. Arms Wide Open.wav

Pre-gap length 0:00:00.60

Peak level 100.0 %
Extraction speed 4.9 X
Track quality 100.0 %
Test CRC 1475A110
Copy CRC 1475A110
Track not present in AccurateRip database
Copy OK

Track 14

Filename T:\Torrents To Upload\ATB (Albums)\2014 - Contact\2014 - Contact (Japan)\14. Right Back To You.wav

Pre-gap length 0:00:00.30

Peak level 100.0 %
Extraction speed 5.2 X
Track quality 100.0 %
Test CRC B24B4BB1
Copy CRC B24B4BB1
Track not present in AccurateRip database
Copy OK

Track 15

Filename T:\Torrents To Upload\ATB (Albums)\2014 - Contact\2014 - Contact (Japan)\15. Raging Bull (Junkx Remix).wav

Pre-gap length 0:00:00.70

Peak level 99.1 %
Extraction speed 5.0 X
Track quality 99.9 %
Test CRC 07E837A1
Copy CRC 07E837A1
Track not present in AccurateRip database
Copy OK

Track 16

Filename T:\Torrents To Upload\ATB (Albums)\2014 - Contact\2014 - Contact (Japan)\16. Face To Face (Rudee Remix).wav

Pre-gap length 0:00:00.30

Peak level 98.9 %
Extraction speed 5.3 X
Track quality 99.9 %
Test CRC 43B49409
Copy CRC 43B49409
Track not present in AccurateRip database
Copy OK


None of the tracks are present in the AccurateRip database

No errors occurred

End of status report

==== Log checksum C4CAB63108F354A87640C4B99DBDFB0C35C14840FB5728FADD79C31A8E05FEAB ====

* * * * *

ATB: CD and DVD Collection (1999 - 2014) [13CD + 2DVD]

DVD01: ATB - Addicted To Music (2003)
DVD9: PAL 4:3 (720x576) VBR / Dolby AC3, 6 ch -> 8.10 Gb
Trance, Techno, Uplifting, Breakbeat, Ambient

Tracklist:

1. 9 pm (Till I come)
2. Don’t stop
3. Killer
4. The summer
5. The fields of love
6. Let U go
7. Hold you
8. You’re not alone
9. I don’t wanna stop

Title: DVD01. 2003 - Addicted To Music
Size: 7.67 Gb ( 8 045 784,00 KBytes ) - DVD-9
Enabled regions: 1, 2, 3, 4, 5, 6, 8

VTS_01 :
Play Length: 00:32:31+{00:03:13}+{00:03:28}+{00:03:25}+00:00:00+00:00:00+00:00:00+00:00:00+00:00:00+00:00:00+00:00:00+00:00:00+00:00:00+00:00:00+00:00:00+00:00:00+00:00:00+00:00:00+00:00:00+00:00:00+00:00:00+00:00:00+00:00:00+00:00:00+00:00:00+00:00:00+00:00:00+00:00:00+00:00:00+00:00:00+00:00:00+00:00:00+00:00:00+00:00:00+00:00:00+00:00:00+00:00:00+00:00:00+00:00:00+00:00:00+00:00:00+00:00:00+00:00:00+00:00:00+00:00:00+00:00:00+00:00:00+00:00:00+00:00:00+00:00:00+00:00:00+00:00:00+00:00:00+00:00:00+00:00:00+00:00:00+00:00:00+00:00:00+00:00:00+00:00:00+00:00:00+00:00:00+00:00:00+00:00:00+00:00:00+00:00:00+00:00:00+00:00:00+00:00:00+00:00:00+00:00:00+00:00:00+00:00:00+00:00:00+00:00:00+00:00:00+00:00:00+00:00:00+00:00:00+00:00:00+00:00:00+00:00:00+00:00:00+00:00:00+00:00:00+00:00:00+00:00:00+00:00:00+00:00:00+00:00:00+00:00:00+00:00:00+00:00:00+00:00:00+00:00:00+00:00:00+00:00:00+00:00:00+00:00:00+00:00:00+00:00:00+00:00:00+00:00:00+00:00:00+00:00:00+00:00:00+00:00:00+00:00:00+00:00:00+00:00:00+00:00:00
Video: PAL 4:3 (720x576) VBR
Audio:
Deutsch (Dolby AC3, 6 ch)
Subtitles:
Deutsch

VTS_02 :
Play Length: 00:44:43+00:12:46+00:14:44+00:10:01+00:00:00+00:00:00+00:00:00+00:00:00+00:00:00+00:00:00+00:00:00+00:00:00+00:00:00+00:00:00+00:00:00+00:00:00+00:00:00+00:00:00+00:00:00+00:00:00+00:00:00+00:00:00+00:00:00+00:00:00+00:00:00+00:00:00+00:00:00+00:00:00+00:00:00+00:00:00+00:00:00+00:00:00+00:00:00+00:00:00+00:00:00+00:00:00+00:00:00+00:00:00+00:00:00+00:00:00+00:00:00+00:00:00+00:00:00+00:00:00+00:00:00+00:00:00+00:00:00+00:00:00+00:00:00+00:00:00+00:00:00+00:00:00+00:00:00+00:00:00+00:00:00+00:00:00+00:00:00+00:00:00+00:00:00+00:00:00+00:00:00+00:00:00+00:00:00+00:00:00+00:00:00+00:00:00+00:00:00+00:00:00+00:00:00+00:00:00+00:00:00+00:00:00+00:00:00+00:00:00+00:00:02+00:00:02+00:00:03+00:00:02+00:00:03+00:00:03+00:00:03+00:00:04+00:00:04+00:00:06+00:00:05+00:00:03+00:00:04+00:00:02+00:00:05+{00:00:05}+{00:00:05}+00:06:30+00:00:00+00:00:04+00:00:48+00:00:04+00:00:16+00:00:04+00:01:35+00:00:04+00:02:42+00:00:04+00:05:59
Video: PAL 4:3 (720x576) VBR
Audio:
Deutsch (Dolby AC3, 2 ch)
Subtitles:
Deutsch

VTS_03 :
Play Length: 00:44:43+00:12:46+00:14:44+00:10:01+00:00:00+00:00:00+00:00:00+00:00:00+00:00:00+00:00:00+00:00:00+00:00:00+00:00:00+00:00:00+00:00:00+00:00:00+00:00:00+00:00:00+00:00:00+00:00:00+00:00:00+00:00:00+00:00:00+00:00:00+00:00:00+00:00:00+00:00:00+00:00:00+00:00:00+00:00:00+00:00:00+00:00:00+00:00:00+00:00:00+00:00:00+00:00:00+00:00:00+00:00:00+00:00:00+00:00:00+00:00:00+00:00:00+00:00:00+00:00:00+00:00:00+00:00:00+00:00:00+00:00:00+00:00:00+00:00:00+00:00:00+00:00:00+00:00:00+00:00:00+00:00:00+00:00:00+00:00:00+00:00:00+00:00:00+00:00:00+00:00:00+00:00:00+00:00:00+00:00:00+00:00:00+00:00:00+00:00:00+00:00:00+00:00:00+00:00:00+00:00:00+00:00:00+00:00:00+00:00:00+00:00:00+00:00:00+00:00:00+00:00:02+00:00:02+00:00:03+00:00:02+00:00:03+00:00:03+00:00:03+00:00:04+00:00:04+00:00:06+00:00:05+00:00:03+00:00:04+00:00:02+00:00:05+{00:00:05}+{00:00:05}+00:06:30+00:00:00+00:00:04+00:00:48+00:00:04+00:00:16+00:00:04+00:01:35+00:00:04+00:02:42+00:00:04+00:05:59
Video: PAL 4:3 (720x576) VBR
Audio:
Deutsch (Dolby AC3, 2 ch)
Subtitles:
Deutsch


ATB: CD and DVD Collection (1999 - 2014) [13CD + 2DVD]

ATB: CD and DVD Collection (1999 - 2014) [13CD + 2DVD]

ATB: CD and DVD Collection (1999 - 2014) [13CD + 2DVD]

ATB: CD and DVD Collection (1999 - 2014) [13CD + 2DVD]

* * * * *

ATB: CD and DVD Collection (1999 - 2014) [13CD + 2DVD]

DVD02: ATB - Seven Years 1998-2005 (2005)
DVD5: PAL 4:3 (720x576) VBR / Dolby AC3, 6 ch -> 3.34 Gb
Trance, Techno, Uplifting, Breakbeat, Ambient

Tracklist:

01. 9 PM (Till I Come) (3:16)
02. Don’t Stop (3:44)
03. Killer (3:57)
04. The Summer (3:46)
05. The Fields Of Love (3:43)
06. Let U Go (3:27)
07. Hold You (3:28)
08. You’re Not Alone (3:30)
09. I Don’t Wanna Stop (3:34)
10. Long Way Home (4:00)
11. Marrakech (3:45)
12. Ecstasy (4:08)
13. Believe In Me (3:16)
14. Humanity (4:25)

Title: DVD02. 2005 - Seven Years (1998-2005)
Size: 3.16 Gb ( 3 316 138,00 KBytes ) - DVD-5
Enabled regions: 1, 2, 3, 4, 5, 6, 7, 8

VTS_01 :
Play Length: 00:32:31
Video: PAL 4:3 (720x576) VBR
Audio:
English, AC3, 3/2 (L,C,R,SL,SR)+LFE ch, 448 kbps, Delay 0 mSec


VTS_02 :
Play Length: 00:14:30
Video: PAL 4:3 (720x576) VBR
Audio:
English (Dolby AC3, 2 ch)

VTS_03 :
Play Length: 00:04:28+00:09:28+00:00:00+00:00:00+00:00:00+00:00:00+00:00:00+00:00:00+00:00:00+00:00:00+00:00:00+00:00:00+00:06:31+00:04:07
Video: PAL 4:3 (720x576) VBR
Audio:
English (Dolby AC3, 2 ch)
Subtitles:
English


ATB: CD and DVD Collection (1999 - 2014) [13CD + 2DVD]

ATB: CD and DVD Collection (1999 - 2014) [13CD + 2DVD]

ATB: CD and DVD Collection (1999 - 2014) [13CD + 2DVD]

ATB: CD and DVD Collection (1999 - 2014) [13CD + 2DVD]

* * *

All thanks go to the original releasers

Techno in my Blog

Download ATB: CD and DVD Collection (1999 - 2014):