Tags
Language
Tags

A Taste Of Honey - A Taste Of Honey (1978) & Twice As Sweet (1980) [2CD] [2000, Reissue]

Posted By: BlondStyle
A Taste Of Honey - A Taste Of Honey (1978) & Twice As Sweet (1980) [2CD] [2000, Reissue]

A Taste Of Honey - A Taste Of Honey (1978) & Twice As Sweet (1980) [2CD] [2000, Reissue]
R&B, Soul/Funk, Disco | EAC Rip | FLAC, Img+CUE+LOG+Scans (JPEG) | 01:20:42 | 601,93 Mb
Label: Capitol Records (USA) | Cat.# 72435-24643-2-6 | Released: 2000-02-01 (1978/1980)
A Taste Of Honey - A Taste Of Honey (1978) & Twice As Sweet (1980) [2CD] [2000, Reissue]

Disco Diva Duo Taste of Honey, known for their '70s dancefloor hit "Boogie Oogie Oogie," got the two-fer treatment for two of their LPs by Capitol for CD release in 2000.
A Taste Of Honey - A Taste Of Honey (1978) & Twice As Sweet (1980) [2CD] [2000, Reissue]

A Taste Of Honey - A Taste Of Honey (1978) & Twice As Sweet (1980) [2CD] [2000, Reissue]

A Taste Of Honey - A Taste Of Honey (1978) & Twice As Sweet (1980) [2CD] [2000, Reissue]




Release of these albums: "A Taste Of Honey" (1978) [LP Capitol Records, Cat.# ST-11754, USA] / "Twice As Sweet" (1980) [LP Capitol Records, Cat.# ST-12089, USA]
Release of this 2CD-Set: 2000, February, 1 [CDs Capitol Records, Inc. (USA), Cat.# 72435-24643-2-6 / UPC: 724352464326]
℗&© 2000 Capitol Records, Inc.
Manufactured by Capitol Records, Inc.
Printed in the U.S.A.


Credits:

"A Taste Of Honey" (1978)
Arranged By [Strings], Conductor [Strings] – Wade Marcus
Art Direction – Roy Kohara
Backing Vocals [Background Vocals] – Donald R. Johnson, Hazel P. Payne, Janice M. Johnson, Perry L. Kibble
Bass – Janice M. Johnson
Design – Ken Anderson
Drums – Donald R. Johnson
Executive-Producer – Larkin Arnold
Guitar – Hazel P. Payne
Keyboards, Producer [Production Assistant] – Perry L. Kibble
Lead Vocals – Hazel P. Payne, Janice M. Johnson
Mastered By – Ken Perry
Mixed By – Butch Lynch, Jim Nipar, Sergio Reyes
Photography By [Cover] – Dick Zimmerman
Photography By [Liner] – Levy, Rosenberg
Producer – Fonce Mizell & Larry Mizell
Recorded By – Gil Jones, Steve Maslow
Recorded By [Additional Recording] – Tom Oliver

"Twice As Sweet" (1980)
Art Direction – Roy Kohara
Backing Vocals – Carl Carwell, Gregory Walker, Steve George
Bass – Byron Miller, David DeLeon, Ronald LaPread
Design – Roland Young
Drums – Ricky Lawson
Drums, Vocals – Donald R. Johnson
Engineer – Tommy Vicari
Engineer [Assistant] – Erik Zobler
Executive-Producer – Bobby Colomby, Dr. Cecil Hale
Guitar – Roland Bautista
Keyboards – Greg Phillinganes
Liner Notes, Producer [Associate] – Christian John Wikane
Mastered By – Brian Gardner
Percussion – Munyungo Jackson, Paulinho Da Costa
Photography By – Charles W. Bush
Producer [Associate] – Roddie Gibb
Producer [Reissue] – Wayne A. Dickson
Producer, Keyboards – George Duke
Saxophone, Flute – Larry Williams
Trombone – Bill Reichenbach
Trumpet, Flugelhorn – Jerry Hey
Vocals, Bass – Janice M. Johnson
Vocals, Guitar – Hazel P. Payne


Tracklist:

CD1: "A Taste Of Honey" (1978)

01. Boogie Oogie Oogie (05:38)
(Janice Johnson / Perry Kibble)
02. This Love Of Ours (03:33)
(Hazel Payne / Janice Johnson)
03. Distant (04:20)
(Janice Johnson / Perry Kibble)
04. World Spin (04:01)
(Perry Kibble / Thurman Aldridge)
05. Disco Dancin' (03:30)
(Allan Barnes / John Malone)
06. You (03:23)
(Donald Johnson / Hazel Payne)
07. If We Loved (04:26)
(Perry Kibble / Thurman Aldridge)
08. Sky High (05:06)
(Hazel Payne / Janice Johnson)
09. You're In Good Hands (03:55)
(Fonce Mizell)
10. Boogie Oogie Oogie (12'' Remix) (Bonus Track) (07:32)
(Janice Johnson / Perry Kibble)

CD2: "Twice As Sweet" (1980)

01. Ain't Nothin' But A Party (04:55)
(Janice Johnson / George Duke)
02. Rescue Me (03:23)
(Janice Johnson / Byron Miller / Roland Bautista)
03. Superstar Superman (03:03)
(Hazel Payne)
04. I'm Talkin' 'Bout You (05:14)
(Janice Johnson / George Duke)
05. She's A Dancer (03:08)
(Casey Rankin / Janice Johnson / Toshiyuki Kimori / Hazel Payne)
06. Don't You Lead Me On (03:19)
(Janice Johnson / George Duke)
07. Good-Bye Baby (04:04)
(Janice Johnson / Steve George)
08. Say That You'll Stay (04:25)
(George Duke / Hazel Payne / Janice Johnson)
09. Sukiyaki (03:45)
(Ei Rokusuke / Hachidai Nakamura)

Exact Audio Copy V1.0 beta 6 from 9. April 2015

EAC extraction logfile from 27. December 2015, 3:21

A Taste of Honey / A Taste of Honey + Twice as Sweet [Disc 1]

Used drive : Memorex 52MAXX 3252AJ1 Adapter: 1 ID: 1

Read mode : Secure
Utilize accurate stream : Yes
Defeat audio cache : Yes
Make use of C2 pointers : No

Read offset correction : 6
Overread into Lead-In and Lead-Out : No
Fill up missing offset samples with silence : Yes
Delete leading and trailing silent blocks : No
Null samples used in CRC calculations : Yes
Used interface : Native Win32 interface for Win NT & 2000

Used output format : User Defined Encoder
Selected bitrate : 1024 kBit/s
Quality : High
Add ID3 tag : No
Command line compressor : C:\Program Files (x86)\Exact Audio Copy\Flac\flac.exe
Additional command line options : %ishigh%-V -p -l 12 -b 4096 -m -e -r 8%ishigh%%islow%-5%islow% –replay-gain -T "ARTIST=%artist%" -T "ALBUM=%albumtitle%" -T "TITLE=%title%" -T "DATE=%year%" -T "TRACKNUMBER=%tracknr%" -T "GENRE=%genre%" -T "ENSEMBLE=%albuminterpret%" -T "ALBUMARTIST=%albumartist%" -T "COMPOSER=%albumcomposer%" -T "DISCNUMBER=%cdnumber%" -T "TOTALDISCS=%totalcds%" -T "TOTALTRACKS=%numtracks%" -T "SOURCEMEDIA=CD" -T "COMMENT=%comment%" %hascover%-T "PICTURE=%coverfile%"%hascover% %source%


TOC of the extracted CD

Track | Start | Length | Start sector | End sector
––––––––––––––––––––––––––––-
1 | 0:00.00 | 5:38.10 | 0 | 25359
2 | 5:38.10 | 3:33.27 | 25360 | 41361
3 | 9:11.37 | 4:19.65 | 41362 | 60851
4 | 13:31.27 | 4:00.58 | 60852 | 78909
5 | 17:32.10 | 3:30.10 | 78910 | 94669
6 | 21:02.20 | 3:23.37 | 94670 | 109931
7 | 24:25.57 | 4:25.58 | 109932 | 129864
8 | 28:51.40 | 5:06.25 | 129865 | 152839
9 | 33:57.65 | 3:55.10 | 152840 | 170474
10 | 37:53.00 | 7:32.22 | 170475 | 204396


Range status and errors

Selected range

Filename C:\Users\M@ce\Music\Archives\Rips\A Taste of Honey - A Taste of Honey + Twice as Sweet [Disc 1].wav

Peak level 98.7 %
Extraction speed 8.9 X
Range quality 100.0 %
Test CRC DDC9966D
Copy CRC DDC9966D
Copy OK

No errors occurred


AccurateRip summary

Track 1 accurately ripped (confidence 4) [49BE0061] (AR v2)
Track 2 accurately ripped (confidence 3) [03A1C4DE] (AR v2)
Track 3 accurately ripped (confidence 3) [AD3D3AB9] (AR v2)
Track 4 accurately ripped (confidence 3) [EC3E87E5] (AR v2)
Track 5 accurately ripped (confidence 3) [7631769B] (AR v2)
Track 6 accurately ripped (confidence 3) [8D18DD03] (AR v2)
Track 7 accurately ripped (confidence 3) [B1DFDD86] (AR v2)
Track 8 accurately ripped (confidence 3) [810D9271] (AR v2)
Track 9 accurately ripped (confidence 3) [730C7519] (AR v2)
Track 10 accurately ripped (confidence 3) [98293FBF] (AR v2)

All tracks accurately ripped

End of status report

–– CUETools DB Plugin V2.1.6

[CTDB TOCID: cX33WGIDmSyxDrr8k5dZ1KbjN_o-] found
Submit result: cX33WGIDmSyxDrr8k5dZ1KbjN_o- has been confirmed
Track | CTDB Status
1 | (2/2) Accurately ripped
2 | (2/2) Accurately ripped
3 | (2/2) Accurately ripped
4 | (2/2) Accurately ripped
5 | (2/2) Accurately ripped
6 | (2/2) Accurately ripped
7 | (2/2) Accurately ripped
8 | (2/2) Accurately ripped
9 | (2/2) Accurately ripped
10 | (2/2) Accurately ripped


==== Log checksum 8FA4B25E0CF6DCBF8BA7368BED073ADFACEC1D6B9804546A3F2627A4D79B8875 ====

Exact Audio Copy V1.0 beta 6 from 9. April 2015

EAC extraction logfile from 27. December 2015, 5:58

A Taste of Honey / A Taste of Honey + Twice as Sweet [Disc 2]

Used drive : Memorex 52MAXX 3252AJ1 Adapter: 1 ID: 1

Read mode : Secure
Utilize accurate stream : Yes
Defeat audio cache : Yes
Make use of C2 pointers : No

Read offset correction : 6
Overread into Lead-In and Lead-Out : No
Fill up missing offset samples with silence : Yes
Delete leading and trailing silent blocks : No
Null samples used in CRC calculations : Yes
Used interface : Native Win32 interface for Win NT & 2000

Used output format : User Defined Encoder
Selected bitrate : 1024 kBit/s
Quality : High
Add ID3 tag : No
Command line compressor : C:\Program Files (x86)\Exact Audio Copy\Flac\flac.exe
Additional command line options : %ishigh%-V -p -l 12 -b 4096 -m -e -r 8%ishigh%%islow%-5%islow% –replay-gain -T "ARTIST=%artist%" -T "ALBUM=%albumtitle%" -T "TITLE=%title%" -T "DATE=%year%" -T "TRACKNUMBER=%tracknr%" -T "GENRE=%genre%" -T "ENSEMBLE=%albuminterpret%" -T "ALBUMARTIST=%albumartist%" -T "COMPOSER=%albumcomposer%" -T "DISCNUMBER=%cdnumber%" -T "TOTALDISCS=%totalcds%" -T "TOTALTRACKS=%numtracks%" -T "SOURCEMEDIA=CD" -T "COMMENT=%comment%" %hascover%-T "PICTURE=%coverfile%"%hascover% %source%


TOC of the extracted CD

Track | Start | Length | Start sector | End sector
––––––––––––––––––––––––––––-
1 | 0:00.00 | 4:55.20 | 0 | 22144
2 | 4:55.20 | 3:23.00 | 22145 | 37369
3 | 8:18.20 | 3:03.12 | 37370 | 51106
4 | 11:21.32 | 5:13.38 | 51107 | 74619
5 | 16:34.70 | 3:08.37 | 74620 | 88756
6 | 19:43.32 | 3:18.43 | 88757 | 103649
7 | 23:02.00 | 4:04.00 | 103650 | 121949
8 | 27:06.00 | 4:25.15 | 121950 | 141839
9 | 31:31.15 | 3:45.05 | 141840 | 158719


Range status and errors

Selected range

Filename C:\Users\M@ce\Music\Archives\Rips\A Taste of Honey - A Taste of Honey + Twice as Sweet [Disc 2].wav

Peak level 98.8 %
Extraction speed 8.5 X
Range quality 100.0 %
Test CRC CF4F742E
Copy CRC CF4F742E
Copy OK

No errors occurred


AccurateRip summary

Track 1 accurately ripped (confidence 3) [F45F6726] (AR v2)
Track 2 accurately ripped (confidence 3) [36F6D9C7] (AR v2)
Track 3 accurately ripped (confidence 3) [576998B8] (AR v2)
Track 4 accurately ripped (confidence 3) [33B2A1D2] (AR v2)
Track 5 accurately ripped (confidence 3) [BCC2195A] (AR v2)
Track 6 accurately ripped (confidence 3) [54D10C00] (AR v2)
Track 7 accurately ripped (confidence 3) [CE9C1638] (AR v2)
Track 8 accurately ripped (confidence 3) [1A4FC5B2] (AR v2)
Track 9 accurately ripped (confidence 4) [96262E96] (AR v2)

All tracks accurately ripped

End of status report

–– CUETools DB Plugin V2.1.6

[CTDB TOCID: dCJU8gisHyLtVkuLab3RUQOwp_8-] found
Submit result: dCJU8gisHyLtVkuLab3RUQOwp_8- has been confirmed
Track | CTDB Status
1 | (2/2) Accurately ripped
2 | (2/2) Accurately ripped
3 | (2/2) Accurately ripped
4 | (2/2) Accurately ripped
5 | (2/2) Accurately ripped
6 | (2/2) Accurately ripped
7 | (2/2) Accurately ripped
8 | (2/2) Accurately ripped
9 | (2/2) Accurately ripped


==== Log checksum 28B08FAA582F2CB1E554482EC83975A8207F146EEEE6B1F07118ECAEB94F4DDB ====

––––––––––––––––––––––––––––––––––––––––
Analyzed: A Taste of Honey / A Taste of Honey + Twice as Sweet [Disc 1]
––––––––––––––––––––––––––––––––––––––––

DR Peak RMS Duration Track
––––––––––––––––––––––––––––––––––––––––
DR10 -0.19 dB -13.29 dB 5:38 01-Boogie Oogie Oogie
DR9 -0.20 dB -11.41 dB 3:33 02-This Love Of Ours
DR11 -1.43 dB -14.56 dB 4:20 03-Distant
DR9 -1.21 dB -13.40 dB 4:01 04-World Spin
DR11 -0.94 dB -12.86 dB 3:30 05-Disco Dancin'
DR10 -0.56 dB -12.44 dB 3:23 06-You
DR10 -0.11 dB -12.92 dB 4:26 07-If We Loved
DR10 -0.24 dB -13.53 dB 5:06 08-Sky High
DR10 -1.30 dB -14.19 dB 3:55 09-You're In Good Hands
DR9 -1.15 dB -12.32 dB 7:32 10-Boogie Oogie Oogie (12 Inch Remix)
––––––––––––––––––––––––––––––––––––––––

Number of tracks: 10
Official DR value: DR10

Samplerate: 44100 Hz
Channels: 2
Bits per sample: 16
Bitrate: 893 kbps
Codec: FLAC
================================================================================

––––––––––––––––––––––––––––––––––––––––
Analyzed: A Taste of Honey / A Taste of Honey + Twice as Sweet [Disc 2]
––––––––––––––––––––––––––––––––––––––––

DR Peak RMS Duration Track
––––––––––––––––––––––––––––––––––––––––
DR9 -0.28 dB -10.60 dB 4:55 01-Ain't Nothin' But A Party
DR9 -0.13 dB -11.78 dB 3:23 02-Rescue Me
DR9 -0.26 dB -11.10 dB 3:03 03-Superstar Superman
DR10 -0.10 dB -11.57 dB 5:14 04-I'm Talkin' 'Bout You
DR8 -1.00 dB -10.44 dB 3:08 05-She's A Dancer
DR9 -0.42 dB -11.61 dB 3:19 06-Don't You Lead Me On
DR9 -0.31 dB -11.83 dB 4:04 07-Goodbye Baby
DR9 -0.10 dB -11.52 dB 4:25 08-Say That You'll Stay
DR10 -0.71 dB -13.45 dB 3:45 09-Sukiyaki
––––––––––––––––––––––––––––––––––––––––

Number of tracks: 9
Official DR value: DR9

Samplerate: 44100 Hz
Channels: 2
Bits per sample: 16
Bitrate: 997 kbps
Codec: FLAC
================================================================================

Thanks to my friend, M@ce

See also:
A Taste Of Honey - A Taste Of Honey (1978) [2018, Japan]

♫~Welcome To My Blog~♫

password: BlondStyle