Tags
Language
Tags

A-ha - Singles Collection [13CD] (1988-1994)

Posted By: gribovar
A-ha - Singles Collection [13CD] (1988-1994)

A-ha - Singles Collection [13CD] (1988-1994)
EAC Rip | FLAC (tracks+.cue+log) - 1,34 GB | MP3 CBR 320 kbps (LAME 3.93) - 492 MB | Covers - 500 MB
Genre: Synth-pop, New Wave, Pop Rock | RAR 3% Rec. | Label: WEA, Warner Bros. Records

Pal Waaktaar and Magne Furuholmen, formerly of Bridges, formed Norwegian synth pop group a-ha in the early '80s. Nimble vocalist Morten Harket joined the duo, and they left for the now "legendary London flat" (so called because of its state of disrepair) to make it. By late 1983 they had achieved part of that goal by signing to WEA. Their debut single, "Take On Me," went through three versions before becoming a hit in the U.K., eventually reaching number two in November 1985. It went one better in the U.S., mainly due to the wide exposure of its stunning video on MTV, which fused animation with real-life action. They returned to the charts with "The Sun Always Shines on T.V." which became a U.K. number one in early 1986, helping take the album Hunting High and Low to the Top Ten. The song hit the Top 20 in the U.S., where the album reached number 15.

A-ha - Singles Collection [13CD] (1988-1994)

A-ha - Stay On These Roads (1988)
EAC Rip | FLAC (tracks+.cue+log) - 98 MB | MP3 CBR 320 kbps (LAME 3.93) - 38 MB | Covers - 27 MB
Genre: Synth-pop, New Wave | RAR 3% Rec. | Label: WEA (920 905-2, W7936CD)

Tracklist:
01. Stay On These Roads (7-Inch Version)
02. Soft Rains Of April (Original Mix)
03. Take On Me
04. Cry Wolf

Total time: 16:03

Exact Audio Copy V1.3 from 2. September 2016

EAC extraction logfile from 25. June 2018, 23:35

a‐ha / Stay on These Roads

Used drive : PIONEER DVD-RW DVR-221L Adapter: 1 ID: 1

Read mode : Secure
Utilize accurate stream : Yes
Defeat audio cache : Yes
Make use of C2 pointers : No

Read offset correction : 6
Overread into Lead-In and Lead-Out : No
Fill up missing offset samples with silence : Yes
Delete leading and trailing silent blocks : No
Null samples used in CRC calculations : Yes
Used interface : Native Win32 interface for Win NT & 2000
Gap handling : Appended to previous track

Used output format : User Defined Encoder
Selected bitrate : 1024 kBit/s
Quality : High
Add ID3 tag : No
Command line compressor : C:\Program Files (x86)\Exact Audio Copy\FLAC\FLAC.EXE
Additional command line options : -6 -V -T "COMMENT=Ripped by RRC" -T "ARTIST=%artist%" -T "TITLE=%title%" -T "ALBUM=%albumtitle%" -T "DATE=%year%" -T "TRACKNUMBER=%tracknr%" -T "GENRE=%genre%" -T "BAND=%albuminterpret%" -T "ALBUMARTIST=%albuminterpret%" -T "COMPOSER=%composer%" %haslyrics%–tag-from-file=LYRICS="%lyricsfile%"%haslyrics% -T "DISCNUMBER=%cdnumber%" -T "TOTALDISCS=%totalcds%" -T "TOTALTRACKS=%numtracks%" %hascover%–picture="%coverfile%"%hascover% %source%


TOC of the extracted CD

Track | Start | Length | Start sector | End sector
––––––––––––––––––––––––––––-
1 | 0:00.00 | 4:48.57 | 0 | 21656
2 | 4:48.57 | 3:18.45 | 21657 | 36551
3 | 8:07.27 | 3:50.45 | 36552 | 53846
4 | 11:57.72 | 4:05.40 | 53847 | 72261


Track 1

Filename E:\RRCLtd Rip\01-Stay On These Roads (7'' version).wav

Pre-gap length 0:00:02.00

Peak level 85.1 %
Extraction speed 4.8 X
Track quality 100.0 %
Test CRC 8C08441E
Copy CRC 8C08441E
Accurately ripped (confidence 15) [D70A9416] (AR v2)
Copy OK

Track 2

Filename E:\RRCLtd Rip\02-Soft Rains Of April (Original mix).wav

Pre-gap length 0:00:02.52

Peak level 99.9 %
Extraction speed 5.1 X
Track quality 100.0 %
Test CRC 6B869459
Copy CRC 6B869459
Accurately ripped (confidence 15) [92056BA9] (AR v2)
Copy OK

Track 3

Filename E:\RRCLtd Rip\03-Take On Me.wav

Pre-gap length 0:00:04.72

Peak level 82.7 %
Extraction speed 5.5 X
Track quality 100.0 %
Test CRC 4A22FF35
Copy CRC 4A22FF35
Accurately ripped (confidence 15) [3160B8B5] (AR v2)
Copy OK

Track 4

Filename E:\RRCLtd Rip\04-Cry Wolf.wav

Pre-gap length 0:00:04.00

Peak level 72.7 %
Extraction speed 6.0 X
Track quality 100.0 %
Test CRC 01A0A77A
Copy CRC 01A0A77A
Accurately ripped (confidence 15) [328552A7] (AR v2)
Copy OK


All tracks accurately ripped

No errors occurred

End of status report

–– CUETools DB Plugin V2.1.6

[CTDB TOCID: gQsvUAoH3twO6X4UPivqzD9GHMs-] found
Submit result: gQsvUAoH3twO6X4UPivqzD9GHMs- has been confirmed
Track | CTDB Status
1 | (20/21) Accurately ripped
2 | (20/21) Accurately ripped
3 | (20/21) Accurately ripped
4 | (20/21) Accurately ripped


==== Log checksum 25D456EE0414868235774488BEBC78C921208B6C1811F26AC2D1CA2D31AE18A7 ====

[CUETools log; Date: 07.10.2021 23:09:36; Version: 2.1.4]
[CTDB TOCID: gQsvUAoH3twO6X4UPivqzD9GHMs-] found.
Track | CTDB Status
1 | (37/38) Accurately ripped
2 | (37/38) Accurately ripped
3 | (37/38) Accurately ripped
4 | (37/38) Accurately ripped
[AccurateRip ID: 0002cffe-000b2245-3303c304] found.
Track [ CRC | V2 ] Status
01 [d6f3c0c7|d70a9416] (06+20/26) Accurately ripped
02 [b4796811|92056ba9] (06+21/27) Accurately ripped
03 [6bd754b1|3160b8b5] (06+20/26) Accurately ripped
04 [64563753|328552a7] (07+20/27) Accurately ripped

Track Peak [ CRC32 ] [W/O NULL] [ LOG ]
– 99,9 [2285398E] [776EA95E]
01 85,1 [8C08441E] [7DDC7335] CRC32
02 99,9 [6B869459] [F4FA1140] CRC32
03 82,7 [4A22FF35] [F25EC15C] CRC32
04 72,7 [01A0A77A] [45330031] CRC32

A-ha - Singles Collection [13CD] (1988-1994)

A-ha - The Blood That Moves The Body (1988)
EAC Rip | FLAC (tracks+.cue+log) - 109 MB | MP3 CBR 320 kbps (LAME 3.93) - 40 MB | Covers - 25 MB
Genre: Synth-pop, New Wave | RAR 3% Rec. | Label: WEA (920 981-2, W7840CD)

Tracklist:
01. The Blood That Moves The Body
02. There's Never A Forever Thing
03. The Blood That Moves The Body (Extended Version)
04. The Living Daylights

Total time: 16:36

Exact Audio Copy V1.3 from 2. September 2016

EAC extraction logfile from 26. June 2018, 0:07

a-ha / The Blood That Moves The Body

Used drive : PIONEER DVD-RW DVR-221L Adapter: 1 ID: 1

Read mode : Secure
Utilize accurate stream : Yes
Defeat audio cache : Yes
Make use of C2 pointers : No

Read offset correction : 6
Overread into Lead-In and Lead-Out : No
Fill up missing offset samples with silence : Yes
Delete leading and trailing silent blocks : No
Null samples used in CRC calculations : Yes
Used interface : Native Win32 interface for Win NT & 2000
Gap handling : Appended to previous track

Used output format : User Defined Encoder
Selected bitrate : 1024 kBit/s
Quality : High
Add ID3 tag : No
Command line compressor : C:\Program Files (x86)\Exact Audio Copy\FLAC\FLAC.EXE
Additional command line options : -6 -V -T "COMMENT=Ripped by RRC" -T "ARTIST=%artist%" -T "TITLE=%title%" -T "ALBUM=%albumtitle%" -T "DATE=%year%" -T "TRACKNUMBER=%tracknr%" -T "GENRE=%genre%" -T "BAND=%albuminterpret%" -T "ALBUMARTIST=%albuminterpret%" -T "COMPOSER=%composer%" %haslyrics%–tag-from-file=LYRICS="%lyricsfile%"%haslyrics% -T "DISCNUMBER=%cdnumber%" -T "TOTALDISCS=%totalcds%" -T "TOTALTRACKS=%numtracks%" %hascover%–picture="%coverfile%"%hascover% %source%


TOC of the extracted CD

Track | Start | Length | Start sector | End sector
––––––––––––––––––––––––––––-
1 | 0:00.00 | 4:07.47 | 0 | 18571
2 | 4:07.47 | 2:51.63 | 18572 | 31459
3 | 6:59.35 | 5:25.50 | 31460 | 55884
4 | 12:25.10 | 4:11.12 | 55885 | 74721


Track 1

Filename E:\RRCLtd Rip\01-The Blood That Moves The Body.wav

Pre-gap length 0:00:02.00

Peak level 83.0 %
Extraction speed 3.6 X
Track quality 99.9 %
Test CRC 01AB7536
Copy CRC 01AB7536
Accurately ripped (confidence 9) [C756B41C] (AR v2)
Copy OK

Track 2

Filename E:\RRCLtd Rip\02-There's Never A Forever Thing.wav

Pre-gap length 0:00:02.37

Peak level 98.5 %
Extraction speed 4.4 X
Track quality 100.0 %
Test CRC 65EC9280
Copy CRC 65EC9280
Accurately ripped (confidence 10) [C464EA61] (AR v2)
Copy OK

Track 3

Filename E:\RRCLtd Rip\03-The Blood That Moves The Body (Extended Version).wav

Pre-gap length 0:00:02.18

Peak level 98.1 %
Extraction speed 4.6 X
Track quality 99.9 %
Test CRC 5EC3E2F7
Copy CRC 5EC3E2F7
Accurately ripped (confidence 11) [6955CE9F] (AR v2)
Copy OK

Track 4

Filename E:\RRCLtd Rip\04-The Living Daylights.wav

Pre-gap length 0:00:02.23

Peak level 100.0 %
Extraction speed 5.6 X
Track quality 100.0 %
Test CRC 813D21F8
Copy CRC 813D21F8
Accurately ripped (confidence 11) [65822680] (AR v2)
Copy OK


All tracks accurately ripped

No errors occurred

End of status report

–– CUETools DB Plugin V2.1.6

[CTDB TOCID: Fm9JPMuM8l18L5I_D61MOy_7vDQ-] found
Submit result: Fm9JPMuM8l18L5I_D61MOy_7vDQ- has been confirmed
Track | CTDB Status
1 | (13/15) Accurately ripped
2 | (14/15) Accurately ripped
3 | (14/15) Accurately ripped
4 | (14/15) Accurately ripped


==== Log checksum DD673CF8A86DB1033BC5E23CDED813600675B0572BEB89015B14A45373933827 ====

[CUETools log; Date: 07.10.2021 23:09:56; Version: 2.1.4]
[CTDB TOCID: Fm9JPMuM8l18L5I_D61MOy_7vDQ-] found.
Track | CTDB Status
1 | (18/20) Accurately ripped
2 | (19/20) Accurately ripped
3 | (18/20) Accurately ripped
4 | (19/20) Accurately ripped
[AccurateRip ID: 0002c19f-000b1e63-2a03e404] found.
Track [ CRC | V2 ] Status
01 [46f836a2|c756b41c] (03+11/14) Accurately ripped
02 [d7b806ff|c464ea61] (03+12/15) Accurately ripped
03 [2585d5ef|6955ce9f] (03+12/15) Accurately ripped
04 [8edd6779|65822680] (03+13/16) Accurately ripped

Track Peak [ CRC32 ] [W/O NULL] [ LOG ]
– 100,0 [F0B6113E] [29B7BD68]
01 83,0 [01AB7536] [BD90F7C1] CRC32
02 98,5 [65EC9280] [34DA9195] CRC32
03 98,1 [5EC3E2F7] [99FB2D92] CRC32
04 100,0 [813D21F8] [84AC9580] CRC32

A-ha - Singles Collection [13CD] (1988-1994)

A-ha - You Are The One (1988)
EAC Rip | FLAC (tracks+.cue+log) - 96 MB | MP3 CBR 320 kbps (LAME 3.93) - 34 MB | Covers - 33 MB
Genre: Synth-pop, New Wave | RAR 3% Rec. | Label: WEA (921 121-2, W7636CD)

Tracklist:
01. You Are The One (7" Remix)
02. Scoundrel Days (LP Version)
03. Out Of Blue Comes Green (LP Version)

Total time: 14:29

Exact Audio Copy V1.3 from 2. September 2016

EAC extraction logfile from 25. June 2018, 23:57

a-ha / You Are The One (Remix)

Used drive : PIONEER DVD-RW DVR-221L Adapter: 1 ID: 1

Read mode : Secure
Utilize accurate stream : Yes
Defeat audio cache : Yes
Make use of C2 pointers : No

Read offset correction : 6
Overread into Lead-In and Lead-Out : No
Fill up missing offset samples with silence : Yes
Delete leading and trailing silent blocks : No
Null samples used in CRC calculations : Yes
Used interface : Native Win32 interface for Win NT & 2000
Gap handling : Appended to previous track

Used output format : User Defined Encoder
Selected bitrate : 1024 kBit/s
Quality : High
Add ID3 tag : No
Command line compressor : C:\Program Files (x86)\Exact Audio Copy\FLAC\FLAC.EXE
Additional command line options : -6 -V -T "COMMENT=Ripped by RRC" -T "ARTIST=%artist%" -T "TITLE=%title%" -T "ALBUM=%albumtitle%" -T "DATE=%year%" -T "TRACKNUMBER=%tracknr%" -T "GENRE=%genre%" -T "BAND=%albuminterpret%" -T "ALBUMARTIST=%albuminterpret%" -T "COMPOSER=%composer%" %haslyrics%–tag-from-file=LYRICS="%lyricsfile%"%haslyrics% -T "DISCNUMBER=%cdnumber%" -T "TOTALDISCS=%totalcds%" -T "TOTALTRACKS=%numtracks%" %hascover%–picture="%coverfile%"%hascover% %source%


TOC of the extracted CD

Track | Start | Length | Start sector | End sector
––––––––––––––––––––––––––––-
1 | 0:00.00 | 3:51.65 | 0 | 17389
2 | 3:51.65 | 4:01.15 | 17390 | 35479
3 | 7:53.05 | 6:36.20 | 35480 | 65199


Track 1

Filename E:\RRCLtd Rip\01-You Are The One (7'' Remix).wav

Pre-gap length 0:00:02.00

Peak level 100.0 %
Extraction speed 4.3 X
Track quality 100.0 %
Test CRC 8CFAAC42
Copy CRC 8CFAAC42
Accurately ripped (confidence 4) [426B6705] (AR v2)
Copy OK

Track 2

Filename E:\RRCLtd Rip\02-Scoundrel Days (LP Version).wav

Pre-gap length 0:00:02.60

Peak level 96.7 %
Extraction speed 4.6 X
Track quality 100.0 %
Test CRC 68D58E67
Copy CRC 68D58E67
Accurately ripped (confidence 4) [D4C1E6DE] (AR v2)
Copy OK

Track 3

Filename E:\RRCLtd Rip\03-Out Of Blue Comes Green (LP Version).wav

Pre-gap length 0:00:04.15

Peak level 100.0 %
Extraction speed 5.6 X
Track quality 100.0 %
Test CRC 79E8EF50
Copy CRC 79E8EF50
Accurately ripped (confidence 4) [91107FCC] (AR v2)
Copy OK


All tracks accurately ripped

No errors occurred

End of status report

–– CUETools DB Plugin V2.1.6

[CTDB TOCID: Aapr5FWIzFLka_J2wJgOhMUzkLs-] found
Submit result: Aapr5FWIzFLka_J2wJgOhMUzkLs- has been confirmed
Track | CTDB Status
1 | (7/8) Accurately ripped
2 | (8/8) Accurately ripped
3 | (8/8) Accurately ripped


==== Log checksum 98FB6E78AB8A95D3CAE6BF248C145673728449CBBF2F26A5C4EF33916E556DCB ====

[CUETools log; Date: 07.10.2021 23:10:27; Version: 2.1.4]
[CTDB TOCID: Aapr5FWIzFLka_J2wJgOhMUzkLs-] found.
Track | CTDB Status
1 | (12/13) Accurately ripped
2 | (13/13) Accurately ripped
3 | (13/13) Accurately ripped
[AccurateRip ID: 0001cd36-00062265-1a036503] found.
Track [ CRC | V2 ] Status
01 [927c2902|426b6705] (0+5/5) Accurately ripped
02 [e89f7b93|d4c1e6de] (0+5/5) Accurately ripped
03 [cb7c4d3a|91107fcc] (3+5/8) Accurately ripped

Track Peak [ CRC32 ] [W/O NULL] [ LOG ]
– 100,0 [591F84D1] [E0C2D82B]
01 100,0 [8CFAAC42] [40DE43D7] CRC32
02 96,7 [68D58E67] [FD255286] CRC32
03 100,0 [79E8EF50] [CA104744] CRC32

A-ha - Singles Collection [13CD] (1988-1994)

A-ha - Crying In The Rain (1990)
EAC Rip | FLAC (tracks+.cue+log) - 67 MB | MP3 CBR 320 kbps (LAME 3.93) - 27 MB | Covers - 28 MB
Genre: Synth-pop, New Wave | RAR 3% Rec. | Label: Warner Bros. Records (7599-21768-2, W 9547 CD)

Tracklist:
01. Crying In The Rain (LP Version)
02. (Seemingly) Nonstop July (LP Version)
03. Cry Wolf (LP Version)

Total time: 11:27

Exact Audio Copy V1.3 from 2. September 2016

EAC extraction logfile from 25. June 2018, 23:47

a‐ha / Crying In The Rain

Used drive : PIONEER DVD-RW DVR-221L Adapter: 1 ID: 1

Read mode : Secure
Utilize accurate stream : Yes
Defeat audio cache : Yes
Make use of C2 pointers : No

Read offset correction : 6
Overread into Lead-In and Lead-Out : No
Fill up missing offset samples with silence : Yes
Delete leading and trailing silent blocks : No
Null samples used in CRC calculations : Yes
Used interface : Native Win32 interface for Win NT & 2000
Gap handling : Appended to previous track

Used output format : User Defined Encoder
Selected bitrate : 1024 kBit/s
Quality : High
Add ID3 tag : No
Command line compressor : C:\Program Files (x86)\Exact Audio Copy\FLAC\FLAC.EXE
Additional command line options : -6 -V -T "COMMENT=Ripped by RRC" -T "ARTIST=%artist%" -T "TITLE=%title%" -T "ALBUM=%albumtitle%" -T "DATE=%year%" -T "TRACKNUMBER=%tracknr%" -T "GENRE=%genre%" -T "BAND=%albuminterpret%" -T "ALBUMARTIST=%albuminterpret%" -T "COMPOSER=%composer%" %haslyrics%–tag-from-file=LYRICS="%lyricsfile%"%haslyrics% -T "DISCNUMBER=%cdnumber%" -T "TOTALDISCS=%totalcds%" -T "TOTALTRACKS=%numtracks%" %hascover%–picture="%coverfile%"%hascover% %source%


TOC of the extracted CD

Track | Start | Length | Start sector | End sector
––––––––––––––––––––––––––––-
1 | 0:00.00 | 4:26.70 | 0 | 20019
2 | 4:26.70 | 2:55.10 | 20020 | 33154
3 | 7:22.05 | 4:05.43 | 33155 | 51572


Track 1

Filename E:\RRCLtd Rip\01-Crying In The Rain (LP Version).wav

Pre-gap length 0:00:02.00

Peak level 97.2 %
Extraction speed 2.2 X
Track quality 99.9 %
Test CRC 42479057
Copy CRC 42479057
Accurately ripped (confidence 26) [915574DA] (AR v2)
Copy OK

Track 2

Filename E:\RRCLtd Rip\02-(Seemingly) Nonstop July (LP Version).wav

Pre-gap length 0:00:02.12

Peak level 83.3 %
Extraction speed 2.8 X
Track quality 100.0 %
Test CRC D0CCD9BC
Copy CRC D0CCD9BC
Accurately ripped (confidence 26) [B970FF18] (AR v2)
Copy OK

Track 3

Filename E:\RRCLtd Rip\03-Cry Wolf (LP Version).wav

Pre-gap length 0:00:02.70

Peak level 95.8 %
Extraction speed 3.2 X
Track quality 100.0 %
Test CRC 958B23D0
Copy CRC 958B23D0
Accurately ripped (confidence 25) [FF5AEC7E] (AR v2)
Copy OK


All tracks accurately ripped

No errors occurred

End of status report

–– CUETools DB Plugin V2.1.6

[CTDB TOCID: NZ26i_tyYlmyBVMasyxT6G060L0-] found
Submit result: NZ26i_tyYlmyBVMasyxT6G060L0- has been confirmed
Track | CTDB Status
1 | (55/55) Accurately ripped
2 | (55/55) Accurately ripped
3 | (55/55) Accurately ripped


==== Log checksum BF09E4BE3085DAA72A626C989BC0F5AD81C8C5C586400D9A3F6AF14BEEF31B87 ====

[CUETools log; Date: 07.10.2021 23:11:25; Version: 2.1.4]
[CTDB TOCID: NZ26i_tyYlmyBVMasyxT6G060L0-] found.
Track | CTDB Status
1 | (90/90) Accurately ripped
2 | (90/90) Accurately ripped
3 | (89/90) Accurately ripped
[AccurateRip ID: 0001992c-000546c6-1e02af03] found.
Track [ CRC | V2 ] Status
01 [47ad5bd2|915574da] (13+33/46) Accurately ripped
02 [8c8d1c5d|b970ff18] (13+33/46) Accurately ripped
03 [b372bc4a|ff5aec7e] (12+32/46) Accurately ripped

Track Peak [ CRC32 ] [W/O NULL] [ LOG ]
– 97,2 [29AB6718] [5A948561]
01 97,2 [42479057] [D697B291] CRC32
02 83,3 [D0CCD9BC] [F4278A98] CRC32
03 95,8 [958B23D0] [983C9E14] CRC32

A-ha - Singles Collection [13CD] (1988-1994)

A-ha - I Call Your Name (1990)
EAC Rip | FLAC (tracks+.cue+log) - 68 MB | MP3 CBR 320 kbps (LAME 3.93) - 25 MB | Covers - 37 MB
Genre: Synth-pop, New Wave | RAR 3% Rec. | Label: WEA (7599-21834-2, W 9462 CD)

Tracklist:
01. I Call Your Name
02. The Way We Talk
03. The Blood That Moves The Body

Total time: 10:29

Exact Audio Copy V1.3 from 2. September 2016

EAC extraction logfile from 26. June 2018, 0:29

a‐ha / I Call Your Name

Used drive : PIONEER DVD-RW DVR-221L Adapter: 1 ID: 1

Read mode : Secure
Utilize accurate stream : Yes
Defeat audio cache : Yes
Make use of C2 pointers : No

Read offset correction : 6
Overread into Lead-In and Lead-Out : No
Fill up missing offset samples with silence : Yes
Delete leading and trailing silent blocks : No
Null samples used in CRC calculations : Yes
Used interface : Native Win32 interface for Win NT & 2000
Gap handling : Appended to previous track

Used output format : User Defined Encoder
Selected bitrate : 1024 kBit/s
Quality : High
Add ID3 tag : No
Command line compressor : C:\Program Files (x86)\Exact Audio Copy\FLAC\FLAC.EXE
Additional command line options : -6 -V -T "COMMENT=Ripped by RRC" -T "ARTIST=%artist%" -T "TITLE=%title%" -T "ALBUM=%albumtitle%" -T "DATE=%year%" -T "TRACKNUMBER=%tracknr%" -T "GENRE=%genre%" -T "BAND=%albuminterpret%" -T "ALBUMARTIST=%albuminterpret%" -T "COMPOSER=%composer%" %haslyrics%–tag-from-file=LYRICS="%lyricsfile%"%haslyrics% -T "DISCNUMBER=%cdnumber%" -T "TOTALDISCS=%totalcds%" -T "TOTALTRACKS=%numtracks%" %hascover%–picture="%coverfile%"%hascover% %source%


TOC of the extracted CD

Track | Start | Length | Start sector | End sector
––––––––––––––––––––––––––––-
1 | 0:00.00 | 4:52.55 | 0 | 21954
2 | 4:52.55 | 1:31.15 | 21955 | 28794
3 | 6:23.70 | 4:05.35 | 28795 | 47204


Track 1

Filename E:\RRCLtd Rip\01-I Call Your Name.wav

Pre-gap length 0:00:02.00

Peak level 100.0 %
Extraction speed 2.7 X
Track quality 100.0 %
Test CRC 6AC5E83F
Copy CRC 6AC5E83F
Accurately ripped (confidence 6) [017E7D0B] (AR v2)
Copy OK

Track 2

Filename E:\RRCLtd Rip\02-The Way We Talk.wav

Pre-gap length 0:00:01.30

Peak level 62.3 %
Extraction speed 2.4 X
Track quality 100.0 %
Test CRC EF816795
Copy CRC EF816795
Accurately ripped (confidence 5) [E55A50D9] (AR v2)
Copy OK

Track 3

Filename E:\RRCLtd Rip\03-The Blood That Moves The Body.wav

Pre-gap length 0:00:00.62

Peak level 100.0 %
Extraction speed 3.2 X
Track quality 100.0 %
Test CRC 85707ACB
Copy CRC 85707ACB
Accurately ripped (confidence 6) [E8EC1A6F] (AR v2)
Copy OK


All tracks accurately ripped

No errors occurred

End of status report

–– CUETools DB Plugin V2.1.6

[CTDB TOCID: qqaGstBnuhILk6eiZ.LhKDeC0bA-] found
Submit result: qqaGstBnuhILk6eiZ.LhKDeC0bA- has been confirmed
Track | CTDB Status
1 | (11/12) Accurately ripped
2 | (11/12) Accurately ripped
3 | (11/12) Accurately ripped


==== Log checksum DBCE162C66451ECCCBBC1848E1112C086542AA969D2E46511785767AE5C4F7B5 ====

[CUETools log; Date: 07.10.2021 23:12:30; Version: 2.1.4]
[CTDB TOCID: qqaGstBnuhILk6eiZ.LhKDeC0bA-] found.
Track | CTDB Status
1 | (18/19) Accurately ripped
2 | (18/19) Accurately ripped
3 | (18/19) Accurately ripped
[AccurateRip ID: 00017ea3-0004de8c-21027503] found.
Track [ CRC | V2 ] Status
01 [0e8b3ec4|017e7d0b] (2+7/9) Accurately ripped
02 [eb59289c|e55a50d9] (2+5/7) Accurately ripped
03 [f8db1644|e8ec1a6f] (3+6/9) Accurately ripped

Track Peak [ CRC32 ] [W/O NULL] [ LOG ]
– 100,0 [EB441959] [35B1274C]
01 100,0 [6AC5E83F] [84E4BAE7] CRC32
02 62,3 [EF816795] [3B10CE40] CRC32
03 100,0 [85707ACB] [44F192FF] CRC32

A-ha - Singles Collection [13CD] (1988-1994)

A-ha - Early Morning (1991)
EAC Rip | FLAC (tracks+.cue+log) - 75 MB | MP3 CBR 320 kbps (LAME 3.93) - 29 MB | Covers - 27 MB
Genre: Synth-pop, New Wave | RAR 3% Rec. | Label: WEA (W0012CD, 9362-40026-2)

Tracklist:
01. Early Morning
02. East Of The Sun
03. Train Of Thought

Total time: 12:00

Exact Audio Copy V1.3 from 2. September 2016

EAC extraction logfile from 8. September 2019, 15:45

a-ha / Early Morning

Used drive : PIONEER DVD-RW DVR-221L Adapter: 1 ID: 1

Read mode : Secure
Utilize accurate stream : Yes
Defeat audio cache : Yes
Make use of C2 pointers : No

Read offset correction : 6
Overread into Lead-In and Lead-Out : No
Fill up missing offset samples with silence : Yes
Delete leading and trailing silent blocks : No
Null samples used in CRC calculations : Yes
Used interface : Native Win32 interface for Win NT & 2000
Gap handling : Appended to previous track

Used output format : User Defined Encoder
Selected bitrate : 1024 kBit/s
Quality : High
Add ID3 tag : No
Command line compressor : C:\Program Files (x86)\Exact Audio Copy\FLAC\FLAC.EXE
Additional command line options : -6 -V -T "COMMENT=Ripped by RRC" -T "ARTIST=%artist%" -T "TITLE=%title%" -T "ALBUM=%albumtitle%" -T "DATE=%year%" -T "TRACKNUMBER=%tracknr%" -T "GENRE=%genre%" -T "BAND=%albuminterpret%" -T "ALBUMARTIST=%albuminterpret%" -T "COMPOSER=%composer%" %haslyrics%–tag-from-file=LYRICS="%lyricsfile%"%haslyrics% -T "DISCNUMBER=%cdnumber%" -T "TOTALDISCS=%totalcds%" -T "TOTALTRACKS=%numtracks%" %hascover%–picture="%coverfile%"%hascover% %source%


TOC of the extracted CD

Track | Start | Length | Start sector | End sector
––––––––––––––––––––––––––––-
1 | 0:00.00 | 2:59.70 | 0 | 13494
2 | 2:59.70 | 4:48.25 | 13495 | 35119
3 | 7:48.20 | 4:11.55 | 35120 | 53999


Track 1

Filename E:\RRCLtd Rip\01-Early Morning.wav

Pre-gap length 0:00:02.00

Peak level 100.0 %
Extraction speed 3.3 X
Track quality 99.9 %
Test CRC 08402395
Copy CRC 08402395
Track not present in AccurateRip database
Copy OK

Track 2

Filename E:\RRCLtd Rip\02-East Of The Sun.wav

Pre-gap length 0:00:01.00

Peak level 100.0 %
Extraction speed 4.8 X
Track quality 100.0 %
Test CRC 650F8F1A
Copy CRC 650F8F1A
Track not present in AccurateRip database
Copy OK

Track 3

Filename E:\RRCLtd Rip\03-Train Of Thought.wav

Pre-gap length 0:00:01.00

Peak level 95.8 %
Extraction speed 5.5 X
Track quality 100.0 %
Test CRC 1C9F7FF0
Copy CRC 1C9F7FF0
Track not present in AccurateRip database
Copy OK


None of the tracks are present in the AccurateRip database

No errors occurred

End of status report

–– CUETools DB Plugin V2.1.6

[CTDB TOCID: ._pepp0KdSzaqgsmFCw4SkhKdLU-] disk not present in database
Submit result: ._pepp0KdSzaqgsmFCw4SkhKdLU- has been uploaded


==== Log checksum E07658518B77B9BF81A17B3B0DC595E90C8091870917AE9861C8094864554C6B ====

[CUETools log; Date: 07.10.2021 23:13:26; Version: 2.1.4]
[CTDB TOCID: ._pepp0KdSzaqgsmFCw4SkhKdLU-] found.
Track | CTDB Status
1 | (1/1) Accurately ripped
2 | (1/1) Accurately ripped
3 | (1/1) Accurately ripped
[AccurateRip ID: 000190d7-000550bf-1702d003] disk not present in database.

Track Peak [ CRC32 ] [W/O NULL] [ LOG ]
– 100,0 [F9F4A55D] [99645937]
01 100,0 [08402395] [73F154D7] CRC32
02 100,0 [650F8F1A] [908B97C0] CRC32
03 95,8 [1C9F7FF0] [47BC8959] CRC32

A-ha - Singles Collection [13CD] (1988-1994)

A-ha - Move To Memphis (1991)
EAC Rip | FLAC (tracks+.cue+log) - 121 MB | MP3 CBR 320 kbps (LAME 3.93) - 46 MB | Covers - 19 MB
Genre: Synth-pop, New Wave, Pop Rock | RAR 3% Rec. | Label: WEA (9362-40246-2, W0070CD)

Tracklist:
01. Move To Memphis
02. Crying In The Rain (Live)
03. Early Morning (Live)
04. Manhattan Skyline (Live)

Total time: 19:21

Exact Audio Copy V1.3 from 2. September 2016

EAC extraction logfile from 26. June 2018, 0:20

a‐ha / Move To Memphis

Used drive : PIONEER DVD-RW DVR-221L Adapter: 1 ID: 1

Read mode : Secure
Utilize accurate stream : Yes
Defeat audio cache : Yes
Make use of C2 pointers : No

Read offset correction : 6
Overread into Lead-In and Lead-Out : No
Fill up missing offset samples with silence : Yes
Delete leading and trailing silent blocks : No
Null samples used in CRC calculations : Yes
Used interface : Native Win32 interface for Win NT & 2000
Gap handling : Appended to previous track

Used output format : User Defined Encoder
Selected bitrate : 1024 kBit/s
Quality : High
Add ID3 tag : No
Command line compressor : C:\Program Files (x86)\Exact Audio Copy\FLAC\FLAC.EXE
Additional command line options : -6 -V -T "COMMENT=Ripped by RRC" -T "ARTIST=%artist%" -T "TITLE=%title%" -T "ALBUM=%albumtitle%" -T "DATE=%year%" -T "TRACKNUMBER=%tracknr%" -T "GENRE=%genre%" -T "BAND=%albuminterpret%" -T "ALBUMARTIST=%albuminterpret%" -T "COMPOSER=%composer%" %haslyrics%–tag-from-file=LYRICS="%lyricsfile%"%haslyrics% -T "DISCNUMBER=%cdnumber%" -T "TOTALDISCS=%totalcds%" -T "TOTALTRACKS=%numtracks%" %hascover%–picture="%coverfile%"%hascover% %source%


TOC of the extracted CD

Track | Start | Length | Start sector | End sector
––––––––––––––––––––––––––––-
1 | 0:00.00 | 4:17.42 | 0 | 19316
2 | 4:17.42 | 4:52.58 | 19317 | 41274
3 | 9:10.25 | 3:03.55 | 41275 | 55054
4 | 12:14.05 | 7:07.15 | 55055 | 87094


Track 1

Filename E:\RRCLtd Rip\01-Move To Memphis.wav

Pre-gap length 0:00:02.00

Peak level 99.9 %
Extraction speed 4.6 X
Track quality 100.0 %
Test CRC 8D5E3476
Copy CRC 8D5E3476
Accurately ripped (confidence 10) [26DCD6E0] (AR v2)
Copy OK

Track 2

Filename E:\RRCLtd Rip\02-Crying In The Rain (Live).wav

Pre-gap length 0:00:01.10

Peak level 89.2 %
Extraction speed 4.4 X
Track quality 99.9 %
Test CRC 7C201545
Copy CRC 7C201545
Accurately ripped (confidence 10) [01D8D6B8] (AR v2)
Copy OK

Track 3

Filename E:\RRCLtd Rip\03-Early Morning (Live).wav

Pre-gap length 0:00:00.58

Peak level 82.4 %
Extraction speed 5.4 X
Track quality 100.0 %
Test CRC E154B5DF
Copy CRC E154B5DF
Accurately ripped (confidence 10) [C0CBBC09] (AR v2)
Copy OK

Track 4

Filename E:\RRCLtd Rip\04-Manhattan Skyline (Live).wav

Pre-gap length 0:00:00.60

Peak level 94.3 %
Extraction speed 6.3 X
Track quality 100.0 %
Test CRC 5BFD0FA4
Copy CRC 5BFD0FA4
Accurately ripped (confidence 10) [750BBB6F] (AR v2)
Copy OK


All tracks accurately ripped

No errors occurred

End of status report

–– CUETools DB Plugin V2.1.6

[CTDB TOCID: F_o.RJBkAPi9XeRL.jiSAsmvKtk-] found
Submit result: F_o.RJBkAPi9XeRL.jiSAsmvKtk- has been confirmed
Track | CTDB Status
1 | (21/21) Accurately ripped
2 | (21/21) Accurately ripped
3 | (21/21) Accurately ripped
4 | (21/21) Accurately ripped


==== Log checksum 704267098B11042E7D1A7F3E77E979F421570C3F0D9D036DA15195441D89C201 ====

[CUETools log; Date: 07.10.2021 23:14:11; Version: 2.1.4]
[CTDB TOCID: F_o.RJBkAPi9XeRL.jiSAsmvKtk-] found.
Track | CTDB Status
1 | (35/35) Accurately ripped
2 | (35/35) Accurately ripped
3 | (35/35) Accurately ripped
4 | (35/35) Accurately ripped
[AccurateRip ID: 000317f6-000c7beb-2e048904] found.
Track [ CRC | V2 ] Status
01 [3bf9ac0a|26dcd6e0] (06+12/18) Accurately ripped
02 [e3dc2687|01d8d6b8] (06+11/17) Accurately ripped
03 [c213ad44|c0cbbc09] (06+11/17) Accurately ripped
04 [c7a3d2c8|750bbb6f] (05+11/16) Accurately ripped

Track Peak [ CRC32 ] [W/O NULL] [ LOG ]
– 99,9 [A19C7BAA] [6836E994]
01 99,9 [8D5E3476] [971C235E] CRC32
02 89,2 [7C201545] [C02593F9] CRC32
03 82,4 [E154B5DF] [FA79B353] CRC32
04 94,3 [5BFD0FA4] [9AF9798C] CRC32

A-ha - Singles Collection [13CD] (1988-1994)

A-ha - The Blood That Moves The Body (1992)
EAC Rip | FLAC (tracks+.cue+log) - 97 MB | MP3 CBR 320 kbps (LAME 3.93) - 34 MB | Covers - 26 MB
Genre: Synth-pop, New Wave | RAR 3% Rec. | Label: WEA (9362-40400-2, W 0089 CD)

Tracklist:
01. The Blood That Moves The Body (The Gun Mix)
02. The Blood That Moves The Body (Two Time Gun Mix)
03. The Blood That Moves The Body (The Second Gun Around Mix)

Total time: 14:23

Exact Audio Copy V1.3 from 2. September 2016

EAC extraction logfile from 8. September 2019, 15:26

a‐ha / The Blood That Moves The Body

Used drive : PIONEER DVD-RW DVR-215 Adapter: 1 ID: 2

Read mode : Secure
Utilize accurate stream : Yes
Defeat audio cache : Yes
Make use of C2 pointers : No

Read offset correction : 48
Overread into Lead-In and Lead-Out : No
Fill up missing offset samples with silence : Yes
Delete leading and trailing silent blocks : No
Null samples used in CRC calculations : Yes
Used interface : Native Win32 interface for Win NT & 2000
Gap handling : Appended to previous track

Used output format : User Defined Encoder
Selected bitrate : 1024 kBit/s
Quality : High
Add ID3 tag : No
Command line compressor : C:\Program Files (x86)\Exact Audio Copy\FLAC\FLAC.EXE
Additional command line options : -6 -V -T "COMMENT=Ripped by RRC" -T "ARTIST=%artist%" -T "TITLE=%title%" -T "ALBUM=%albumtitle%" -T "DATE=%year%" -T "TRACKNUMBER=%tracknr%" -T "GENRE=%genre%" -T "BAND=%albuminterpret%" -T "ALBUMARTIST=%albuminterpret%" -T "COMPOSER=%composer%" %haslyrics%–tag-from-file=LYRICS="%lyricsfile%"%haslyrics% -T "DISCNUMBER=%cdnumber%" -T "TOTALDISCS=%totalcds%" -T "TOTALTRACKS=%numtracks%" %hascover%–picture="%coverfile%"%hascover% %source%


TOC of the extracted CD

Track | Start | Length | Start sector | End sector
––––––––––––––––––––––––––––-
1 | 0:00.00 | 4:17.42 | 0 | 19316
2 | 4:17.42 | 4:10.05 | 19317 | 38071
3 | 8:27.47 | 5:55.55 | 38072 | 64751


Track 1

Filename E:\RRCLtd Rip\01-The Blood That Moves The Body (The Gun Mix).wav

Pre-gap length 0:00:02.00

Peak level 96.4 %
Extraction speed 4.4 X
Track quality 100.0 %
Test CRC 96FE330B
Copy CRC 96FE330B
Accurately ripped (confidence 6) [54E0A0AD] (AR v2)
Copy OK

Track 2

Filename E:\RRCLtd Rip\02-The Blood That Moves The Body (Two-Time Gun Mix).wav

Pre-gap length 0:00:00.52

Peak level 96.3 %
Extraction speed 4.9 X
Track quality 100.0 %
Test CRC 92B45FB7
Copy CRC 92B45FB7
Accurately ripped (confidence 6) [A182E677] (AR v2)
Copy OK

Track 3

Filename E:\RRCLtd Rip\03-The Blood That Moves The Body (The Second Gun Around Mix).wav

Pre-gap length 0:00:01.12

Peak level 100.0 %
Extraction speed 5.5 X
Track quality 100.0 %
Test CRC 7A0B61FC
Copy CRC 7A0B61FC
Accurately ripped (confidence 6) [F7ACC544] (AR v2)
Copy OK


All tracks accurately ripped

No errors occurred

End of status report

–– CUETools DB Plugin V2.1.6

[CTDB TOCID: CYcxREdAtL28J6gVfK9Pq.FWlwE-] found
Submit result: CYcxREdAtL28J6gVfK9Pq.FWlwE- has been confirmed
Track | CTDB Status
1 | (21/21) Accurately ripped
2 | (21/21) Accurately ripped
3 | (18/21) Accurately ripped, or (2/21) differs in 83 samples @00:34:35-00:34:36,00:34:57,00:34:67,00:35:03,00:56:01-00:56:02,01:09:16-01:09:17


==== Log checksum A4D88139C75B04E4ECEC070AE818D1CA2A06357BA1869892319547616E433CB7 ====

[CUETools log; Date: 07.10.2021 23:15:08; Version: 2.1.4]
[CTDB TOCID: CYcxREdAtL28J6gVfK9Pq.FWlwE-] found.
Track | CTDB Status
1 | (26/26) Accurately ripped
2 | (26/26) Accurately ripped
3 | (23/26) Accurately ripped, or (2/26) differs in 83 samples @00:34:35-00:34:36,00:34:57,00:34:67,00:35:03,00:56:01-00:56:02,01:09:16-01:09:17
[AccurateRip ID: 0001dd1d-000648d3-20035f03] found.
Track [ CRC | V2 ] Status
01 [bc006e39|54e0a0ad] (06+07/13) Accurately ripped
02 [1e3a311d|a182e677] (07+07/14) Accurately ripped
03 [7461b484|f7acc544] (07+07/14) Accurately ripped

Track Peak [ CRC32 ] [W/O NULL] [ LOG ]
– 100,0 [002A8316] [91E563A9]
01 96,4 [96FE330B] [94ECDB10] CRC32
02 96,3 [92B45FB7] [04801B15] CRC32
03 100,0 [7A0B61FC] [91D94A83] CRC32

A-ha - Singles Collection [13CD] (1988-1994)

A-ha - Dark Is The Night (1993) CD 1
EAC Rip | FLAC (tracks+.cue+log) - 117 MB | MP3 CBR 320 kbps (LAME 3.93) - 41 MB | Covers - 102 MB
Genre: Pop Rock | RAR 3% Rec. | Label: Warner Bros. Records (9362-40892-2, W0175CD1)

Tracklist:
01. Dark Is The Night
02. I've Been Losing You / Cry Wolf (Live)
03. Angel In The Snow (Instrumental)

Total time: 17:13

Exact Audio Copy V1.3 from 2. September 2016

EAC extraction logfile from 26. June 2018, 1:37

a‐ha / Dark Is The Night (CD1)

Used drive : PIONEER DVD-RW DVR-215 Adapter: 1 ID: 2

Read mode : Secure
Utilize accurate stream : Yes
Defeat audio cache : Yes
Make use of C2 pointers : No

Read offset correction : 48
Overread into Lead-In and Lead-Out : No
Fill up missing offset samples with silence : Yes
Delete leading and trailing silent blocks : No
Null samples used in CRC calculations : Yes
Used interface : Native Win32 interface for Win NT & 2000
Gap handling : Appended to previous track

Used output format : User Defined Encoder
Selected bitrate : 1024 kBit/s
Quality : High
Add ID3 tag : No
Command line compressor : C:\Program Files (x86)\Exact Audio Copy\FLAC\FLAC.EXE
Additional command line options : -6 -V -T "COMMENT=Ripped by RRC" -T "ARTIST=%artist%" -T "TITLE=%title%" -T "ALBUM=%albumtitle%" -T "DATE=%year%" -T "TRACKNUMBER=%tracknr%" -T "GENRE=%genre%" -T "BAND=%albuminterpret%" -T "ALBUMARTIST=%albuminterpret%" -T "COMPOSER=%composer%" %haslyrics%–tag-from-file=LYRICS="%lyricsfile%"%haslyrics% -T "DISCNUMBER=%cdnumber%" -T "TOTALDISCS=%totalcds%" -T "TOTALTRACKS=%numtracks%" %hascover%–picture="%coverfile%"%hascover% %source%


TOC of the extracted CD

Track | Start | Length | Start sector | End sector
––––––––––––––––––––––––––––-
1 | 0:00.00 | 3:47.55 | 0 | 17079
2 | 3:47.55 | 9:09.65 | 17080 | 58319
3 | 12:57.45 | 4:16.12 | 58320 | 77531


Track 1

Filename E:\RRCLtd Rip\01-Dark Is The Night.wav

Pre-gap length 0:00:02.00

Peak level 100.0 %
Extraction speed 3.8 X
Track quality 99.9 %
Test CRC B0741A2E
Copy CRC B0741A2E
Accurately ripped (confidence 2) [D4A96D7F] (AR v1)
Copy OK

Track 2

Filename E:\RRCLtd Rip\02-I've Been Losing You - Cry Wolf (Live).wav

Pre-gap length 0:00:02.00

Peak level 100.0 %
Extraction speed 5.4 X
Track quality 100.0 %
Test CRC 255EF480
Copy CRC 255EF480
Accurately ripped (confidence 2) [7E297195] (AR v1)
Copy OK

Track 3

Filename E:\RRCLtd Rip\03-Angel In The Snow (Instrumental).wav

Pre-gap length 0:00:02.00

Peak level 99.8 %
Extraction speed 5.7 X
Track quality 100.0 %
Test CRC 9261ADCF
Copy CRC 9261ADCF
Accurately ripped (confidence 3) [9774BBBD] (AR v1)
Copy OK


All tracks accurately ripped

No errors occurred

End of status report

–– CUETools DB Plugin V2.1.6

[CTDB TOCID: eVi1aBPWWgRl04cZarqnKuJMrXw-] found
Submit result: already submitted
Track | CTDB Status
1 | (9/9) Accurately ripped
2 | (9/9) Accurately ripped
3 | (9/9) Accurately ripped


==== Log checksum BBFA0F709E95A34E0A6052754829560A003857E6A8546D5D264AB2BC5D830411 ====

[CUETools log; Date: 07.10.2021 23:16:38; Version: 2.1.4]
[CTDB TOCID: eVi1aBPWWgRl04cZarqnKuJMrXw-] found.
Track | CTDB Status
1 | (11/11) Accurately ripped
2 | (11/11) Accurately ripped
3 | (11/11) Accurately ripped
[AccurateRip ID: 00025564-0007ec51-26040903] found.
Track [ CRC | V2 ] Status
01 [d4a96d7f|037be491] (2+2/4) Accurately ripped
02 [7e297195|63b46dab] (2+2/4) Accurately ripped
03 [9774bbbd|29006cc8] (3+2/5) Accurately ripped

Track Peak [ CRC32 ] [W/O NULL] [ LOG ]
– 99,9 [4210D71C] [9EEC6BB0]
01 99,9 [B0741A2E] [23116D28] CRC32
02 99,9 [255EF480] [C2EE80DC] CRC32
03 99,8 [9261ADCF] [7BABB94B] CRC32

A-ha - Singles Collection [13CD] (1988-1994)

A-ha - Dark Is The Night (1993) CD 2
EAC Rip | FLAC (tracks+.cue+log) - 110 MB | MP3 CBR 320 kbps (LAME 3.93) - 41 MB | Covers - 21 MB
Genre: Synth-pop, New Wave, Pop Rock | RAR 3% Rec. | Label: Warner Bros. Records (9362-40898-2, W0175CD2)

Tracklist:
01. Dark Is The Night
02. The Sun Always Shines On T.V.
03. Hunting High And Low (Remix)
04. Crying In The Rain

Total time: 17:03

Exact Audio Copy V1.3 from 2. September 2016

EAC extraction logfile from 29. June 2018, 1:16

a‐ha / Dark Is the Night (Part 2)

Used drive : PIONEER DVD-RW DVR-215 Adapter: 1 ID: 2

Read mode : Secure
Utilize accurate stream : Yes
Defeat audio cache : Yes
Make use of C2 pointers : No

Read offset correction : 48
Overread into Lead-In and Lead-Out : No
Fill up missing offset samples with silence : Yes
Delete leading and trailing silent blocks : No
Null samples used in CRC calculations : Yes
Used interface : Native Win32 interface for Win NT & 2000
Gap handling : Appended to previous track

Used output format : User Defined Encoder
Selected bitrate : 1024 kBit/s
Quality : High
Add ID3 tag : No
Command line compressor : C:\Program Files (x86)\Exact Audio Copy\FLAC\FLAC.EXE
Additional command line options : -6 -V -T "COMMENT=Ripped by RRC" -T "ARTIST=%artist%" -T "TITLE=%title%" -T "ALBUM=%albumtitle%" -T "DATE=%year%" -T "TRACKNUMBER=%tracknr%" -T "GENRE=%genre%" -T "BAND=%albuminterpret%" -T "ALBUMARTIST=%albuminterpret%" -T "COMPOSER=%composer%" %haslyrics%–tag-from-file=LYRICS="%lyricsfile%"%haslyrics% -T "DISCNUMBER=%cdnumber%" -T "TOTALDISCS=%totalcds%" -T "TOTALTRACKS=%numtracks%" %hascover%–picture="%coverfile%"%hascover% %source%


TOC of the extracted CD

Track | Start | Length | Start sector | End sector
––––––––––––––––––––––––––––-
1 | 0:00.00 | 3:47.52 | 0 | 17076
2 | 3:47.52 | 5:06.55 | 17077 | 40081
3 | 8:54.32 | 3:46.43 | 40082 | 57074
4 | 12:41.00 | 4:22.27 | 57075 | 76751


Track 1

Filename E:\RRCLtd Rip\01-Dark Is the Night.wav

Pre-gap length 0:00:02.00

Peak level 100.0 %
Extraction speed 4.3 X
Track quality 100.0 %
Test CRC 68BEDF24
Copy CRC 68BEDF24
Cannot be verified as accurate (confidence 3) [73135724], AccurateRip returned [2D905255] (AR v2)
Copy OK

Track 2

Filename E:\RRCLtd Rip\02-The Sun Always Shines on TV.wav

Pre-gap length 0:00:02.00

Peak level 96.9 %
Extraction speed 4.5 X
Track quality 99.9 %
Test CRC AB78CB83
Copy CRC AB78CB83
Cannot be verified as accurate (confidence 2) [381565F8], AccurateRip returned [15B2C9C7] (AR v2)
Copy OK

Track 3

Filename E:\RRCLtd Rip\03-Hunting High and Low (remix).wav

Pre-gap length 0:00:02.07

Peak level 100.0 %
Extraction speed 5.2 X
Track quality 100.0 %
Test CRC 93EB6764
Copy CRC 93EB6764
Cannot be verified as accurate (confidence 3) [84D756EE], AccurateRip returned [7B05A4DA] (AR v2)
Copy OK

Track 4

Filename E:\RRCLtd Rip\04-Crying in the Rain.wav

Pre-gap length 0:00:00.57

Peak level 84.6 %
Extraction speed 5.7 X
Track quality 100.0 %
Test CRC 203EB150
Copy CRC 203EB150
Accurately ripped (confidence 2) [B23AF3E7] (AR v1)
Copy OK


1 трек(и) скопированы точно
3 трек(и) не удалось проверить на точность

Some tracks could not be verified as accurate

No errors occurred

End of status report

–– CUETools DB Plugin V2.1.6

[CTDB TOCID: ama0T5ptSN4gGNWtueKVB.NZZIs-] found
Submit result: ama0T5ptSN4gGNWtueKVB.NZZIs- has been confirmed
Track | CTDB Status
1 | (6/6) Accurately ripped
2 | (6/6) Accurately ripped
3 | (6/6) Accurately ripped
4 | (6/6) Accurately ripped


==== Log checksum BD525B0EFB63BA3FED24E66F777B34FC390DB260A43AC9A872EAD62FEF75B07A ====

[CUETools log; Date: 07.10.2021 23:17:13; Version: 2.1.4]
[CTDB TOCID: ama0T5ptSN4gGNWtueKVB.NZZIs-] found.
Track | CTDB Status
1 | (10/10) Accurately ripped
2 | (10/10) Accurately ripped
3 | (10/10) Accurately ripped
4 | (10/10) Accurately ripped
[AccurateRip ID: 0002ea0a-000bb1fd-2d03ff04] found.
Track [ CRC | V2 ] Status
01 [b4bf9b85|73135724] (0+0/7) No match
02 [5d7873b7|381565f8] (0+0/6) No match
03 [fb32da5b|84d756ee] (0+0/7) No match
04 [b23af3e7|2fc482b5] (2+0/9) Accurately ripped
Offsetted by 1112:
01 [b6761e55] (2/7) Accurately ripped
02 [15b2c9c7] (2/6) Accurately ripped
03 [41e08673] (2/7) Accurately ripped
04 [cf26113f] (2/9) Accurately ripped

Track Peak [ CRC32 ] [W/O NULL] [ LOG ]
– 100,0 [137D2165] [D36F9535]
01 99,9 [68BEDF24] [BC2D6B2E] CRC32
02 96,9 [AB78CB83] [3785577E] CRC32
03 100,0 [93EB6764] [49A3D5C5] CRC32
04 84,6 [203EB150] [5139EABC] CRC32

A-ha - Singles Collection [13CD] (1988-1994)

A-ha - Angel (1993) CD 1
EAC Rip | FLAC (tracks+.cue+log) - 122 MB | MP3 CBR 320 kbps (LAME 3.93) - 44 MB | Covers - 91 MB
Genre: Synth-pop, New Wave, Pop Rock | RAR 3% Rec. | Label: Warner Bros. Records (WO195CD1, 9362-41098-2)

Tracklist:
01. Angel (Acoustic Instrumental)
02. Stay On These Roads
03. Manhattan Skyline
04. Scoundrel Days (Live)

Total time: 18:39

Exact Audio Copy V1.3 from 2. September 2016

EAC extraction logfile from 8. September 2019, 15:35

a-ha / Angel (Part I)

Used drive : PIONEER DVD-RW DVR-221L Adapter: 1 ID: 1

Read mode : Secure
Utilize accurate stream : Yes
Defeat audio cache : Yes
Make use of C2 pointers : No

Read offset correction : 6
Overread into Lead-In and Lead-Out : No
Fill up missing offset samples with silence : Yes
Delete leading and trailing silent blocks : No
Null samples used in CRC calculations : Yes
Used interface : Native Win32 interface for Win NT & 2000
Gap handling : Appended to previous track

Used output format : User Defined Encoder
Selected bitrate : 1024 kBit/s
Quality : High
Add ID3 tag : No
Command line compressor : C:\Program Files (x86)\Exact Audio Copy\FLAC\FLAC.EXE
Additional command line options : -6 -V -T "COMMENT=Ripped by RRC" -T "ARTIST=%artist%" -T "TITLE=%title%" -T "ALBUM=%albumtitle%" -T "DATE=%year%" -T "TRACKNUMBER=%tracknr%" -T "GENRE=%genre%" -T "BAND=%albuminterpret%" -T "ALBUMARTIST=%albuminterpret%" -T "COMPOSER=%composer%" %haslyrics%–tag-from-file=LYRICS="%lyricsfile%"%haslyrics% -T "DISCNUMBER=%cdnumber%" -T "TOTALDISCS=%totalcds%" -T "TOTALTRACKS=%numtracks%" %hascover%–picture="%coverfile%"%hascover% %source%


TOC of the extracted CD

Track | Start | Length | Start sector | End sector
––––––––––––––––––––––––––––-
1 | 0:00.00 | 4:11.03 | 0 | 18827
2 | 4:11.03 | 4:47.27 | 18828 | 40379
3 | 8:58.30 | 4:53.63 | 40380 | 62417
4 | 13:52.18 | 4:46.65 | 62418 | 83932


Track 1

Filename E:\RRCLtd Rip\01-Angel (Acoustic Instrumental).wav

Pre-gap length 0:00:02.00

Peak level 97.2 %
Extraction speed 4.4 X
Track quality 100.0 %
Test CRC 000AA4BC
Copy CRC 000AA4BC
Accurately ripped (confidence 3) [10423413] (AR v2)
Copy OK

Track 2

Filename E:\RRCLtd Rip\02-Stay On These Roads.wav

Pre-gap length 0:00:04.63

Peak level 90.1 %
Extraction speed 4.6 X
Track quality 100.0 %
Test CRC 2FB956DE
Copy CRC 2FB956DE
Accurately ripped (confidence 3) [929454C2] (AR v2)
Copy OK

Track 3

Filename E:\RRCLtd Rip\03-Manhattan Skyline.wav

Pre-gap length 0:00:02.12

Peak level 70.7 %
Extraction speed 5.5 X
Track quality 100.0 %
Test CRC D87B4B3E
Copy CRC D87B4B3E
Accurately ripped (confidence 3) [98EE6C41] (AR v2)
Copy OK

Track 4

Filename E:\RRCLtd Rip\04-Scoundrel Days (Live).wav

Pre-gap length 0:00:02.58

Peak level 97.3 %
Extraction speed 4.8 X
Track quality 99.9 %
Test CRC 2C0CCB18
Copy CRC 2C0CCB18
Accurately ripped (confidence 3) [9303941C] (AR v2)
Copy OK


All tracks accurately ripped

No errors occurred

End of status report

–– CUETools DB Plugin V2.1.6

[CTDB TOCID: 9MklwUiv4W5RNAHf9FpZ41lUg58-] found
Submit result: already submitted
Track | CTDB Status
1 | (12/12) Accurately ripped
2 | (12/12) Accurately ripped
3 | (12/12) Accurately ripped
4 | (12/12) Accurately ripped


==== Log checksum E9AEF08B4DC87CFF0E5769EFD2B6A9B9AAD0299C58152A4F0B3C8EA4360C7045 ====

[CUETools log; Date: 07.10.2021 23:15:46; Version: 2.1.4]
[CTDB TOCID: 9MklwUiv4W5RNAHf9FpZ41lUg58-] found.
Track | CTDB Status
1 | (14/14) Accurately ripped
2 | (14/14) Accurately ripped
3 | (14/14) Accurately ripped
4 | (14/14) Accurately ripped
[AccurateRip ID: 000322f7-000ca2e6-24045f04] found.
Track [ CRC | V2 ] Status
01 [f42f5c88|10423413] (0+3/3) Accurately ripped
02 [7ad0ccce|929454c2] (0+3/3) Accurately ripped
03 [0f2e2554|98ee6c41] (0+3/3) Accurately ripped
04 [6dbf0f42|9303941c] (2+3/5) Accurately ripped

Track Peak [ CRC32 ] [W/O NULL] [ LOG ]
– 97,3 [2540C258] [98FA5175]
01 97,2 [000AA4BC] [2235EF90] CRC32
02 90,1 [2FB956DE] [FDC172BB] CRC32
03 70,7 [D87B4B3E] [75D14508] CRC32
04 97,3 [2C0CCB18] [6AFCFB72] CRC32

A-ha - Singles Collection [13CD] (1988-1994)

A-ha - Angel (1993) CD 2
EAC Rip | FLAC (tracks+.cue+log) - 122 MB | MP3 CBR 320 kbps (LAME 3.93) - 42 MB | Covers - 32 MB
Genre: Pop Rock | RAR 3% Rec. | Label: Warner Bros. Records (WO195CD2, 9362-41097-2)

Tracklist:
01. Angel (Edit)
02. The Sun Always Shines On TV (Live)
03. I Call Your Name (Live)
04. Early Morning (Live)

Total time: 17:34

Exact Audio Copy V1.3 from 2. September 2016

EAC extraction logfile from 8. September 2019, 14:40

a‐ha / Angel (Part II)

Used drive : PIONEER DVD-RW DVR-221L Adapter: 1 ID: 1

Read mode : Secure
Utilize accurate stream : Yes
Defeat audio cache : Yes
Make use of C2 pointers : No

Read offset correction : 6
Overread into Lead-In and Lead-Out : No
Fill up missing offset samples with silence : Yes
Delete leading and trailing silent blocks : No
Null samples used in CRC calculations : Yes
Used interface : Native Win32 interface for Win NT & 2000
Gap handling : Appended to previous track

Used output format : User Defined Encoder
Selected bitrate : 1024 kBit/s
Quality : High
Add ID3 tag : No
Command line compressor : C:\Program Files (x86)\Exact Audio Copy\FLAC\FLAC.EXE
Additional command line options : -6 -V -T "COMMENT=Ripped by RRC" -T "ARTIST=%artist%" -T "TITLE=%title%" -T "ALBUM=%albumtitle%" -T "DATE=%year%" -T "TRACKNUMBER=%tracknr%" -T "GENRE=%genre%" -T "BAND=%albuminterpret%" -T "ALBUMARTIST=%albuminterpret%" -T "COMPOSER=%composer%" %haslyrics%–tag-from-file=LYRICS="%lyricsfile%"%haslyrics% -T "DISCNUMBER=%cdnumber%" -T "TOTALDISCS=%totalcds%" -T "TOTALTRACKS=%numtracks%" %hascover%–picture="%coverfile%"%hascover% %source%


TOC of the extracted CD

Track | Start | Length | Start sector | End sector
––––––––––––––––––––––––––––-
1 | 0:00.00 | 4:08.70 | 0 | 18669
2 | 4:08.70 | 4:57.20 | 18670 | 40964
3 | 9:06.15 | 4:46.15 | 40965 | 62429
4 | 13:52.30 | 3:41.32 | 62430 | 79036


Track 1

Filename E:\RRCLtd Rip\01-Angel (Edit).wav

Pre-gap length 0:00:02.00

Peak level 97.2 %
Extraction speed 2.6 X
Track quality 100.0 %
Test CRC 8C2846C7
Copy CRC 8C2846C7
Accurately ripped (confidence 3) [C8EDFE9B] (AR v2)
Copy OK

Track 2

Filename E:\RRCLtd Rip\02-The Sun Always Shines on TV (Live).wav

Pre-gap length 0:00:03.00

Peak level 97.2 %
Extraction speed 3.1 X
Track quality 100.0 %
Test CRC 7C3527C1
Copy CRC 7C3527C1
Accurately ripped (confidence 3) [810834E6] (AR v2)
Copy OK

Track 3

Filename E:\RRCLtd Rip\03-I Call Your Name (Live).wav

Pre-gap length 0:00:03.53

Peak level 97.2 %
Extraction speed 3.4 X
Track quality 100.0 %
Test CRC 6744294A
Copy CRC 6744294A
Accurately ripped (confidence 3) [B80826A7] (AR v2)
Copy OK

Track 4

Filename E:\RRCLtd Rip\04-Early Morning (Live).wav

Pre-gap length 0:00:03.03

Peak level 97.2 %
Extraction speed 2.7 X
Track quality 99.9 %
Test CRC 65AFFEE5
Copy CRC 65AFFEE5
Accurately ripped (confidence 3) [F1588216] (AR v2)
Copy OK


All tracks accurately ripped

No errors occurred

End of status report

–– CUETools DB Plugin V2.1.6

[CTDB TOCID: 2RKSPEKs3v6Ke0qWF71o0T.Wsik-] found
Submit result: 2RKSPEKs3v6Ke0qWF71o0T.Wsik- has been confirmed
Track | CTDB Status
1 | (5/5) Accurately ripped
2 | (5/5) Accurately ripped
3 | (5/5) Accurately ripped
4 | (5/5) Accurately ripped


==== Log checksum A1E0E5F83703E7290C61BEB8F8A4605A311DE45E68292772C53B7D78952C9ED2 ====

[CUETools log; Date: 07.10.2021 23:16:13; Version: 2.1.4]
[CTDB TOCID: 2RKSPEKs3v6Ke0qWF71o0T.Wsik-] found.
Track | CTDB Status
1 | (9/9) Accurately ripped
2 | (9/9) Accurately ripped
3 | (9/9) Accurately ripped
4 | (9/9) Accurately ripped
[AccurateRip ID: 0003118e-000c4915-29041d04] found.
Track [ CRC | V2 ] Status
01 [f92865ca|c8edfe9b] (0+3/3) Accurately ripped
02 [3a204a56|810834e6] (0+3/3) Accurately ripped
03 [3678a348|b80826a7] (0+3/3) Accurately ripped
04 [96b7a754|f1588216] (0+3/3) Accurately ripped

Track Peak [ CRC32 ] [W/O NULL] [ LOG ]
– 97,2 [52E7BA3C] [9867BDB3]
01 97,2 [8C2846C7] [B685D43D] CRC32
02 97,2 [7C3527C1] [4658453F] CRC32
03 97,2 [6744294A] [06B66F25] CRC32
04 97,2 [65AFFEE5] [2FEFD9F6] CRC32

A-ha - Singles Collection [13CD] (1988-1994)

A-ha - Shapes That Go Together (1994)
EAC Rip | FLAC (tracks+.cue+log) - 139 MB | MP3 CBR 320 kbps (LAME 3.93) - 51 MB | Covers - 32 MB
Genre: Synth-pop, New Wave, Pop Rock | RAR 3% Rec. | Label: Warner Bros. Records (9362-41487-2, W0236CDX)

Tracklist:
01. Shapes That Go Together
02. Slender Frame (Live)
03. Touchy (Live)
04. Rolling Thunder (Live)

Total time: 21:22

Exact Audio Copy V1.3 from 2. September 2016

EAC extraction logfile from 9. February 2018, 21:13

a‐ha / Shapes That Go Together

Used drive : PIONEER DVD-RW DVR-215 Adapter: 1 ID: 1

Read mode : Secure
Utilize accurate stream : Yes
Defeat audio cache : Yes
Make use of C2 pointers : No

Read offset correction : 48
Overread into Lead-In and Lead-Out : No
Fill up missing offset samples with silence : Yes
Delete leading and trailing silent blocks : No
Null samples used in CRC calculations : Yes
Used interface : Native Win32 interface for Win NT & 2000
Gap handling : Appended to previous track

Used output format : User Defined Encoder
Selected bitrate : 1024 kBit/s
Quality : High
Add ID3 tag : No
Command line compressor : C:\Program Files (x86)\Exact Audio Copy\FLAC\FLAC.EXE
Additional command line options : -6 -V -T "COMMENT=Ripped by RRCLtd" -T "ARTIST=%artist%" -T "TITLE=%title%" -T "ALBUM=%albumtitle%" -T "DATE=%year%" -T "TRACKNUMBER=%tracknr%" -T "GENRE=%genre%" -T "COMMENT=%comment%" -T "BAND=%albuminterpret%" -T "ALBUMARTIST=%albuminterpret%" -T "COMPOSER=%composer%" %haslyrics%–tag-from-file=LYRICS="%lyricsfile%"%haslyrics% -T "DISCNUMBER=%cdnumber%" -T "TOTALDISCS=%totalcds%" -T "TOTALTRACKS=%numtracks%" %hascover%–picture="%coverfile%"%hascover% %source% -o %dest%


TOC of the extracted CD

Track | Start | Length | Start sector | End sector
––––––––––––––––––––––––––––-
1 | 0:00.00 | 4:15.52 | 0 | 19176
2 | 4:15.52 | 4:04.73 | 19177 | 37549
3 | 8:20.50 | 6:46.52 | 37550 | 68051
4 | 15:07.27 | 6:14.63 | 68052 | 96164


Track 1

Filename E:\RRCLtd Rip\01-Shapes That Go Together.wav

Pre-gap length 0:00:02.00

Peak level 99.9 %
Extraction speed 4.4 X
Track quality 100.0 %
Test CRC 63A669B3
Copy CRC 63A669B3
Accurately ripped (confidence 2) [AD8DBE67] (AR v2)
Copy OK

Track 2

Filename E:\RRCLtd Rip\02-Slender Frame (live).wav

Pre-gap length 0:00:02.27

Peak level 96.9 %
Extraction speed 4.9 X
Track quality 100.0 %
Test CRC 43102F9B
Copy CRC 43102F9B
Accurately ripped (confidence 2) [F5AE547A] (AR v2)
Copy OK

Track 3

Filename E:\RRCLtd Rip\03-Touchy (live).wav

Peak level 98.4 %
Extraction speed 5.3 X
Track quality 99.9 %
Test CRC 15B5C03F
Copy CRC 15B5C03F
Accurately ripped (confidence 2) [EDB85E3F] (AR v2)
Copy OK

Track 4

Filename E:\RRCLtd Rip\04-Rolling Thunder (live).wav

Peak level 92.1 %
Extraction speed 5.8 X
Track quality 99.9 %
Test CRC 99FB3DDD
Copy CRC 99FB3DDD
Accurately ripped (confidence 3) [A30A624A] (AR v2)
Copy OK


All tracks accurately ripped

No errors occurred

End of status report

–– CUETools DB Plugin V2.1.6

[CTDB TOCID: AvmqUighgS6cetNrYCpMp3OHoOg-] found
Submit result: AvmqUighgS6cetNrYCpMp3OHoOg- has been confirmed
Track | CTDB Status
1 | (6/6) Accurately ripped
2 | (6/6) Accurately ripped
3 | (6/6) Accurately ripped
4 | (6/6) Accurately ripped


==== Log checksum 70C8C22D25FBC9BDF8462E02011ECF575AD1D635766C38842F1CFB812372ED3D ====

[CUETools log; Date: 07.10.2021 23:17:43; Version: 2.1.4]
[CTDB TOCID: AvmqUighgS6cetNrYCpMp3OHoOg-] found.
Track | CTDB Status
1 | (14/14) Accurately ripped
2 | (14/14) Accurately ripped
3 | (14/14) Accurately ripped
4 | (14/14) Accurately ripped
[AccurateRip ID: 00035f10-000dcb66-29050204] found.
Track [ CRC | V2 ] Status
01 [899f13c4|ad8dbe67] (2+4/6) Accurately ripped
02 [7504a80b|f5ae547a] (3+5/8) Accurately ripped
03 [4d1eb6a9|edb85e3f] (3+5/8) Accurately ripped
04 [3d002697|a30a624a] (3+6/9) Accurately ripped

Track Peak [ CRC32 ] [W/O NULL] [ LOG ]
– 99,9 [ED5E421B] [DE336AEE]
01 99,9 [63A669B3] [46CB6042] CRC32
02 96,9 [43102F9B] [6EDDEE3C] CRC32
03 98,3 [15B5C03F] [B21AA095] CRC32
04 92,1 [99FB3DDD] [0F8A2A86] CRC32

Thanks to RRC

See also:
A-ha - Scoundrel Days (1986) [2CD Deluxe Edition 2010]
A-ha - East Of The Sun, West O... [2CD+DVD Deluxe Edition 2015]
A-ha - Memorial Beach (1993) [2CD Deluxe Edition 2015]
A-ha - Minor Earth Major Box [4CD Box Set] (2001)
A-Ha - The Singles 1984-2004 (2004)
A-ha - Cast In Steel (2015) [2CD Deluxe Edition]