Tags
Language
Tags
April 2023
Su Mo Tu We Th Fr Sa
26 27 28 29 30 31 1
2 3 4 5 6 7 8
9 10 11 12 13 14 15
16 17 18 19 20 21 22
23 24 25 26 27 28 29
30 1 2 3 4 5 6

VA - Acid Dreams Testament - 75 Minutes of Psychotic Terror (1996)

Posted By: Rtax
VA - Acid Dreams Testament - 75 Minutes of Psychotic Terror (1996)

VA - Acid Dreams Testament - 75 Minutes of Psychotic Terror (1996)
EAC Rip | FLAC (tracks, cue, log) - 427 MB
1:17:12 | Rock, Garage Rock, Psychedelic Rock | Unofficial Release | Label: Head

We're not entirely sure if "terror" is the right way to describe this music – but the striking subtitle definitely hints at the work within – a pretty freaky batch of tunes from the late 60s American underground! The music's psyche, but with a garagey undercurrent too – a great blend that almost borders on madness at times – of the sort that we love in the best music of Love, and which we really enjoy here in the collection's host of contemporary groups who hit a very similar style!

Tracklist
1. Balloon Farm – A Question Of Temperature (02:37)
2. Music Machine – You'll Love Me Again (01:49)
3. Painted Faces – Anxious Color (02:31)
4. Velvet Illusions – Velvet Illusions (02:16)
5. Unrelated Segments – Cry Cry Cry (03:04)
6. Outcasts – I'll Set You Free (02:52)
7. Murphy & The Mob – Born Loser (02:25)
8. Sparkles – No Friend Of Mine (02:22)
9. Painted Ship – Frustration (02:54)
10. Mouse & The Traps – Maid Of Sugar, Maid Of Spice (02:36)
11. Macabre – Be Forewarned (03:24)
12. Calico Wall – I'm A Living Sickness (02:30)
13. Velvet Illusions – Acid Head (02:36)
14. White Lightning – William (02:00)
15. Outcasts – 1523 Blair (01:46)
16. Zakary Thaks – I Need You (02:26)
17. Painted Ship – Little White Lies (02:37)
18. Swamp Rats – Louie Louie (03:17)
19. Unrelated Segments – It's Unfair (02:38)
20. Shy Guys – Black Lightening Light (04:35)
21. Bourbons – A Dark Corner (02:30)
22. Mind's Eye – Help, I'm Lost! (02:17)
23. Stereo Shoestring – On The Road South (02:13)
24. Zakary Thaks – Can't You Hear Your Daddy's Footsteps (02:28)
25. Caretakers Of Deception – Cuttin' Grass (02:31)
26. Remaining Few – Painted Air (03:37)
27. Teddy & His Patches – Suzy Creamcheese (03:10)
28. Indian Puddin' & Pipe – Hashish (03:02)
EAC extraction logfile from 18. October 2009, 18:53 for CD
Various / Acid Dreams Testament (75 Minutes Of Psychotic Terror)

Used drive : TSSTcorpCDDVDW SH-S223Q Adapter: 2 ID: 1
Read mode : Secure with NO C2, accurate stream, disable cache
Read offset correction : 6
Overread into Lead-In and Lead-Out : No

Used output format : C:\Program Files\Exact Audio Copy\FLAC\flac.exe (User Defined Encoder)
192 kBit/s
Additional command line options : -V -5 -T "artist=%a" -T "title=%t" -T "album=%g" -T "date=%y" -T "tracknumber=%n" -T "genre=%m" %s

Other options :
Fill up missing offset samples with silence : Yes
Delete leading and trailing silent blocks : No
Installed external ASPI interface


Track 1
Filename G:\Audio\up\Acid Dreams Testament\01 - Balloon Farm - Question Of Temperature.wav

Pre-gap length 0:00:02.00

Peak level 97.6 %
Track quality 99.9 %
Test CRC 2BE35380
Copy CRC 2BE35380
Copy OK

Track 2
Filename G:\Audio\up\Acid Dreams Testament\02 - Music Machine - You Love Me Again.wav

Peak level 97.5 %
Track quality 99.9 %
Test CRC 5831EB95
Copy CRC 5831EB95
Copy OK

Track 3
Filename G:\Audio\up\Acid Dreams Testament\03 - Painted Faces - Anxious Color.wav

Peak level 100.0 %
Track quality 99.9 %
Test CRC AD9C539A
Copy CRC AD9C539A
Copy OK

Track 4
Filename G:\Audio\up\Acid Dreams Testament\04 - Velvet Illusions - Velvet Illusions.wav

Peak level 98.7 %
Track quality 100.0 %
Test CRC 16C3E32F
Copy CRC 16C3E32F
Copy OK

Track 5
Filename G:\Audio\up\Acid Dreams Testament\05 - Unrelated Segments - Cry Cry Cry.wav

Peak level 96.4 %
Track quality 100.0 %
Test CRC 485B2620
Copy CRC 485B2620
Copy OK

Track 6
Filename G:\Audio\up\Acid Dreams Testament\06 - Outcasts - Set Me Free.wav

Peak level 98.8 %
Track quality 100.0 %
Test CRC 1987ED59
Copy CRC 1987ED59
Copy OK

Track 7
Filename G:\Audio\up\Acid Dreams Testament\07 - Murphy & The Mob - Born Loser.wav

Peak level 98.2 %
Track quality 99.9 %
Test CRC 4DAAC3CF
Copy CRC 4DAAC3CF
Copy OK

Track 8
Filename G:\Audio\up\Acid Dreams Testament\08 - Sparkles - No Friend Of Mine.wav

Peak level 99.6 %
Track quality 99.9 %
Test CRC 94FDC5B9
Copy CRC 94FDC5B9
Copy OK

Track 9
Filename G:\Audio\up\Acid Dreams Testament\09 - Painted Ship - Frustration.wav

Peak level 97.9 %
Track quality 100.0 %
Test CRC A1B4B4FC
Copy CRC A1B4B4FC
Copy OK

Track 10
Filename G:\Audio\up\Acid Dreams Testament\10 - Mouse Of Traps - Maid Of Sugar.wav

Peak level 100.0 %
Track quality 100.0 %
Test CRC A4AA94EF
Copy CRC A4AA94EF
Copy OK

Track 11
Filename G:\Audio\up\Acid Dreams Testament\11 - Macabre - Be Forwarned.wav

Peak level 99.1 %
Track quality 100.0 %
Test CRC E297A6E3
Copy CRC E297A6E3
Copy OK

Track 12
Filename G:\Audio\up\Acid Dreams Testament\12 - Calico Wall - I'm A Living Sickness.wav

Peak level 98.8 %
Track quality 100.0 %
Test CRC F754637E
Copy CRC F754637E
Copy OK

Track 13
Filename G:\Audio\up\Acid Dreams Testament\13 - Velvet Illusions - Acid Head.wav

Peak level 98.8 %
Track quality 100.0 %
Test CRC 09CE685D
Copy CRC 09CE685D
Copy OK

Track 14
Filename G:\Audio\up\Acid Dreams Testament\14 - White Light - William.wav

Peak level 98.8 %
Track quality 100.0 %
Test CRC F986F4BA
Copy CRC F986F4BA
Copy OK

Track 15
Filename G:\Audio\up\Acid Dreams Testament\15 - Outcasts - 1523 Blair.wav

Peak level 99.9 %
Track quality 100.0 %
Test CRC FA6651CB
Copy CRC FA6651CB
Copy OK

Track 16
Filename G:\Audio\up\Acid Dreams Testament\16 - Zakary Thaks - I Need You.wav

Peak level 98.9 %
Track quality 100.0 %
Test CRC 50762788
Copy CRC 50762788
Copy OK

Track 17
Filename G:\Audio\up\Acid Dreams Testament\17 - Painted Ship - Little White Lies.wav

Peak level 97.2 %
Track quality 100.0 %
Test CRC 781CA104
Copy CRC 781CA104
Copy OK

Track 18
Filename G:\Audio\up\Acid Dreams Testament\18 - Swamp Rats - Loui Loui.wav

Peak level 99.0 %
Track quality 99.9 %
Test CRC DFB03A64
Copy CRC DFB03A64
Copy OK

Track 19
Filename G:\Audio\up\Acid Dreams Testament\19 - Unrelated Segments - It's Unfair.wav

Peak level 97.1 %
Track quality 99.9 %
Test CRC EA680589
Copy CRC EA680589
Copy OK

Track 20
Filename G:\Audio\up\Acid Dreams Testament\20 - Shy Guys - Black Lightning Light.wav

Peak level 97.4 %
Track quality 100.0 %
Test CRC BFCA9100
Copy CRC BFCA9100
Copy OK

Track 21
Filename G:\Audio\up\Acid Dreams Testament\21 - Bourbons - Dark Corner.wav

Peak level 97.2 %
Track quality 100.0 %
Test CRC 384DC155
Copy CRC 384DC155
Copy OK

Track 22
Filename G:\Audio\up\Acid Dreams Testament\22 - Mind's Eye - Help, I'm Lost.wav

Peak level 88.8 %
Track quality 100.0 %
Test CRC FC3ACB37
Copy CRC FC3ACB37
Copy OK

Track 23
Filename G:\Audio\up\Acid Dreams Testament\23 - Stereo Shoestrings - On The Road South.wav

Peak level 98.9 %
Track quality 99.9 %
Test CRC EB9AF0C9
Copy CRC EB9AF0C9
Copy OK

Track 24
Filename G:\Audio\up\Acid Dreams Testament\24 - Zakary Thaks - Can You Hear.wav

Peak level 96.8 %
Track quality 100.0 %
Test CRC C6434770
Copy CRC C6434770
Copy OK

Track 25
Filename G:\Audio\up\Acid Dreams Testament\25 - Caretakers Of Deception - Cuttin' Grass.wav

Peak level 95.5 %
Track quality 99.9 %
Test CRC 421D16F6
Copy CRC 421D16F6
Copy OK

Track 26
Filename G:\Audio\up\Acid Dreams Testament\26 - Remaining Few - Painted Air.wav

Peak level 70.3 %
Track quality 99.9 %
Test CRC 0DA37C6F
Copy CRC 0DA37C6F
Copy OK

Track 27
Filename G:\Audio\up\Acid Dreams Testament\27 - Teddy & His Patches - Suzy Creamcheese.wav

Peak level 100.0 %
Track quality 100.0 %
Test CRC 30146B7F
Copy CRC 30146B7F
Copy OK

Track 28
Filename G:\Audio\up\Acid Dreams Testament\28 - Indian Puddin' & Pipe - Hashish.wav

Peak level 96.9 %
Track quality 100.0 %
Test CRC 4A3D05C2
Copy CRC 4A3D05C2
Copy OK

No errors occured


End of status report


Discogs