Subcategories

Adam And The Ants - The Very Best Of Adam And The Ants (1999) [Re-Up]

Posted By: Designol
Adam And The Ants - The Very Best Of Adam And The Ants (1999) [Re-Up]

Adam And The Ants - The Very Best Of Adam And The Ants (1999)
EAC | FLAC | Tracks (Cue&Log) ~ 545 Mb (incl 5%) | Mp3 (CBR320) ~ 195 Mb (incl 5%) | Scans included
Genre: Post-Punk, New Wave, Dance Rock | Label: Columbia | # 494229 2, 4942292006 | Time: 01:18:17

The Very Best of Adam And The Ants is a greatest hits compilation album. It includes songs from Adam and the Ants & Adam Ant's solo works, with all their hits and pop faves, like "Stand & Deliver", "Dog Eat Dog", "Prince Charming", "Goody Two Shoes", "Puss N Boots", "Friend Or Foe" and many more. 22 tracks.

There have been a fair few Adam Ant collections - after all he was a 'hit machine' for the first half of the 80s and more famous than many subsequent chart acts (not to mention far more talented). What I loved about Adam and the Ants was the whole package - music, image, attitude, and style were all superb, and he could teach today's drearily po-faced performers a thing or two (thank goodness for La Roux).

The tracks here are in no particular chronological order, but you get two real gems to kick off with: The birth of the 'Dandy Highwayman' in the brilliant 'Stand and Deliver', followed by the percussive anthem and breakthrough hit 'Kings of the Wild Frontier'. 'Dog Eat Dog' harks back to the band's punk origins, whilst 'Wonderful' is the nearest they get to a ballad and is not as dire as many would suggest. Adam's 1989 comeback hit 'Room at the Top' sees him bowing out in style, and the ubiquitous 'Prince Charming' reminds faithful ants that 'ridicule is indeed nothing to be scared of'! There are 16 more slices of pop excellence on the disc, with the understated 'Can't Set Rules about Love' and frankly bonkers 'Apollo 9' also warranting specfic mention.

So, dust off your tricorn hat, daub the war paint on your face, and wallow in 22 tracks of majestic pop perfection.

Review by Captain Pugwash, Amazon.co.uk

Adam And The Ants at Allmusic
Adam And The Ants Website
Adam And The Ants at Wiki

Tracklist:

01. Adam & The Ants - Stand And Deliver (03:10)
02. Adam & The Ants - Kings Of The Wild Frontier (03:54)
03. Adam & The Ants - Dog Eat Dog (03:09)
04. Adam Ant - Wonderful (04:22)
05. Adam Ant - Room At The Top (04:43)
06. Adam Ant - Apollo 9 (03:24)
07. Adam & The Ants - Cartrouble (03:25)
08. Adam & The Ants - Friends (03:33)
09. Adam Ant - Desperate But Not Serious (03:56)
10. Adam & The Ants - Prince Charming (03:17)
11. Adam Ant - Goody Two Shoes (03:20)
12. Adam Ant - Puss 'N' Boots (04:02)
13. Adam Ant - Friend Or Foe (03:24)
14. Adam Ant - Strip (03:58)
15. Adam Ant - Vive Le Rock (03:39)
16. Adam & The Ants - Zerox (03:46)
17. Adam & The Ants - Antmusic (03:36)
18. Adam & The Ants - Deutscher Girls (02:27)
19. Adam & The Ants - Ant Rap (03:15)
20. Adam & The Ants - Kick (02:06)
21. Adam & The Ants - Young Parisians (02:59)
22. Adam Ant - Can't Set Rules About Love (04:42)


Exact Audio Copy V1.0 beta 3 from 29. August 2011

EAC extraction logfile from 26. June 2014, 10:10

Adam & The Ants / The Very Best Of 1999

Used drive : HL-DT-STDVDRAM GSA-T50L Adapter: 1 ID: 0

Read mode : Secure
Utilize accurate stream : Yes
Defeat audio cache : No
Make use of C2 pointers : No

Read offset correction : 667
Overread into Lead-In and Lead-Out : No
Fill up missing offset samples with silence : Yes
Delete leading and trailing silent blocks : No
Null samples used in CRC calculations : Yes
Used interface : Native Win32 interface for Win NT & 2000
Gap handling : Appended to previous track

Used output format : User Defined Encoder
Selected bitrate : 1024 kBit/s
Quality : High
Add ID3 tag : No
Command line compressor : C:\Program Files\Exact Audio Copy\Flac\flac.exe
Additional command line options : -8 -V -T "ARTIST=%artist%" -T "TITLE=%title%" -T "ALBUM=%albumtitle%" -T "DATE=%year%" -T "TRACKNUMBER=%tracknr%" -T "GENRE=%genre%" -T "PERFORMER=%albuminterpret%" -T "COMPOSER=%composer%" %haslyrics%–tag-from-file=LYRICS="%lyricsfile%"%haslyrics% -T "ALBUMARTIST=%albumartist%" -T "DISCNUMBER=%cdnumber%" -T "TOTALDISCS=%totalcds%" -T "TOTALTRACKS=%numtracks%" -T "COMMENT=%comment%" %source% -o %dest%


TOC of the extracted CD

Track | Start | Length | Start sector | End sector
––––––––––––––––––––––––––––-
1 | 0:00.00 | 3:10.37 | 0 | 14286
2 | 3:10.37 | 3:54.28 | 14287 | 31864
3 | 7:04.65 | 3:09.25 | 31865 | 46064
4 | 10:14.15 | 4:22.02 | 46065 | 65716
5 | 14:36.17 | 4:43.20 | 65717 | 86961
6 | 19:19.37 | 3:24.65 | 86962 | 102326
7 | 22:44.27 | 3:25.40 | 102327 | 117741
8 | 26:09.67 | 3:33.73 | 117742 | 133789
9 | 29:43.65 | 3:56.37 | 133790 | 151526
10 | 33:40.27 | 3:17.48 | 151527 | 166349
11 | 36:58.00 | 3:20.27 | 166350 | 181376
12 | 40:18.27 | 4:02.18 | 181377 | 199544
13 | 44:20.45 | 3:24.60 | 199545 | 214904
14 | 47:45.30 | 3:58.45 | 214905 | 232799
15 | 51:44.00 | 3:39.60 | 232800 | 249284
16 | 55:23.60 | 3:46.60 | 249285 | 266294
17 | 59:10.45 | 3:36.42 | 266295 | 282536
18 | 62:47.12 | 2:27.40 | 282537 | 293601
19 | 65:14.52 | 3:15.73 | 293602 | 308299
20 | 68:30.50 | 2:06.05 | 308300 | 317754
21 | 70:36.55 | 2:59.05 | 317755 | 331184
22 | 73:35.60 | 4:42.02 | 331185 | 352336


Track 1

Filename C:\FLAC\01 - Adam & The Ants - Stand And Deliver.wav

Pre-gap length 0:00:02.00

Peak level 97.7 %
Extraction speed 4.1 X
Track quality 100.0 %
Test CRC 79F53631
Copy CRC 79F53631
Accurately ripped (confidence 15) [ADBFE3E8] (AR v2)
Copy OK

Track 2

Filename C:\FLAC\02 - Adam & The Ants - Kings Of The Wild Frontier.wav

Peak level 97.7 %
Extraction speed 4.5 X
Track quality 99.9 %
Test CRC 394B90FD
Copy CRC 394B90FD
Accurately ripped (confidence 15) [6A366379] (AR v2)
Copy OK

Track 3

Filename C:\FLAC\03 - Adam & The Ants - Dog Eat Dog.wav

Peak level 97.7 %
Extraction speed 5.0 X
Track quality 100.0 %
Test CRC 9FDE770E
Copy CRC 9FDE770E
Accurately ripped (confidence 15) [572DFCDC] (AR v2)
Copy OK

Track 4

Filename C:\FLAC\04 - Adam Ant - Wonderful.wav

Peak level 87.1 %
Extraction speed 5.3 X
Track quality 100.0 %
Test CRC 72E926BC
Copy CRC 72E926BC
Accurately ripped (confidence 15) [8C52EE05] (AR v2)
Copy OK

Track 5

Filename C:\FLAC\05 - Adam Ant - Room At The Top.wav

Peak level 87.1 %
Extraction speed 5.7 X
Track quality 100.0 %
Test CRC DBFFEE21
Copy CRC DBFFEE21
Accurately ripped (confidence 15) [124F03B9] (AR v2)
Copy OK

Track 6

Filename C:\FLAC\06 - Adam Ant - Apollo 9.wav

Peak level 97.6 %
Extraction speed 5.8 X
Track quality 99.9 %
Test CRC F0B1AEDD
Copy CRC F0B1AEDD
Accurately ripped (confidence 15) [55505241] (AR v2)
Copy OK

Track 7

Filename C:\FLAC\07 - Adam & The Ants - Cartrouble.wav

Peak level 87.1 %
Extraction speed 6.0 X
Track quality 99.9 %
Test CRC E3FACA6A
Copy CRC E3FACA6A
Accurately ripped (confidence 15) [24DDEC25] (AR v2)
Copy OK

Track 8

Filename C:\FLAC\08 - Adam & The Ants - Friends.wav

Peak level 87.1 %
Extraction speed 6.3 X
Track quality 100.0 %
Test CRC DE539064
Copy CRC DE539064
Accurately ripped (confidence 15) [C7F54144] (AR v2)
Copy OK

Track 9

Filename C:\FLAC\09 - Adam Ant - Desperate But Not Serious.wav

Peak level 87.1 %
Extraction speed 6.8 X
Track quality 100.0 %
Test CRC DAF9FC23
Copy CRC DAF9FC23
Accurately ripped (confidence 15) [A6E8E609] (AR v2)
Copy OK

Track 10

Filename C:\FLAC\10 - Adam & The Ants - Prince Charming.wav

Pre-gap length 0:00:01.16

Peak level 87.1 %
Extraction speed 7.0 X
Track quality 100.0 %
Test CRC 2D272618
Copy CRC 2D272618
Accurately ripped (confidence 15) [A8AEE22D] (AR v2)
Copy OK

Track 11

Filename C:\FLAC\11 - Adam Ant - Goody Two Shoes.wav

Peak level 87.1 %
Extraction speed 6.9 X
Track quality 100.0 %
Test CRC 97FAEA37
Copy CRC 97FAEA37
Accurately ripped (confidence 15) [BCE5D0E6] (AR v2)
Copy OK

Track 12

Filename C:\FLAC\12 - Adam Ant - Puss 'N' Boots.wav

Peak level 92.2 %
Extraction speed 7.2 X
Track quality 100.0 %
Test CRC 25DCDB1F
Copy CRC 25DCDB1F
Accurately ripped (confidence 15) [3AF180B7] (AR v2)
Copy OK

Track 13

Filename C:\FLAC\13 - Adam Ant - Friend Or Foe.wav

Peak level 87.1 %
Extraction speed 7.4 X
Track quality 100.0 %
Test CRC 72FDE9BF
Copy CRC 72FDE9BF
Accurately ripped (confidence 15) [47F196ED] (AR v2)
Copy OK

Track 14

Filename C:\FLAC\14 - Adam Ant - Strip.wav

Peak level 97.7 %
Extraction speed 7.6 X
Track quality 100.0 %
Test CRC 3A6C533C
Copy CRC 3A6C533C
Accurately ripped (confidence 14) [7D2F7FC1] (AR v2)
Copy OK

Track 15

Filename C:\FLAC\15 - Adam Ant - Vive Le Rock.wav

Peak level 94.1 %
Extraction speed 8.0 X
Track quality 100.0 %
Test CRC 8FC47333
Copy CRC 8FC47333
Accurately ripped (confidence 13) [ABEAC7BA] (AR v2)
Copy OK

Track 16

Filename C:\FLAC\16 - Adam & The Ants - Zerox.wav

Peak level 91.4 %
Extraction speed 8.3 X
Track quality 100.0 %
Test CRC DDC62BC8
Copy CRC DDC62BC8
Accurately ripped (confidence 15) [013280A5] (AR v2)
Copy OK

Track 17

Filename C:\FLAC\17 - Adam & The Ants - Antmusic.wav

Peak level 97.7 %
Extraction speed 8.3 X
Track quality 100.0 %
Test CRC EEE4503D
Copy CRC EEE4503D
Accurately ripped (confidence 14) [C9864930] (AR v2)
Copy OK

Track 18

Filename C:\FLAC\18 - Adam & The Ants - Deutscher Girls.wav

Peak level 97.7 %
Extraction speed 8.6 X
Track quality 100.0 %
Test CRC B5185058
Copy CRC B5185058
Accurately ripped (confidence 15) [29D71B48] (AR v2)
Copy OK

Track 19

Filename C:\FLAC\19 - Adam & The Ants - Ant Rap.wav

Peak level 85.0 %
Extraction speed 8.7 X
Track quality 100.0 %
Test CRC 052BBD3D
Copy CRC 052BBD3D
Accurately ripped (confidence 15) [AEC1DD3D] (AR v2)
Copy OK

Track 20

Filename C:\FLAC\20 - Adam & The Ants - Kick.wav

Peak level 87.1 %
Extraction speed 8.4 X
Track quality 100.0 %
Test CRC 31E0D1F2
Copy CRC 31E0D1F2
Accurately ripped (confidence 14) [98D68FD5] (AR v2)
Copy OK

Track 21

Filename C:\FLAC\21 - Adam & The Ants - Young Parisians.wav

Peak level 91.8 %
Extraction speed 8.6 X
Track quality 100.0 %
Test CRC 76D1AFDB
Copy CRC 76D1AFDB
Accurately ripped (confidence 14) [E825653F] (AR v2)
Copy OK

Track 22

Filename C:\FLAC\22 - Adam Ant - Can't Set Rules About Love.wav

Peak level 97.7 %
Extraction speed 9.2 X
Track quality 100.0 %
Test CRC 513345AC
Copy CRC 513345AC
Accurately ripped (confidence 15) [468E1666] (AR v2)
Copy OK


All tracks accurately ripped

No errors occurred

End of status report

–– CUETools DB Plugin V2.1.3

[CTDB TOCID: M2UZ8LNnOvtukzlooRp6gr2FjnM-] found, Submit result: M2UZ8LNnOvtukzlooRp6gr2FjnM- has been confirmed
[5c1b36a2] (13/14) Accurately ripped
[2fdfd1fc] (01/14) No match


==== Log checksum 0FC60851A4DEDCC15CBAFEBE7307CDB2D0DC03E9C3CFC7A106BD55961DE3DCB5 ====

––––––––––––––––––––––––––––––

Exact Audio Copy V1.0 beta 3 from 29. August 2011

EAC extraction logfile from 26. June 2014, 10:10

Adam & The Ants / The Very Best Of 1999

Used drive : HL-DT-STDVDRAM GSA-T50L Adapter: 1 ID: 0

Read mode : Secure
Utilize accurate stream : Yes
Defeat audio cache : No
Make use of C2 pointers : No

Read offset correction : 667
Overread into Lead-In and Lead-Out : No
Fill up missing offset samples with silence : Yes
Delete leading and trailing silent blocks : No
Null samples used in CRC calculations : Yes
Used interface : Native Win32 interface for Win NT & 2000
Gap handling : Appended to previous track

Used output format : User Defined Encoder
Selected bitrate : 1024 kBit/s
Quality : High
Add ID3 tag : No
Command line compressor : C:\Program Files\Exact Audio Copy\Flac\flac.exe
Additional command line options : -8 -V -T "ARTIST=%artist%" -T "TITLE=%title%" -T "ALBUM=%albumtitle%" -T "DATE=%year%" -T "TRACKNUMBER=%tracknr%" -T "GENRE=%genre%" -T "PERFORMER=%albuminterpret%" -T "COMPOSER=%composer%" %haslyrics%–tag-from-file=LYRICS="%lyricsfile%"%haslyrics% -T "ALBUMARTIST=%albumartist%" -T "DISCNUMBER=%cdnumber%" -T "TOTALDISCS=%totalcds%" -T "TOTALTRACKS=%numtracks%" -T "COMMENT=%comment%" %source% -o %dest%


TOC of the extracted CD

Track | Start | Length | Start sector | End sector
––––––––––––––––––––––––––––-
1 | 0:00.00 | 3:10.37 | 0 | 14286
2 | 3:10.37 | 3:54.28 | 14287 | 31864
3 | 7:04.65 | 3:09.25 | 31865 | 46064
4 | 10:14.15 | 4:22.02 | 46065 | 65716
5 | 14:36.17 | 4:43.20 | 65717 | 86961
6 | 19:19.37 | 3:24.65 | 86962 | 102326
7 | 22:44.27 | 3:25.40 | 102327 | 117741
8 | 26:09.67 | 3:33.73 | 117742 | 133789
9 | 29:43.65 | 3:56.37 | 133790 | 151526
10 | 33:40.27 | 3:17.48 | 151527 | 166349
11 | 36:58.00 | 3:20.27 | 166350 | 181376
12 | 40:18.27 | 4:02.18 | 181377 | 199544
13 | 44:20.45 | 3:24.60 | 199545 | 214904
14 | 47:45.30 | 3:58.45 | 214905 | 232799
15 | 51:44.00 | 3:39.60 | 232800 | 249284
16 | 55:23.60 | 3:46.60 | 249285 | 266294
17 | 59:10.45 | 3:36.42 | 266295 | 282536
18 | 62:47.12 | 2:27.40 | 282537 | 293601
19 | 65:14.52 | 3:15.73 | 293602 | 308299
20 | 68:30.50 | 2:06.05 | 308300 | 317754
21 | 70:36.55 | 2:59.05 | 317755 | 331184
22 | 73:35.60 | 4:42.02 | 331185 | 352336


Track 1

Filename C:\FLAC\01 - Adam & The Ants - Stand And Deliver.wav

Pre-gap length 0:00:02.00

Peak level 97.7 %
Extraction speed 4.1 X
Track quality 100.0 %
Test CRC 79F53631
Copy CRC 79F53631
Accurately ripped (confidence 15) [ADBFE3E8] (AR v2)
Copy OK

Track 2

Filename C:\FLAC\02 - Adam & The Ants - Kings Of The Wild Frontier.wav

Peak level 97.7 %
Extraction speed 4.5 X
Track quality 99.9 %
Test CRC 394B90FD
Copy CRC 394B90FD
Accurately ripped (confidence 15) [6A366379] (AR v2)
Copy OK

Track 3

Filename C:\FLAC\03 - Adam & The Ants - Dog Eat Dog.wav

Peak level 97.7 %
Extraction speed 5.0 X
Track quality 100.0 %
Test CRC 9FDE770E
Copy CRC 9FDE770E
Accurately ripped (confidence 15) [572DFCDC] (AR v2)
Copy OK

Track 4

Filename C:\FLAC\04 - Adam Ant - Wonderful.wav

Peak level 87.1 %
Extraction speed 5.3 X
Track quality 100.0 %
Test CRC 72E926BC
Copy CRC 72E926BC
Accurately ripped (confidence 15) [8C52EE05] (AR v2)
Copy OK

Track 5

Filename C:\FLAC\05 - Adam Ant - Room At The Top.wav

Peak level 87.1 %
Extraction speed 5.7 X
Track quality 100.0 %
Test CRC DBFFEE21
Copy CRC DBFFEE21
Accurately ripped (confidence 15) [124F03B9] (AR v2)
Copy OK

Track 6

Filename C:\FLAC\06 - Adam Ant - Apollo 9.wav

Peak level 97.6 %
Extraction speed 5.8 X
Track quality 99.9 %
Test CRC F0B1AEDD
Copy CRC F0B1AEDD
Accurately ripped (confidence 15) [55505241] (AR v2)
Copy OK

Track 7

Filename C:\FLAC\07 - Adam & The Ants - Cartrouble.wav

Peak level 87.1 %
Extraction speed 6.0 X
Track quality 99.9 %
Test CRC E3FACA6A
Copy CRC E3FACA6A
Accurately ripped (confidence 15) [24DDEC25] (AR v2)
Copy OK

Track 8

Filename C:\FLAC\08 - Adam & The Ants - Friends.wav

Peak level 87.1 %
Extraction speed 6.3 X
Track quality 100.0 %
Test CRC DE539064
Copy CRC DE539064
Accurately ripped (confidence 15) [C7F54144] (AR v2)
Copy OK

Track 9

Filename C:\FLAC\09 - Adam Ant - Desperate But Not Serious.wav

Peak level 87.1 %
Extraction speed 6.8 X
Track quality 100.0 %
Test CRC DAF9FC23
Copy CRC DAF9FC23
Accurately ripped (confidence 15) [A6E8E609] (AR v2)
Copy OK

Track 10

Filename C:\FLAC\10 - Adam & The Ants - Prince Charming.wav

Pre-gap length 0:00:01.16

Peak level 87.1 %
Extraction speed 7.0 X
Track quality 100.0 %
Test CRC 2D272618
Copy CRC 2D272618
Accurately ripped (confidence 15) [A8AEE22D] (AR v2)
Copy OK

Track 11

Filename C:\FLAC\11 - Adam Ant - Goody Two Shoes.wav

Peak level 87.1 %
Extraction speed 6.9 X
Track quality 100.0 %
Test CRC 97FAEA37
Copy CRC 97FAEA37
Accurately ripped (confidence 15) [BCE5D0E6] (AR v2)
Copy OK

Track 12

Filename C:\FLAC\12 - Adam Ant - Puss 'N' Boots.wav

Peak level 92.2 %
Extraction speed 7.2 X
Track quality 100.0 %
Test CRC 25DCDB1F
Copy CRC 25DCDB1F
Accurately ripped (confidence 15) [3AF180B7] (AR v2)
Copy OK

Track 13

Filename C:\FLAC\13 - Adam Ant - Friend Or Foe.wav

Peak level 87.1 %
Extraction speed 7.4 X
Track quality 100.0 %
Test CRC 72FDE9BF
Copy CRC 72FDE9BF
Accurately ripped (confidence 15) [47F196ED] (AR v2)
Copy OK

Track 14

Filename C:\FLAC\14 - Adam Ant - Strip.wav

Peak level 97.7 %
Extraction speed 7.6 X
Track quality 100.0 %
Test CRC 3A6C533C
Copy CRC 3A6C533C
Accurately ripped (confidence 14) [7D2F7FC1] (AR v2)
Copy OK

Track 15

Filename C:\FLAC\15 - Adam Ant - Vive Le Rock.wav

Peak level 94.1 %
Extraction speed 8.0 X
Track quality 100.0 %
Test CRC 8FC47333
Copy CRC 8FC47333
Accurately ripped (confidence 13) [ABEAC7BA] (AR v2)
Copy OK

Track 16

Filename C:\FLAC\16 - Adam & The Ants - Zerox.wav

Peak level 91.4 %
Extraction speed 8.3 X
Track quality 100.0 %
Test CRC DDC62BC8
Copy CRC DDC62BC8
Accurately ripped (confidence 15) [013280A5] (AR v2)
Copy OK

Track 17

Filename C:\FLAC\17 - Adam & The Ants - Antmusic.wav

Peak level 97.7 %
Extraction speed 8.3 X
Track quality 100.0 %
Test CRC EEE4503D
Copy CRC EEE4503D
Accurately ripped (confidence 14) [C9864930] (AR v2)
Copy OK

Track 18

Filename C:\FLAC\18 - Adam & The Ants - Deutscher Girls.wav

Peak level 97.7 %
Extraction speed 8.6 X
Track quality 100.0 %
Test CRC B5185058
Copy CRC B5185058
Accurately ripped (confidence 15) [29D71B48] (AR v2)
Copy OK

Track 19

Filename C:\FLAC\19 - Adam & The Ants - Ant Rap.wav

Peak level 85.0 %
Extraction speed 8.7 X
Track quality 100.0 %
Test CRC 052BBD3D
Copy CRC 052BBD3D
Accurately ripped (confidence 15) [AEC1DD3D] (AR v2)
Copy OK

Track 20

Filename C:\FLAC\20 - Adam & The Ants - Kick.wav

Peak level 87.1 %
Extraction speed 8.4 X
Track quality 100.0 %
Test CRC 31E0D1F2
Copy CRC 31E0D1F2
Accurately ripped (confidence 14) [98D68FD5] (AR v2)
Copy OK

Track 21

Filename C:\FLAC\21 - Adam & The Ants - Young Parisians.wav

Peak level 91.8 %
Extraction speed 8.6 X
Track quality 100.0 %
Test CRC 76D1AFDB
Copy CRC 76D1AFDB
Accurately ripped (confidence 14) [E825653F] (AR v2)
Copy OK

Track 22

Filename C:\FLAC\22 - Adam Ant - Can't Set Rules About Love.wav

Peak level 97.7 %
Extraction speed 9.2 X
Track quality 100.0 %
Test CRC 513345AC
Copy CRC 513345AC
Accurately ripped (confidence 15) [468E1666] (AR v2)
Copy OK


All tracks accurately ripped

No errors occurred

End of status report

–– CUETools DB Plugin V2.1.3

[CTDB TOCID: M2UZ8LNnOvtukzlooRp6gr2FjnM-] found, Submit result: M2UZ8LNnOvtukzlooRp6gr2FjnM- has been confirmed
[5c1b36a2] (13/14) Accurately ripped
[2fdfd1fc] (01/14) No match


==== Log checksum 0FC60851A4DEDCC15CBAFEBE7307CDB2D0DC03E9C3CFC7A106BD55961DE3DCB5 ====

foobar2000 1.2 / Dynamic Range Meter 1.1.1
log date: 2014-08-27 17:30:54

––––––––––––––––––––––––––––––––––––––––
Analyzed: Adam & The Ants / The Very Best Of 1999 (1-12)
Adam Ant / The Very Best Of 1999 (13-22)
––––––––––––––––––––––––––––––––––––––––

DR Peak RMS Duration Track
––––––––––––––––––––––––––––––––––––––––
DR9 -0.20 dB -11.56 dB 3:10 01-Stand And Deliver
DR11 -0.20 dB -14.03 dB 3:54 02-Kings Of The Wild Frontier
DR12 -0.20 dB -13.50 dB 3:09 03-Dog Eat Dog
DR10 -1.20 dB -13.02 dB 3:26 07-Cartrouble
DR12 -1.20 dB -14.32 dB 3:34 08-Friends
DR11 -1.20 dB -13.45 dB 3:18 10-Prince Charming
DR8 -0.78 dB -12.43 dB 3:47 16-Zerox
DR13 -0.20 dB -15.07 dB 3:37 17-Antmusic
DR10 -0.20 dB -11.41 dB 2:28 18-Deutscher Girls
DR11 -1.41 dB -14.45 dB 3:16 19-Ant Rap
DR9 -1.20 dB -11.76 dB 2:06 20-Kick
DR12 -0.74 dB -17.25 dB 2:59 21-Young Parisians
DR8 -1.20 dB -10.58 dB 4:22 04-Wonderful
DR10 -1.20 dB -12.01 dB 4:43 05-Room At The Top
DR9 -0.21 dB -10.57 dB 3:25 06-Apollo 9
DR8 -1.20 dB -10.04 dB 3:56 09-Desperate But Not Serious
DR9 -1.20 dB -10.82 dB 3:20 11-Goody Two Shoes
DR11 -0.70 dB -13.29 dB 4:02 12-Puss 'N' Boots
DR10 -1.19 dB -12.78 dB 3:25 13-Friend Or Foe
DR12 -0.20 dB -13.39 dB 3:59 14-Strip
DR8 -0.53 dB -9.68 dB 3:40 15-Vive Le Rock
DR11 -0.20 dB -12.30 dB 4:42 22-Can't Set Rules About Love
––––––––––––––––––––––––––––––––––––––––

Number of tracks: 22
Official DR value: DR10

Samplerate: 44100 Hz
Channels: 2
Bits per sample: 16
Bitrate: 981 kbps
Codec: FLAC
================================================================================

Adam And The Ants - The Very Best Of Adam And The Ants (1999) [Re-Up]

Adam And The Ants - The Very Best Of Adam And The Ants (1999) [Re-Up]

All thanks to original releaser - only1joe

More interesting music in My Blog