Tags
Language
Tags

Stanley Clarke, Al Di Meola, Jean-Luc Ponty - The Rite Of Strings (1995)

Posted By: v3122
Stanley Clarke, Al Di Meola, Jean-Luc Ponty - The Rite Of Strings (1995)

Stanley Clarke, Al Di Meola, Jean-Luc Ponty - The Rite Of Strings (1995)
EAC | Flac(Image) + Cue + Log & MP3 CBR 320Kbps
I.R.S./Gai Saber, 7243 8 34167 2 1 | Holland | ~ 286 or 132 Mb | Artwork(jpg) -> 29 Mb
Acoustic Jazz

Any time the likes of Stanley Clarke, Al DiMeola and Jean-Luc Ponty are assembled, there is a good chance the results are going to be impressive. Clarke and DiMeola had played together in the legendary Return to Forever, producing some of the most intense playing in all of fusion; Jean-Luc Ponty had also made several excellent, very diverse recordings. The chops of these three musicians are pretty much unsurpassed in the industry, which in itself makes Rite of Strings worthy of a listen. The real treat, however, is in the song selections. Three of DiMeola's more recent compositions are here, including the uplifting "Chilean Pipe Song." On this song, Clarke and Ponty's dual-bow sound provides a nice backdrop to DiMeola's introduction before DiMeola and Ponty state the melody together. Ponty has always been one of the more interesting violinists, mostly because he experiments with the instrument's tonal possibilities. His plucking introduction to "Renassaince" and the strumming on "Change of Life" are evidence of this. Clarke's finest moment comes on his own beautiful "Topanga," on which his bow playing is enough to evoke tears. This is a classic recording that should not be missed; the integrity, musicianship, compositions, and improvisations are all first-rate.

by Robert Taylor, allmusic
Stanley Clarke, Al Di Meola, Jean-Luc Ponty - The Rite Of Strings (1995):

Stanley Clarke, Al Di Meola, Jean-Luc Ponty - The Rite Of Strings (1995)

Tracklist:

01. Indigo (7:13)
02. Renassaince (4:36)
03. Song To John (dedicated to John Coltrane) (6:03)
04. Chilean Pipe Song (6:14)
05. Topanga (5:56)
06. Morocco (5:44)
07. Change Of Life (5:29)
08. La Cancion De Sofia (8:33)
09. Memory Canyon (6:01)

Exact Audio Copy V1.1 from 23. June 2015

EAC extraction logfile from 9. October 2015, 13:04

Stanley Clarke, Al Di Meola, Jean-Luc.Ponty / The Rite of Strings (7243 8 34167 2 1)

Used drive : HL-DT-STDVDRAM GE20NU11 Adapter: 1 ID: 0

Read mode : Secure
Utilize accurate stream : Yes
Defeat audio cache : Yes
Make use of C2 pointers : No

Read offset correction : 667
Overread into Lead-In and Lead-Out : No
Fill up missing offset samples with silence : Yes
Delete leading and trailing silent blocks : No
Null samples used in CRC calculations : Yes
Used interface : Native Win32 interface for Win NT & 2000

Used output format : User Defined Encoder
Selected bitrate : 896 kBit/s
Quality : High
Add ID3 tag : No
Command line compressor : C:\Program Files\EAC 3\Exact Audio Copy\Flac\flac.exe
Additional command line options : -V -8 %source%


TOC of the extracted CD

Track | Start | Length | Start sector | End sector
––––––––––––––––––––––––––––-
1 | 0:00.33 | 7:13.15 | 33 | 32522
2 | 7:13.48 | 4:36.17 | 32523 | 53239
3 | 11:49.65 | 6:03.53 | 53240 | 80517
4 | 17:53.43 | 6:14.65 | 80518 | 108632
5 | 24:08.33 | 5:56.35 | 108633 | 135367
6 | 30:04.68 | 5:44.57 | 135368 | 161224
7 | 35:49.50 | 5:29.20 | 161225 | 185919
8 | 41:18.70 | 8:33.40 | 185920 | 224434
9 | 49:52.35 | 6:01.13 | 224435 | 251522


Range status and errors

Selected range

Filename C:\OdW\Stanley Clarke, Al Di Meola, Jean-Luc.Ponty (1995) The Rite of Strings (7243 8 34167 2 1)\Stanley Clarke, Al Di Meola, Jean-Luc.Ponty - The Rite of Strings (7243 8 34167 2 1).wav

Peak level 100.0 %
Extraction speed 7.3 X
Range quality 100.0 %
Test CRC F6C7CCAC
Copy CRC F6C7CCAC
Copy OK

No errors occurred


AccurateRip summary

Track 1 accurately ripped (confidence 51) [7FF49D57] (AR v2)
Track 2 accurately ripped (confidence 52) [2519E190] (AR v2)
Track 3 accurately ripped (confidence 51) [64E1960D] (AR v2)
Track 4 accurately ripped (confidence 51) [7B02D2E7] (AR v2)
Track 5 accurately ripped (confidence 51) [45BC5652] (AR v2)
Track 6 accurately ripped (confidence 52) [0D440650] (AR v2)
Track 7 accurately ripped (confidence 51) [C02A0594] (AR v2)
Track 8 accurately ripped (confidence 51) [400AEEA4] (AR v2)
Track 9 accurately ripped (confidence 49) [982F521F] (AR v2)

All tracks accurately ripped

End of status report

–– CUETools DB Plugin V2.1.6

[CTDB TOCID: 0KQwRx9DzENzknUF0WRxZsu7N2M-] found
Submit result: 0KQwRx9DzENzknUF0WRxZsu7N2M- has been confirmed
Track | CTDB Status
1 | (27/28) Accurately ripped
2 | (27/28) Accurately ripped
3 | (26/28) Accurately ripped
4 | (27/28) Accurately ripped
5 | (26/28) Accurately ripped
6 | (25/28) Accurately ripped
7 | (26/28) Accurately ripped
8 | (26/28) Accurately ripped
9 | (26/28) Accurately ripped


==== Log checksum E85F906A757BCB930166B054CF4F49736AF45D7F53D9433C9D165DBA8B3B4ACF ====


[CUETools log; Date: 09.10.2015 13:43:32; Version: 2.1.4]
Pregap length 00:00:33.
[CTDB TOCID: 0KQwRx9DzENzknUF0WRxZsu7N2M-] found.
Track | CTDB Status
1 | (28/29) Accurately ripped
2 | (28/29) Accurately ripped
3 | (27/29) Accurately ripped
4 | (28/29) Accurately ripped
5 | (27/29) Accurately ripped
6 | (26/29) Accurately ripped
7 | (27/29) Accurately ripped
8 | (27/29) Accurately ripped
9 | (27/29) Accurately ripped
[AccurateRip ID: 0012d20a-008a248c-6c0d1909] found.
Track [ CRC | V2 ] Status
01 [2fe2bc05|7ff49d57] (071+051/122) Accurately ripped
02 [9f957eb7|2519e190] (070+052/122) Accurately ripped
03 [1f85d698|64e1960d] (070+051/121) Accurately ripped
04 [cec030ad|7b02d2e7] (069+051/120) Accurately ripped
05 [ef61e9dd|45bc5652] (069+051/120) Accurately ripped
06 [ee7951d1|0d440650] (067+052/119) Accurately ripped
07 [9efa5c6d|c02a0594] (067+051/118) Accurately ripped
08 [3cf73aaa|400aeea4] (066+051/117) Accurately ripped
09 [177eeb3d|982f521f] (065+049/114) Accurately ripped

Track Peak [ CRC32 ] [W/O NULL] [ LOG ]
– 100,0 [F6C7CCAC] [56D33C2C] CRC32
01 89,8 [BB45E124] [F6DA7CFE]
02 90,2 [1BA3AEF7] [324B3E2B]
03 100,0 [85873001] [ED637235]
04 88,2 [E50C45AA] [E7E1D2A7]
05 69,4 [F2854330] [32D7EF90]
06 98,4 [1BB0B311] [4ED936B1]
07 95,0 [8F33B5EF] [2B35F5C6]
08 100,0 [C129E91D] [8725707B]
09 97,9 [6AC18E55] [2D063DE3]


Stanley Clarke, Al Di Meola, Jean-Luc Ponty - The Rite Of Strings (1995)

All thanks go to Olaf der Weisse

Al Di Meola in my Blog

Download Stanley Clarke, Al Di Meola, Jean-Luc Ponty - The Rite Of Strings (1995):