Subcategories

Alex Bugnon - Southern Living (2003) {Narada Jazz}

Posted By: tiburon
Alex Bugnon - Southern Living (2003) {Narada Jazz}

Alex Bugnon - Southern Living (2003) {Narada Jazz}
EAC 0.95b3 | FLAC tracks level 8 | Cue+Log+M3U | Scans 300dpi | 317MB + 5% Recovery
MP3 CBR 320 Kbps | 115MB + 5% Recovery
Genre: Jazz, Smooth Jazz

The title of the Swiss-born composer/keyboardist's third Narada Jazz recording reflects the down-home spirit of his experience for the first time in Atlanta performing in ensemble with some of that city's greatest musicians, as well as an exhilarating shift from the heavy urban sensibilities of his New York-recorded 2001 hit, Soul Purpose. Getting away from the synthesizer-based sound that formed the foundation of most of his previous recordings, Bugnon strips down to the piano and Fender Rhodes in fashioning a more organically driven collection. It features some of Atlanta's most renowned musicians, who add their distinctly Dixie funk vibe to the mix: bassist Ronnie Garrett, drummers Sonny Emory and newcomer Ricardo Jordan, guitarist Rick Watford, trumpeter Melvin Miller (on the seductive cool blues-funk opening track, "Lonely Nights"), and vocalist Tiffany Davis (the moody, mystical romance "The Most Beautiful Girl in the World"). Garrett co-produced and lends his vocal talents to the wistful, elegant funk ballad "Missing You Like Crazy." Other key tracks reflecting Bugnon's magical Southern experience include the bright and lively retro-soul-driven title track; the laid-back, steamy back-porch swing vibe of "108 Degrees" (no doubt a winking nod to his 1991 hit recording, 107 Degrees in the Shade); the raw and soulful "Cascade" (featuring an irresistible thumping groove and handclaps); "Sweetwater Creek," which blends exotic percussion with a down-home light funk flavor; and a heavily '70s-colored twist on Hall & Oates' classic "Sara Smile," played brilliantly on Fender Rhodes.
Track List
01. Lonely Nights 4:47
02. Southern Living 4:38
03. 108 4:00
04. Back In Love 4:48
05. The Most Beautiful Girl In The World 4:38
06. Cascade 4:45
07. Midnight Train (Interlude) 0:24
08. Slow Drag 5:14
09. Missing You Like Crazy (Intro) 0:24
10. Missing You Like Crazy 4:13
11. Sara Smile 4:37
12. Sweetwater Creek 4:40
13. Untitled 3:13

musicians
Alex Bugnon - Fender Rhodes, Piano, Piano (Electric), Synthesizer
Phil Davis - Basso Continuo, Drum Programming, Keyboards, Synthesizer
Tiffany Davis - Vocals
Sonny Emory - Drums
Ronnie Garrett - Bass, Drum Programming, Vocals
Melvin Miller - Trumpet
Rick Watford - Guitar

Produced by Alex Bugnon, Phil Davis and Ronnie Garrett


EAC extraction logfile from 25. August 2006, 1:34 for CD
Bugnon, Alex / Southern Living

Used drive : PLEXTOR DVDR PX-750A Adapter: 1 ID: 0
Read mode : Secure with NO C2, accurate stream, disable cache
Read offset correction : 102
Overread into Lead-In and Lead-Out : No

Used output format : C:\EAC\flac-1.1.2-win\bin\flac.exe (User Defined Encoder)
320 kBit/s
Additional command line options : -8 -V %s
Use compression offset : 102

Other options :
Fill up missing offset samples with silence : Yes
Delete leading and trailing silent blocks : No
Installed external ASPI interface


Track 1
Filename C:\zz_Downloads\Bugnon, Alex - Southern Living - 01 - Lonely Nights.wav

Pre-gap length 0:00:02.00

Peak level 98.9 %
Track quality 100.0 %
Test CRC 59F78ABC
Copy CRC 59F78ABC
Copy OK

Track 2
Filename C:\zz_Downloads\Bugnon, Alex - Southern Living - 02 - Southern Living.wav

Peak level 98.9 %
Track quality 100.0 %
Test CRC 59905F34
Copy CRC 59905F34
Copy OK

Track 3
Filename C:\zz_Downloads\Bugnon, Alex - Southern Living - 03 - 108°.wav

Peak level 98.9 %
Track quality 100.0 %
Test CRC 0B1EB7DF
Copy CRC 0B1EB7DF
Copy OK

Track 4
Filename C:\zz_Downloads\Bugnon, Alex - Southern Living - 04 - Back In Love.wav

Peak level 98.9 %
Track quality 100.0 %
Test CRC 290A405E
Copy CRC 290A405E
Copy OK

Track 5
Filename C:\zz_Downloads\Bugnon, Alex - Southern Living - 05 - The Most Beautiful Girl In The World.wav

Peak level 98.9 %
Track quality 100.0 %
Test CRC 1D07D3BD
Copy CRC 1D07D3BD
Copy OK

Track 6
Filename C:\zz_Downloads\Bugnon, Alex - Southern Living - 06 - Cascade.wav

Peak level 98.9 %
Track quality 100.0 %
Test CRC 85085372
Copy CRC 85085372
Copy OK

Track 7
Filename C:\zz_Downloads\Bugnon, Alex - Southern Living - 07 - Midnight Train (interlude).wav

Peak level 63.1 %
Track quality 100.0 %
Test CRC 2CEB9CA7
Copy CRC 2CEB9CA7
Copy OK

Track 8
Filename C:\zz_Downloads\Bugnon, Alex - Southern Living - 08 - Slow Drag.wav

Peak level 98.9 %
Track quality 100.0 %
Test CRC C4BCE74D
Copy CRC C4BCE74D
Copy OK

Track 9
Filename C:\zz_Downloads\Bugnon, Alex - Southern Living - 09 - Missing You Like Crazy (intro).wav

Peak level 84.3 %
Track quality 100.0 %
Test CRC E9C39C4A
Copy CRC E9C39C4A
Copy OK

Track 10
Filename C:\zz_Downloads\Bugnon, Alex - Southern Living - 10 - Missing You Like Crazy.wav

Peak level 99.1 %
Track quality 100.0 %
Test CRC 010DD8DC
Copy CRC 010DD8DC
Copy OK

Track 11
Filename C:\zz_Downloads\Bugnon, Alex - Southern Living - 11 - Sara Smile.wav

Peak level 98.9 %
Track quality 100.0 %
Test CRC 92EF2777
Copy CRC 92EF2777
Copy OK

Track 12
Filename C:\zz_Downloads\Bugnon, Alex - Southern Living - 12 - Sweetwater Creek.wav

Peak level 98.9 %
Track quality 100.0 %
Test CRC 390121A2
Copy CRC 390121A2
Copy OK

Track 13
Filename C:\zz_Downloads\Bugnon, Alex - Southern Living - 13 - untitled.wav

Peak level 98.8 %
Track quality 100.0 %
Test CRC 955853E8
Copy CRC 955853E8
Copy OK

No errors occured


End of status report

Alex Bugnon - Southern Living (2003) {Narada Jazz}


Thanks to the original ripper