Subcategories
Tags
Language
Tags

Alexandra Oehler - Ferdinand Hiller: Piano Works (2012)

Posted By: tirexiss
Alexandra Oehler - Ferdinand Hiller: Piano Works (2012)

Alexandra Oehler - Ferdinand Hiller: Piano Works (2012)
EAC | FLAC (image+.cue, log) | Covers Included | 52:48 | 183 MB
Genre: Classical | Label: CPO | Catalog: 777 584-2

German pianist Alexandra Oehler, whose name has come to stand for high keyboard skill and an extraordinarily varied repertoire, now turns to the music of Ferdinand Hiller. His piano sonatas represent a special case in that their three movements continue without a break. His contemporaries Robert Schumann and Felix Mendelssohn universally agreed that his sonatas and other piano compositions possessed a great wealth of imagination.
AllMusic

Alexandra Oehler - Ferdinand Hiller: Piano Works (2012)

Track List:

Ferdinand Hiller (1811-1885)

Klaviersonate Nr. 2 A-Dur Op. 59 (10:36)
1. Allegretto Grazioso 4:46
2. Allegretto Con Fuoco 1:08
3. Molto Vivace 4:42
Aus Trois Ghasèles Op. 54 (4:39)
4. Ghasèle I 2:57
5. Ghasèle II 1:42
Klaviersonate Nr. 3 G-Moll Op. 78 (15:09)
6. Andante Agitato 3:23
7. Vivace. Ma Non Troppo 5:41
8. Allegro Energico E Con Fuoco 6:05
Aus Sechs Klavierstücke Op. 130 (13:11)
9. Nr. 1 Ballade 3:46
10. Nr. 2 Idylle 4:04
11. Nr. 3 Romanze 3:03
12. Nr. 5 Ghasel 2:18
Aus Vermischte Klavierstücke Op. 81 (15:26)
13. Nr. 3 Geistliches Lied 5:08
14. Nr. 2 Ghasel 3:18
15. Nr. 1 Alla Marcia 7:00

Performers:
Alexandra Oehler (piano)

Exact Audio Copy V1.0 beta 3 from 29. August 2011

EAC extraction logfile from 27. April 2013, 20:28

Alexandra Oehler / Ferdinand Hiller - Piano Works - Alexandra Oehler

Used drive : TSSTcorpCDDVDW SH-222BB Adapter: 2 ID: 1

Read mode : Secure
Utilize accurate stream : Yes
Defeat audio cache : Yes
Make use of C2 pointers : No

Read offset correction : 6
Overread into Lead-In and Lead-Out : No
Fill up missing offset samples with silence : Yes
Delete leading and trailing silent blocks : No
Null samples used in CRC calculations : Yes
Used interface : Native Win32 interface for Win NT & 2000

Used output format : User Defined Encoder
Selected bitrate : 1024 kBit/s
Quality : High
Add ID3 tag : No
Command line compressor : C:\Program Files\Exact Audio Copy\Flac\flac.exe
Additional command line options : -8 -V -T "TITLE=%title%" -T "ARTIST=%artist%" -T "ALBUMARTIST=%albumartist%" -T "ALBUM=%albumtitle%" -T "DATE=%year%" -T "TRACKNUMBER=%tracknr%" -T "TRACKTOTAL=%numtracks%" -T "GENRE=%genre%" -T "COMMENT=%comment%" -T "PERFORMER=%albuminterpret%" -T "COMPOSER=%composer%" %source% -o %dest%


TOC of the extracted CD

Track | Start | Length | Start sector | End sector
––––––––––––––––––––––––––––-
1 | 0:00.02 | 4:46.03 | 2 | 21454
2 | 4:46.05 | 1:07.73 | 21455 | 26552
3 | 5:54.03 | 4:47.25 | 26553 | 48102
4 | 10:41.28 | 3:02.15 | 48103 | 61767
5 | 13:43.43 | 1:47.01 | 61768 | 69793
6 | 15:30.44 | 3:22.35 | 69794 | 84978
7 | 18:53.04 | 5:41.21 | 84979 | 110574
8 | 24:34.25 | 6:10.33 | 110575 | 138357
9 | 30:44.58 | 3:51.32 | 138358 | 155714
10 | 34:36.15 | 4:09.17 | 155715 | 174406
11 | 38:45.32 | 3:13.64 | 174407 | 188945
12 | 41:59.21 | 2:28.35 | 188946 | 200080
13 | 44:27.56 | 1:53.01 | 200081 | 208556
14 | 46:20.57 | 2:28.47 | 208557 | 219703
15 | 48:49.29 | 3:56.42 | 219704 | 237445


Range status and errors

Selected range

Filename G:\Ripped general\[8898] Ferdinand Hiller – Piano Works – Alexandra Oehler\Ferdinand Hiller - Piano Works - Alexandra Oehler.wav

Peak level 85.7 %
Extraction speed 2.3 X
Range quality 99.9 %
Test CRC F98FC253
Copy CRC F98FC253
Copy OK

No errors occurred


AccurateRip summary

Track 1 not present in database
Track 2 not present in database
Track 3 not present in database
Track 4 not present in database
Track 5 not present in database
Track 6 not present in database
Track 7 not present in database
Track 8 not present in database
Track 9 not present in database
Track 10 not present in database
Track 11 not present in database
Track 12 not present in database
Track 13 not present in database
Track 14 not present in database
Track 15 not present in database

None of the tracks are present in the AccurateRip database

End of status report

Thanks to the Original ripper (unknown)!

Welcome to my blog!

Download: