Subcategories

Altered Images - I Could Be Happy: The Best of Altered Images (1997)

Posted By: Designol
Altered Images - I Could Be Happy: The Best of Altered Images (1997)

Altered Images - I Could Be Happy: The Best of Altered Images (1997)
EAC | FLAC | Image (Cue&Log) ~ 376 Mb | Mp3 (CBR320) ~ 130 Mb | Scans ~ 52 Mb
Genre: Post-Punk, New Wave | Label: Epic/Legacy | # EK 65182 | Time: 00:56:53

I Could Be Happy: The Best of Altered Images is an excellent, thorough collection covering all of the highlights from the band's three albums, adding several non-LP singles for good measure. All of the group's hits – "Happy Birthday," "I Could Be Happy," "See Those Eyes," "Love and Kisses" – are presented, usually in their single versions, plus many fine album tracks, making I Could Be Happy a definitive retrospective.

Review by Stephen Thomas Erlewine, Allmusic.com

Altered Images - I Could Be Happy: The Best of Altered Images (1997)



Tracklist:

01. Happy Birthday (02:59)
02. Real Toys (03:21)
03. Love And Kisses (02:18)
04. Beckoning Strings (03:05)
05. Leave Me Alone (04:07)
06. Dead Pop Stars (03:17)
07. Sentimental (03:23)
08. I Could Be Happy (03:30)
09. See Those Eyes (03:07)
10. Pinky Blue (03:07)
11. Funny Funny Me (03:24)
12. Forgotten (02:38)
13. Bring Me Closer (03:16)
14. Love To Stay (05:35)
15. Don't Talk To Me About Love (03:47)
16. Thinking About You (05:51)


Exact Audio Copy V1.1 from 23. June 2015

EAC extraction logfile from 18. January 2016, 22:06

Altered Images / I Could Be Happy: The Best of Altered Images

Used drive : Optiarc DVD RW AD-5280S Adapter: 1 ID: 0

Read mode : Secure
Utilize accurate stream : Yes
Defeat audio cache : Yes
Make use of C2 pointers : No

Read offset correction : 48
Overread into Lead-In and Lead-Out : No
Fill up missing offset samples with silence : Yes
Delete leading and trailing silent blocks : No
Null samples used in CRC calculations : Yes
Used interface : Native Win32 interface for Win NT & 2000

Used output format : User Defined Encoder
Selected bitrate : 896 kBit/s
Quality : High
Add ID3 tag : No
Command line compressor : C:\Program Files (x86)\Exact Audio Copy\Flac\flac.exe
Additional command line options : -V -8 -T "Date=%year%" -T "Genre=%genre%" %source%


TOC of the extracted CD

Track | Start | Length | Start sector | End sector
––––––––––––––––––––––––––––-
1 | 0:00.00 | 2:59.68 | 0 | 13492
2 | 2:59.68 | 3:21.47 | 13493 | 28614
3 | 6:21.40 | 2:18.43 | 28615 | 39007
4 | 8:40.08 | 3:05.25 | 39008 | 52907
5 | 11:45.33 | 4:07.45 | 52908 | 71477
6 | 15:53.03 | 3:17.37 | 71478 | 86289
7 | 19:10.40 | 3:23.28 | 86290 | 101542
8 | 22:33.68 | 3:30.30 | 101543 | 117322
9 | 26:04.23 | 3:07.67 | 117323 | 131414
10 | 29:12.15 | 3:07.03 | 131415 | 145442
11 | 32:19.18 | 3:24.10 | 145443 | 160752
12 | 35:43.28 | 2:38.52 | 160753 | 172654
13 | 38:22.05 | 3:16.30 | 172655 | 187384
14 | 41:38.35 | 5:35.63 | 187385 | 212572
15 | 47:14.23 | 3:47.20 | 212573 | 229617
16 | 51:01.43 | 5:52.00 | 229618 | 256017


Range status and errors

Selected range

Filename F:\МУЗЫКА\Altered Images - I Could Be Happy - The Best of Altered Images\Altered Images - I Could Be Happy- The Best of Altered Images.wav

Peak level 98.8 %
Extraction speed 4.2 X
Range quality 100.0 %
Test CRC 97E92A5B
Copy CRC 97E92A5B
Copy OK

No errors occurred


AccurateRip summary

Track 1 accurately ripped (confidence 4) [0A22969B] (AR v2)
Track 2 accurately ripped (confidence 3) [BB881C9D] (AR v2)
Track 3 accurately ripped (confidence 3) [31556826] (AR v2)
Track 4 accurately ripped (confidence 3) [8C0FC439] (AR v2)
Track 5 accurately ripped (confidence 3) [A146814B] (AR v2)
Track 6 accurately ripped (confidence 3) [EC4E6FF6] (AR v2)
Track 7 accurately ripped (confidence 3) [935536E1] (AR v2)
Track 8 accurately ripped (confidence 3) [964A8C53] (AR v2)
Track 9 accurately ripped (confidence 3) [4A95873A] (AR v2)
Track 10 accurately ripped (confidence 3) [2CB7CAB7] (AR v2)
Track 11 accurately ripped (confidence 3) [A7E0A856] (AR v2)
Track 12 accurately ripped (confidence 3) [62529570] (AR v2)
Track 13 accurately ripped (confidence 3) [1B02AEB3] (AR v2)
Track 14 accurately ripped (confidence 4) [2474223D] (AR v2)
Track 15 accurately ripped (confidence 3) [01888E38] (AR v2)
Track 16 accurately ripped (confidence 3) [D6C9FC99] (AR v2)

All tracks accurately ripped

End of status report

–– CUETools DB Plugin V2.1.6

[CTDB TOCID: GIuOX2ZPz2BA5U3vBRtzWFYtYqo-] found
Submit result: GIuOX2ZPz2BA5U3vBRtzWFYtYqo- has been confirmed
Track | CTDB Status
1 | (2/2) Accurately ripped
2 | (2/2) Accurately ripped
3 | (2/2) Accurately ripped
4 | (2/2) Accurately ripped
5 | (2/2) Accurately ripped
6 | (2/2) Accurately ripped
7 | (2/2) Accurately ripped
8 | (2/2) Accurately ripped
9 | (2/2) Accurately ripped
10 | (2/2) Accurately ripped
11 | (2/2) Accurately ripped
12 | (2/2) Accurately ripped
13 | (2/2) Accurately ripped
14 | (2/2) Accurately ripped
15 | (2/2) Accurately ripped
16 | (2/2) Accurately ripped


==== Log checksum C21538CE1E30FCA24443AE52B641C40FD3F747EC01416A3859D76B8E3C1AD10F ====

foobar2000 1.2 / Dynamic Range Meter 1.1.1
log date: 2016-01-19 15:21:07

––––––––––––––––––––––––––––––––––––––––
Analyzed: Altered Images / I Could Be Happy: The Best of Altered Images
––––––––––––––––––––––––––––––––––––––––

DR Peak RMS Duration Track
––––––––––––––––––––––––––––––––––––––––
DR9 -0.10 dB -9.93 dB 3:00 01-Happy Birthday
DR10 -0.10 dB -11.47 dB 3:22 02-Real Toys
DR10 -0.10 dB -11.78 dB 2:19 03-Love And Kisses
DR10 -0.10 dB -11.69 dB 3:05 04-Beckoning Strings
DR9 -0.40 dB -12.03 dB 4:08 05-Leave Me Alone
DR9 -0.30 dB -11.27 dB 3:17 06-Dead Pop Stars
DR11 -0.10 dB -12.47 dB 3:23 07-Sentimental
DR8 -0.10 dB -9.50 dB 3:30 08-I Could Be Happy
DR8 -0.10 dB -9.50 dB 3:08 09-See Those Eyes
DR8 -0.10 dB -9.53 dB 3:07 10-Pinky Blue
DR8 -0.10 dB -9.81 dB 3:24 11-Funny Funny Me
DR8 -0.10 dB -9.05 dB 2:39 12-Forgotten
DR9 -0.30 dB -10.36 dB 3:16 13-Bring Me Closer
DR8 -0.30 dB -10.10 dB 5:36 14-Love To Stay
DR9 -0.30 dB -10.66 dB 3:47 15-Don't Talk To Me About Love
DR12 -0.10 dB -14.51 dB 5:52 16-Thinking About You
––––––––––––––––––––––––––––––––––––––––

Number of tracks: 16
Official DR value: DR9

Samplerate: 44100 Hz
Channels: 2
Bits per sample: 16
Bitrate: 925 kbps
Codec: FLAC
================================================================================

Altered Images - I Could Be Happy: The Best of Altered Images (1997)

Altered Images - I Could Be Happy: The Best of Altered Images (1997)