Subcategories

András Schiff - Schumann: Geistervariationen, Piano Sonata, Kinderszenen, Fantasia (2011) (Repost)

Posted By: tirexiss
András Schiff - Schumann: Geistervariationen, Piano Sonata, Kinderszenen, Fantasia (2011) (Repost)

András Schiff - Schumann: Geistervariationen, Piano Sonata, Kinderszenen, Fantasia (2011)
EAC | FLAC (image+.cue, log) | Covers Included | 02:17:22 | 421 MB
Genre: Classical | Label: ECM New Series | Catalog: ECM 2122/23

A decade after his highly acclaimed ‘In Concert’ album (4721192), master pianist András Schiff continues his documentation of Robert Schumann’s music in a specially-priced 2-CD set recorded in Germany at Neumarkt’s Reutstadl.
The repertoire includes Papillons op. 2, the Piano Sonata No 1 in F sharp minor op. 11, Kinderszenen (Scenes from Childhood) op. 15, the Fantasy in C major op. 17, Waldszenen (Forest Scenes) op. 82, and the Thema mit Variationen, also known as Geistervariationen. Schiff’s recording presents a revelatory reinvestigation of this enormously influential Romantic music. Schiff, one of the greatest pianists of our era, traces the development of Schumann’s piano music, from the early Papillons, written when Schumann was 19, all the way to the final Geistervariationen, “ghost variations” which the composer believed were dictated to him by angels. The Fantasy in C Major is heard with alternate endings: as well as the official published version, Schiff includes a preliminary one he finds more musically convincing. The pianist gives his thoughts on the matter in a very interesting note in the CD booklet which also gives background information by Wolf-Dieter Seiffert on each of the compositions.

András Schiff - Schumann: Geistervariationen, Piano Sonata, Kinderszenen, Fantasia (2011) (Repost)

Track List:

CD 1:
Papillons (Butterflies) for piano, Op. 2
01. Part 1 00:54
02. Part 2 00:19
03. Part 3 00:46
04. Part 4 00:52
05. Part 5 01:17
06. Part 6 00:59
07. Part 7 00:57
08. Part 8 01:12
09. Part 9 00:44
10. Part 10 01:54
11. Part 11 03:05
12. Part 12 02:01
Klaviersonate in fis-Moll, Op. 11
13. 1. Introduzione. Un poco Adagio - Allegro vivace 13:11
14. 2. Aria 03:06
15. 3. Scherzo e Intermezzo. Allegrissimo - Lento 05:09
16. 4. Finale. Allegro un poco maestoso 11:59
Kinderszenen (Scenes from Childhood) for piano, Op. 15
17. Von fremden Ländern und Menschen 01:11
18. Curiose Geschichte 01:01
19. Hasche-Mann 00:31
20. Bittendes Kind 00:45
21. Glückes genug 00:42
22. Wichtige Begebenheit 00:47
23. Träumerei 02:02
24. Am Camin 00:59
25. Ritter vom Steckenpferd 00:37
26. Fast zu ernst 01:41
27. Fürchtenmachen 01:34
28. Kind im Einschlummern 01:52
29. Der Dichter spricht 02:03

CD 2:
Fantasie (Obolen auf Beethovens Monument) C-Dur, Op. 17
01. 1. Durchaus phantastisch und leidenschaftlich vorzutragen 11:48
02. 2. Mäßig. Durchaus energisch 07:47
03. 3. Langsam getragen (ursprüngliche Fassung) 11:40
Waldszenen (Forest Scenes), Op. 82
04. Eintritt 02:05
05. Jäger auf der Lauer 01:24
06. Einsame Blumen 01:55
07. Verrufene Stelle 03:28
08. Freundliche Landschaft 01:10
09. Herberge 02:03
10. Vogel als Prophet 03:00
11. Jaglied 02:39
12. Abschied 03:45
Thema mit Variationen (GeisterVariationen), WoO 24
13. Tema. Leise, innig 01:39
14. Var. I 01:27
15. Var. II. Canonisch 01:27
16. Var. III. Etwas belebter 01:31
17. Var. IV 01:27
18. Var. V 02:49
Fantasie C-Dur, Op. 17
19. III. Langsam getragen (Fassung letzter Hand) 10:57

Performers:
András Schiff - piano

Exact Audio Copy V1.0 beta 3 from 29. August 2011

EAC extraction logfile from 27. May 2013, 19:17

András Schiff / Schumann - Geistervariationen, Piano Sonata, Kinderszenen, Fantasia - András Schiff (Disc 1)

Used drive : TSSTcorpCDDVDW SH-222BB Adapter: 2 ID: 1

Read mode : Secure
Utilize accurate stream : Yes
Defeat audio cache : Yes
Make use of C2 pointers : No

Read offset correction : 6
Overread into Lead-In and Lead-Out : No
Fill up missing offset samples with silence : Yes
Delete leading and trailing silent blocks : No
Null samples used in CRC calculations : Yes
Used interface : Native Win32 interface for Win NT & 2000

Used output format : User Defined Encoder
Selected bitrate : 1024 kBit/s
Quality : High
Add ID3 tag : No
Command line compressor : C:\Program Files\Exact Audio Copy\Flac\flac.exe
Additional command line options : -8 -V -T "TITLE=%title%" -T "ARTIST=%artist%" -T "ALBUMARTIST=%albumartist%" -T "ALBUM=%albumtitle%" -T "DATE=%year%" -T "TRACKNUMBER=%tracknr%" -T "TRACKTOTAL=%numtracks%" -T "GENRE=%genre%" -T "COMMENT=%comment%" -T "PERFORMER=%albuminterpret%" -T "COMPOSER=%composer%" %source% -o %dest%


TOC of the extracted CD

Track | Start | Length | Start sector | End sector
––––––––––––––––––––––––––––-
1 | 0:00.00 | 0:54.30 | 0 | 4079
2 | 0:54.30 | 0:19.59 | 4080 | 5563
3 | 1:14.14 | 0:46.45 | 5564 | 9058
4 | 2:00.59 | 0:52.22 | 9059 | 12980
5 | 2:53.06 | 1:17.51 | 12981 | 18806
6 | 4:10.57 | 0:59.46 | 18807 | 23277
7 | 5:10.28 | 0:57.51 | 23278 | 27603
8 | 6:08.04 | 1:12.47 | 27604 | 33050
9 | 7:20.51 | 0:44.35 | 33051 | 36385
10 | 8:05.11 | 1:54.71 | 36386 | 45006
11 | 10:00.07 | 3:05.73 | 45007 | 58954
12 | 13:06.05 | 2:01.53 | 58955 | 68082
13 | 15:07.58 | 13:11.32 | 68083 | 127439
14 | 28:19.15 | 3:06.13 | 127440 | 141402
15 | 31:25.28 | 5:09.73 | 141403 | 164650
16 | 36:35.26 | 11:59.38 | 164651 | 218613
17 | 48:34.64 | 1:11.74 | 218614 | 224012
18 | 49:46.63 | 1:01.14 | 224013 | 228601
19 | 50:48.02 | 0:31.34 | 228602 | 230960
20 | 51:19.36 | 0:45.29 | 230961 | 234364
21 | 52:04.65 | 0:42.18 | 234365 | 237532
22 | 52:47.08 | 0:47.59 | 237533 | 241116
23 | 53:34.67 | 2:02.35 | 241117 | 250301
24 | 55:37.27 | 0:59.65 | 250302 | 254791
25 | 56:37.17 | 0:37.10 | 254792 | 257576
26 | 57:14.27 | 1:41.03 | 257577 | 265154
27 | 58:55.30 | 1:34.38 | 265155 | 272242
28 | 60:29.68 | 1:52.13 | 272243 | 280655
29 | 62:22.06 | 2:03.02 | 280656 | 289882


Range status and errors

Selected range

Filename G:\Ripped general\[8837] Schumann – Geistervariationen, Piano Sonata, Kinderszenen, Fantasia – András Schiff\cd1\Schumann - Geistervariationen, Piano Sonata, Kinderszenen, Fantasia - András Schiff (Disc 1).wav

Peak level 100.0 %
Extraction speed 7.3 X
Range quality 99.9 %
Test CRC 182A359E
Copy CRC 182A359E
Copy OK

No errors occurred


AccurateRip summary

Track 1 accurately ripped (confidence 6) [4F2153DB] (AR v2)
Track 2 accurately ripped (confidence 6) [853D716C] (AR v2)
Track 3 accurately ripped (confidence 6) [92BEF7C6] (AR v2)
Track 4 accurately ripped (confidence 6) [E2ECB931] (AR v2)
Track 5 accurately ripped (confidence 6) [60AE2D20] (AR v2)
Track 6 accurately ripped (confidence 6) [1C1ADF42] (AR v2)
Track 7 accurately ripped (confidence 6) [1FF4EF0D] (AR v2)
Track 8 accurately ripped (confidence 6) [29603F0B] (AR v2)
Track 9 accurately ripped (confidence 6) [69CD828A] (AR v2)
Track 10 accurately ripped (confidence 6) [18F33D3C] (AR v2)
Track 11 accurately ripped (confidence 6) [41251D5A] (AR v2)
Track 12 accurately ripped (confidence 6) [2D3AAAA8] (AR v2)
Track 13 accurately ripped (confidence 6) [8EDACC50] (AR v2)
Track 14 accurately ripped (confidence 6) [E43AD789] (AR v2)
Track 15 accurately ripped (confidence 6) [6B4B082E] (AR v2)
Track 16 accurately ripped (confidence 6) [981DD49A] (AR v2)
Track 17 accurately ripped (confidence 6) [6EBD13A3] (AR v2)
Track 18 accurately ripped (confidence 6) [81C8CBF6] (AR v2)
Track 19 accurately ripped (confidence 6) [845D69E7] (AR v2)
Track 20 accurately ripped (confidence 6) [2AFCF3C1] (AR v2)
Track 21 accurately ripped (confidence 6) [93A81B42] (AR v2)
Track 22 accurately ripped (confidence 6) [79C82E8F] (AR v2)
Track 23 accurately ripped (confidence 6) [B5CB09B2] (AR v2)
Track 24 accurately ripped (confidence 6) [4F086872] (AR v2)
Track 25 accurately ripped (confidence 6) [6010A845] (AR v2)
Track 26 accurately ripped (confidence 6) [69846B37] (AR v2)
Track 27 accurately ripped (confidence 6) [A8361803] (AR v2)
Track 28 accurately ripped (confidence 6) [B00A6A6C] (AR v2)
Track 29 accurately ripped (confidence 6) [DA38C6B4] (AR v2)

All tracks accurately ripped

End of status report

Exact Audio Copy V1.0 beta 3 from 29. August 2011

EAC extraction logfile from 27. May 2013, 19:38

András Schiff / Schumann - Geistervariationen, Piano Sonata, Kinderszenen, Fantasia - András Schiff (Disc 2)

Used drive : TSSTcorpCDDVDW SH-222BB Adapter: 2 ID: 1

Read mode : Secure
Utilize accurate stream : Yes
Defeat audio cache : Yes
Make use of C2 pointers : No

Read offset correction : 6
Overread into Lead-In and Lead-Out : No
Fill up missing offset samples with silence : Yes
Delete leading and trailing silent blocks : No
Null samples used in CRC calculations : Yes
Used interface : Native Win32 interface for Win NT & 2000

Used output format : User Defined Encoder
Selected bitrate : 1024 kBit/s
Quality : High
Add ID3 tag : No
Command line compressor : C:\Program Files\Exact Audio Copy\Flac\flac.exe
Additional command line options : -8 -V -T "TITLE=%title%" -T "ARTIST=%artist%" -T "ALBUMARTIST=%albumartist%" -T "ALBUM=%albumtitle%" -T "DATE=%year%" -T "TRACKNUMBER=%tracknr%" -T "TRACKTOTAL=%numtracks%" -T "GENRE=%genre%" -T "COMMENT=%comment%" -T "PERFORMER=%albuminterpret%" -T "COMPOSER=%composer%" %source% -o %dest%


TOC of the extracted CD

Track | Start | Length | Start sector | End sector
––––––––––––––––––––––––––––-
1 | 0:00.00 | 11:48.35 | 0 | 53134
2 | 11:48.35 | 7:47.60 | 53135 | 88219
3 | 19:36.20 | 11:40.59 | 88220 | 140778
4 | 31:17.04 | 2:05.65 | 140779 | 150218
5 | 33:22.69 | 1:24.53 | 150219 | 156571
6 | 34:47.47 | 1:55.54 | 156572 | 165250
7 | 36:43.26 | 3:28.39 | 165251 | 180889
8 | 40:11.65 | 1:10.15 | 180890 | 186154
9 | 41:22.05 | 2:03.00 | 186155 | 195379
10 | 43:25.05 | 3:00.57 | 195380 | 208936
11 | 46:25.62 | 2:39.05 | 208937 | 220866
12 | 49:04.67 | 3:45.32 | 220867 | 237773
13 | 52:50.24 | 1:39.42 | 237774 | 245240
14 | 54:29.66 | 1:27.20 | 245241 | 251785
15 | 55:57.11 | 1:27.46 | 251786 | 258356
16 | 57:24.57 | 1:31.69 | 258357 | 265250
17 | 58:56.51 | 1:27.01 | 265251 | 271776
18 | 60:23.52 | 2:49.56 | 271777 | 284507
19 | 63:13.33 | 10:57.73 | 284508 | 333855


Range status and errors

Selected range

Filename G:\Ripped general\[8837] Schumann – Geistervariationen, Piano Sonata, Kinderszenen, Fantasia – András Schiff\cd2\Schumann - Geistervariationen, Piano Sonata, Kinderszenen, Fantasia - András Schiff (Disc 2).wav

Peak level 98.8 %
Extraction speed 8.1 X
Range quality 100.0 %
Test CRC C3EC6990
Copy CRC C3EC6990
Copy OK

No errors occurred


AccurateRip summary

Track 1 accurately ripped (confidence 6) [24876FFB] (AR v2)
Track 2 accurately ripped (confidence 6) [5004B1DF] (AR v2)
Track 3 accurately ripped (confidence 6) [31530901] (AR v2)
Track 4 accurately ripped (confidence 6) [AD05F9F8] (AR v2)
Track 5 accurately ripped (confidence 6) [A398579F] (AR v2)
Track 6 accurately ripped (confidence 6) [6B97DF2C] (AR v2)
Track 7 accurately ripped (confidence 6) [2FDFDC28] (AR v2)
Track 8 accurately ripped (confidence 6) [87064455] (AR v2)
Track 9 accurately ripped (confidence 6) [45BFB8A6] (AR v2)
Track 10 accurately ripped (confidence 6) [3E02A71A] (AR v2)
Track 11 accurately ripped (confidence 6) [5E4EC785] (AR v2)
Track 12 accurately ripped (confidence 5) [54D05C71] (AR v2)
Track 13 accurately ripped (confidence 5) [229F1BFD] (AR v2)
Track 14 accurately ripped (confidence 5) [9B5EFEC7] (AR v2)
Track 15 accurately ripped (confidence 5) [C052DB6B] (AR v2)
Track 16 accurately ripped (confidence 5) [22FFEDD3] (AR v2)
Track 17 accurately ripped (confidence 5) [BF1BA606] (AR v2)
Track 18 accurately ripped (confidence 6) [6EB1BD77] (AR v2)
Track 19 accurately ripped (confidence 5) [AA588F36] (AR v2)

All tracks accurately ripped

End of status report

Thanks to the Original ripper (unknown)!

Welcome to my blog!

Download: