Tags
Language
Tags

Andrea Bocelli: Concerto One Night in Central Park (2011)

Posted By: RSU75
Andrea Bocelli: Concerto One Night in Central Park (2011)

Andrea Bocelli: Concerto One Night in Central Park (2011)
BDRip 1080p | MKV | AVC, 1920x1080, ~ 5.3 Mbps | 2hr 05mn | 6.71 GB
English, Italian: DTS, 6 ch, 1510 kbps \ AC3, 2 ch, 448 kbps \ AC3, 6 ch, 448 kbps
Subtitles: None
Genre: Music, Classical, Classical Crossover, Opera, Vocal, Pop, Crossover


Stars: Andrea Bocelli, Celine Dion, Tony Bennett, Chris Botti, David Foster, Ana Maria Martinez, Pretty Yende, Nicola Benedetti, Bryn Terfel, Andrea Griminelli, Alan Gilbert, New York Philharmonic Orchestra

Concerto: One Night in Central Park is a live album by Italian tenor Andrea Bocelli. The album was recorded September 15, 2011, during a concert at the Central Park's Great Lawn, in New York. Guest performers included Celine Dion, Tony Bennett, Chris Botti, Bryn Terfel, Pretty Yende, and music producer David Foster. The album, immediately upon release, entered the Billboard Top 10 and peaked at No. 4 on the Billboard 200.

Tracklist:
Part 1
01. OVERTURE - Verdi / «La forza del destino»
02. LA DONNA E MOBILE - Verdi / «Rigoletto»
03. DI QUELLA PIRA - Verdi / «Il Trovatore»
04. VA, TOSCA! (Te Deum) - Puccini / «Tosca», performed by Bryn Terfel
05. AVE MARIA «Central Park Version»
06. VICINO A TE S' ACQUETA - Giordano / «Andrea Chenier», duet with Ana Maria Martinez
07. AU FOND DU TEMPLE SAINT - Bizet / «Les Pecheurs de perles», duet with Bryn Terfel
08. INTERMEZZO - Puccini / «Manon Lescaut»
09. O SOAVE FANCIULLA - Puccini / «La Boheme», duet with Pretty Yende
10. LIBIAMO NE' LIETI CALICI - Verdi / «La Traviata», with P.Yende, B.Terfel, A.M.Martinez
Part 2
11. OVERTURE - Bernstein / «Candide»
12. HOME ON THE RANGE, performed by Bryn Terfel
13. EN ARANJUEZ CON TU AMOR - Concierto de Aranjuez, with Nicola Benedetti on violin
14. FUNICULI FUNICULA, with Andrea Griminelli on flute
15. THE FLIGHT OF THE BUMBLEBEE - «The Tale of Tsar Saltan», performed by Andrea Griminelli on flute
16. 'O SOLE MIO
17. AMARCORD
18. YOUR LOVE (Once Upon a Time in The West)
19. MORE (Ti guardero nel cuore), with Chris Botti on trumpet, David Foster on piano
20. NEL BLU, DIPINTO DI BLU (Volare), with David Foster on piano
21. THE PRAYER, duet with Celine Dion, David Foster on piano
22. NEW YORK, NEW YORK…, duet with Tony Bennett
23. AMAZING GRACE
24. TIME TO SAY GOODBYE (Con te partiro), duet with Ana Maria Martinez
25. NESSUN DORMA - Puccini / «Turandot»




General
Unique ID : 227208355361866972775962122012828514334 (0xAAEEBCCE27131CCB86470AED1676381E)
Complete name : F:\AndreaBocelli.ConcertoOneNightInCentralPark.2011.1p.mkv
Format : Matroska
Format version : Version 4
File size : 6.71 GiB
Duration : 2 h 5 min
Overall bit rate : 7 652 kb/s
Movie name : Release RSU75 for the Bestmoviesworld.xyz
Encoded date : UTC 2022-03-15 18:31:20
Writing application : mkvmerge v8.3.0 ('Over the Horizon') 64bit
Writing library : libebml v1.3.1 + libmatroska v1.4.2

Video
ID : 1
Format : AVC
Format/Info : Advanced Video Codec
Format profile : High@L4.1
Format settings : CABAC / 4 Ref Frames
Format settings, CABAC : Yes
Format settings, Reference fra : 4 frames
Codec ID : V_MPEG4/ISO/AVC
Duration : 2 h 5 min
Bit rate : 5 300 kb/s
Width : 1 920 pixels
Height : 1 080 pixels
Display aspect ratio : 16:9
Frame rate mode : Constant
Frame rate : 29.970 (29970/1000) FPS
Color space : YUV
Chroma subsampling : 4:2:0
Bit depth : 8 bits
Scan type : Progressive
Bits/(Pixel*Frame) : 0.085
Stream size : 4.60 GiB (69%)
Writing library : x264 core 148 r2643 5c65704
Encoding settings : cabac=1 / ref=4 / deblock=1:0:0 / analyse=0x3:0x113 / me=umh / subme=8 / psy=1 / psy_rd=1.00:0.00 / mixed_ref=1 / me_range=24 / chroma_me=1 / trellis=1 / 8x8dct=1 / cqm=0 / deadzone=21,11 / fast_pskip=1 / chroma_qp_offset=-2 / threads=3 / lookahead_threads=1 / sliced_threads=0 / nr=0 / decimate=1 / interlaced=0 / bluray_compat=0 / constrained_intra=0 / bframes=3 / b_pyramid=0 / b_adapt=2 / b_bias=0 / direct=3 / weightb=1 / open_gop=0 / weightp=2 / keyint=250 / keyint_min=25 / scenecut=40 / intra_refresh=0 / rc_lookahead=40 / rc=abr / mbtree=1 / bitrate=5300 / ratetol=1.0 / qcomp=0.60 / qpmin=10 / qpmax=51 / qpstep=4 / ip_ratio=1.41 / aq=1:1.00
Language : English
Default : Yes
Forced : No

Audio #1
ID : 2
Format : AC-3
Format/Info : Audio Coding 3
Commercial name : Dolby Digital
Codec ID : A_AC3
Duration : 2 h 5 min
Bit rate mode : Constant
Bit rate : 448 kb/s
Channel(s) : 2 channels
Channel layout : L R
Sampling rate : 44.1 kHz
Frame rate : 28.711 FPS (1536 SPF)
Compression mode : Lossy
Stream size : 402 MiB (6%)
Title : Stereo
Language : English
Service kind : Complete Main
Default : Yes
Forced : No

Audio #2
ID : 3
Format : AC-3
Format/Info : Audio Coding 3
Commercial name : Dolby Digital
Codec ID : A_AC3
Duration : 2 h 5 min
Bit rate mode : Constant
Bit rate : 448 kb/s
Channel(s) : 6 channels
Channel layout : L R C LFE Ls Rs
Sampling rate : 48.0 kHz
Frame rate : 31.250 FPS (1536 SPF)
Compression mode : Lossy
Delay relative to video : 167 ms
Stream size : 402 MiB (6%)
Title : Surround 5.1
Language : English
Service kind : Complete Main
Default : No
Forced : No

Audio #3
ID : 4
Format : DTS
Format/Info : Digital Theater Systems
Codec ID : A_DTS
Duration : 2 h 5 min
Bit rate mode : Constant
Bit rate : 1 509 kb/s
Channel(s) : 6 channels
Channel layout : C L R Ls Rs LFE
Sampling rate : 48.0 kHz
Frame rate : 93.750 FPS (512 SPF)
Bit depth : 16 bits
Compression mode : Lossy
Delay relative to video : 167 ms
Stream size : 1.32 GiB (20%)
Title : Surround 5.1
Language : English
Default : No
Forced : No

Menu
00:00:00.000 : en:Chapter 01
00:09:22.094 : en:Chapter 02
00:11:52.678 : en:Chapter 03
00:15:22.254 : en:Chapter 04
00:19:57.763 : en:Chapter 05
00:24:59.097 : en:Chapter 06
00:33:41.386 : en:Chapter 07
00:39:46.117 : en:Chapter 08
00:45:22.352 : en:Chapter 09
00:49:35.973 : en:Chapter 10
00:53:05.282 : en:Chapter 11
00:58:45.822 : en:Chapter 12
01:04:19.555 : en:Chapter 13
01:08:53.796 : en:Chapter 14
01:11:42.331 : en:Chapter 15
01:13:31.306 : en:Chapter 16
01:17:01.750 : en:Chapter 17
01:22:09.090 : en:Chapter 18
01:27:56.671 : en:Chapter 19
01:32:08.489 : en:Chapter 20
01:37:26.407 : en:Chapter 21
01:42:33.380 : en:Chapter 22
01:46:16.269 : en:Chapter 23
01:51:41.161 : en:Chapter 24
01:57:17.130 : en:Chapter 25
02:01:24.744 : en:Chapter 26



Screenshots (click to enlarge to original size):

Andrea Bocelli: Concerto One Night in Central Park (2011)

Andrea Bocelli: Concerto One Night in Central Park (2011)

Andrea Bocelli: Concerto One Night in Central Park (2011)






More in My Blog



If you like this release please visit my blog
In it you will find Music and other releases