Subcategories

Andrew Lawrence-King, The Harp Consort - Les Travailleurs de la Mer (2004)

Posted By: ArlegZ
Andrew Lawrence-King, The Harp Consort - Les Travailleurs de la Mer (2004)

Andrew Lawrence-King, The Harp Consort - Les Travailleurs de la Mer (2004)
EAC | FLAC | Image (Cue & Log) ~ 443 Mb | Total time: 76:24 | Scans included
Classical | Label: Harmonia Mundi | # HMU 907330 | Recorded: 2003

The Baltimore Consort used to do programs similar to this one, but The Harp Consort takes the production values and vocal artistry to an even higher level. From the opening, a highly rhythmic, sensuously melodic traditional Breton number, you're drawn into a world of earthy, folk-based music that's filled out with the colors of period instruments and brought to life by the expressive voices of singers who allow the flow and pulse of the language to shape phrases and create natural accents and inflection. The result is affecting, engrossing performances that convey what we can only surmise is a reasonably accurate realization of these ancient and justifiably enduring tunes.

Performer:
The Harp Consort
Clara Sanabras, soprano, guitar
Paul Hillier, baritone
Andrew Lawrence-King, harp, psaltery, chifournie & director

Track List:
Anonymous
01. L'bouan houme Andrio
02. Y a de belles filles partout
03. Les filles du Caté
04. Les filles des parreisses
Pierre Attaingnant (c1494-c1552)
05. Les fiànchailles
John Playford (1623-1686)
06. L'nèr cotillon d'Mussieu l'Curaï
Pierre Attaingnant
07. La berouïsse
Jean-Philippe Rameau (1683-1764)
08. La maison ensorchellâïe
Anonymous
09. Dansai donc ou ne dansai pas
10. La chànson de la Ribotresse
Adam de la Halle (1240–1287)
11. Ma chifournie
Pierre Attaingnant
12. Le cat
Adam de la Halle
13. Minette
Anonymous
14. Belle rose
15. Le furet
16. Le voyage à Gernerui
Hue de la Ferté (fl 1220–1235)
17. Seul et content
Anonymous
18. Doublle la violaette & Le tour du moulin
19. Branle gai
20. Le voyage de Lihou
21. St. Pierre Lihou
Pierre Attaingnant
22. V'là men livre fini
Jacques Mangeant (1571-1639)
23. Jean-gros-Jean & Branle
Anonymous
24. Cha chon


Exact Audio Copy V1.3 from 2. September 2016

EAC extraction logfile from 13. November 2019, 18:21

The Harp Consort / Les travailleurs de la mer

Used drive : HL-DT-STBD-RE WH16NS40 Adapter: 1 ID: 0

Read mode : Secure
Utilize accurate stream : Yes
Defeat audio cache : Yes
Make use of C2 pointers : No

Read offset correction : 6
Overread into Lead-In and Lead-Out : No
Fill up missing offset samples with silence : Yes
Delete leading and trailing silent blocks : No
Null samples used in CRC calculations : Yes
Used interface : Native Win32 interface for Win NT & 2000

Used output format : User Defined Encoder
Selected bitrate : 1024 kBit/s
Quality : High
Add ID3 tag : No
Command line compressor : C:\Program Files (x86)\Exact Audio Copy\FLAC\FLAC.EXE
Additional command line options : -6 -V -T "ARTIST=%artist%" -T "TITLE=%title%" -T "ALBUM=%albumtitle%" -T "DATE=%year%" -T "TRACKNUMBER=%tracknr%" -T "GENRE=%genre%" -T "COMMENT=%comment%" -T "BAND=%albuminterpret%" -T "ALBUMARTIST=%albuminterpret%" -T "COMPOSER=%composer%" %haslyrics%–tag-from-file=LYRICS="%lyricsfile%"%haslyrics% -T "DISCNUMBER=%cdnumber%" -T "TOTALDISCS=%totalcds%" -T "TOTALTRACKS=%numtracks%" %hascover%–picture="%coverfile%"%hascover% %source% -o %dest%


TOC of the extracted CD

Track | Start | Length | Start sector | End sector
––––––––––––––––––––––––––––-
1 | 0:00.00 | 3:18.10 | 0 | 14859
2 | 3:18.10 | 2:50.25 | 14860 | 27634
3 | 6:08.35 | 2:42.32 | 27635 | 39816
4 | 8:50.67 | 1:14.63 | 39817 | 45429
5 | 10:05.55 | 4:17.40 | 45430 | 64744
6 | 14:23.20 | 2:16.35 | 64745 | 74979
7 | 16:39.55 | 2:35.15 | 74980 | 86619
8 | 19:14.70 | 6:25.40 | 86620 | 115534
9 | 25:40.35 | 1:49.00 | 115535 | 123709
10 | 27:29.35 | 3:34.40 | 123710 | 139799
11 | 31:04.00 | 2:32.65 | 139800 | 151264
12 | 33:36.65 | 1:13.10 | 151265 | 156749
13 | 34:50.00 | 6:20.15 | 156750 | 185264
14 | 41:10.15 | 1:31.35 | 185265 | 192124
15 | 42:41.50 | 1:34.70 | 192125 | 199244
16 | 44:16.45 | 3:30.55 | 199245 | 215049
17 | 47:47.25 | 6:38.55 | 215050 | 244954
18 | 54:26.05 | 2:29.30 | 244955 | 256159
19 | 56:55.35 | 0:40.00 | 256160 | 259159
20 | 57:35.35 | 6:11.20 | 259160 | 287004
21 | 63:46.55 | 2:04.45 | 287005 | 296349
22 | 65:51.25 | 3:40.02 | 296350 | 312851
23 | 69:31.27 | 2:11.55 | 312852 | 322731
24 | 71:43.07 | 4:41.20 | 322732 | 343826


Range status and errors

Selected range

Filename C:\Users\Grant\Desktop\The Harp Consort - Les travailleurs de la mer.wav

Peak level 96.9 %
Extraction speed 8.7 X
Range quality 100.0 %
Test CRC CE8C2347
Copy CRC CE8C2347
Copy OK

No errors occurred


AccurateRip summary

Track 1 accurately ripped (confidence 13) [8DEF160D] (AR v2)
Track 2 accurately ripped (confidence 13) [AC562469] (AR v2)
Track 3 accurately ripped (confidence 13) [F7D1F818] (AR v2)
Track 4 accurately ripped (confidence 13) [B52A816D] (AR v2)
Track 5 accurately ripped (confidence 13) [1F22C6F3] (AR v2)
Track 6 accurately ripped (confidence 13) [97F37CC1] (AR v2)
Track 7 accurately ripped (confidence 13) [318E6483] (AR v2)
Track 8 accurately ripped (confidence 13) [56A61EB5] (AR v2)
Track 9 accurately ripped (confidence 13) [08101FDA] (AR v2)
Track 10 accurately ripped (confidence 13) [0D74D849] (AR v2)
Track 11 accurately ripped (confidence 13) [45C7E076] (AR v2)
Track 12 accurately ripped (confidence 13) [96606A22] (AR v2)
Track 13 accurately ripped (confidence 13) [AC016B08] (AR v2)
Track 14 accurately ripped (confidence 13) [FD617E18] (AR v2)
Track 15 accurately ripped (confidence 13) [A1B0F58F] (AR v2)
Track 16 accurately ripped (confidence 13) [A7A9C673] (AR v2)
Track 17 accurately ripped (confidence 13) [832579BE] (AR v2)
Track 18 accurately ripped (confidence 13) [F218C346] (AR v2)
Track 19 accurately ripped (confidence 13) [F6743844] (AR v2)
Track 20 accurately ripped (confidence 13) [0CBD3B65] (AR v2)
Track 21 accurately ripped (confidence 13) [A21AEA14] (AR v2)
Track 22 accurately ripped (confidence 13) [2B32A19C] (AR v2)
Track 23 accurately ripped (confidence 13) [6C89C7C1] (AR v2)
Track 24 accurately ripped (confidence 13) [C67FC382] (AR v2)

All tracks accurately ripped

End of status report

–– CUETools DB Plugin V2.1.6

[CTDB TOCID: OPjk0fFkQ3AXpfsX7zjGUP7_IOM-] found
Submit result: OPjk0fFkQ3AXpfsX7zjGUP7_IOM- has been confirmed
Track | CTDB Status
1 | (19/19) Accurately ripped
2 | (19/19) Accurately ripped
3 | (19/19) Accurately ripped
4 | (19/19) Accurately ripped
5 | (19/19) Accurately ripped
6 | (19/19) Accurately ripped
7 | (19/19) Accurately ripped
8 | (19/19) Accurately ripped
9 | (19/19) Accurately ripped
10 | (19/19) Accurately ripped
11 | (19/19) Accurately ripped
12 | (19/19) Accurately ripped
13 | (19/19) Accurately ripped
14 | (19/19) Accurately ripped
15 | (19/19) Accurately ripped
16 | (19/19) Accurately ripped
17 | (19/19) Accurately ripped
18 | (19/19) Accurately ripped
19 | (19/19) Accurately ripped
20 | (19/19) Accurately ripped
21 | (19/19) Accurately ripped
22 | (19/19) Accurately ripped
23 | (19/19) Accurately ripped
24 | (18/19) Accurately ripped


==== Log checksum 1691D7ECBDE4567F7C487991AF2F2DF041B606BC5DF744FC955ACA80E939F9B4 ====

Andrew Lawrence-King, The Harp Consort - Les Travailleurs de la Mer (2004)

Thanks to the original releaser