Subcategories
Tags
Language
Tags

Andy Bell - Torsten The Beautiful Libertine (2016)

Posted By: gribovar
Andy Bell - Torsten The Beautiful Libertine (2016)

Andy Bell - Torsten The Beautiful Libertine (2016)
EAC Rip | FLAC (tracks+.cue+log) - 376 MB | MP3 CBR 320 kbps (LAME 3.93) - 151 MB | Covers - 160 MB
Genre: Pop, Cabaret, Synthpop | RAR 3% Rec. | Label: Strike Force Entertainment (SFE045)

A sequel to 2014's Torsten the Bareback Saint, this 2016 release continues the collaboration between Erasure vocalist Andy Bell and theatrical writers Barney Ashton-Bullock and Christopher Frost and revives their Torsten character, who is described completely in the opening "Statement of Intent." "Used to be someone doesn't mean that I'm a has-been" it goes, but this thoroughly modern Millie also proudly crows "I'm gonna do it all before I go to seed." Later titles "Blow Jobs for Cocaine" and "The Slums We Loved" prove that Torsten's "do it all" is different than the everyday "do it all," but debauchery rarely comes framed in such artful flair, as Torsten joins Dr. Frank-N-Furter, Hedwig, and Quentin Crisp on the Mt. Rushmore of the queer and aggressively inquisitive. The music is cabaret, the tunes are witty, infectious, and touching when need be, and Andy Bell is like a Joel Grey for the 21st century, captivating when it he plays it low and dazzling when he high-kicks during the more up numbers.
Tracklist:
01. Statement Of Intent
02. Beautiful Libertine
03. Loitering With Intent
04. This Town Needs Jesus
05. The Slums We Loved
06. Lady Domina Bizarre
07. (Ooh Baby, You're So) Queercore! (with Lana Pillay)
08. Blow Jobs For Cocaine
09. I'm Your Lover
10. Rupert Drinks Vodka
11. We Were Singing Along To Liza
12. Photos Of Daniel
13. I Am The Boy Who Smiled At You
14. Bond Street Catalogues
15. My Precious One
16. To Have And To Hold
17. Statement Of Intent (Reprise)

Total time: 01:02:25

Exact Audio Copy V1.3 from 2. September 2016

EAC extraction logfile from 26. March 2019, 0:33

Andy Bell / Torsten The Beautiful Libertine

Used drive : PIONEER DVD-RW DVR-221L Adapter: 1 ID: 1

Read mode : Secure
Utilize accurate stream : Yes
Defeat audio cache : Yes
Make use of C2 pointers : No

Read offset correction : 6
Overread into Lead-In and Lead-Out : No
Fill up missing offset samples with silence : Yes
Delete leading and trailing silent blocks : No
Null samples used in CRC calculations : Yes
Used interface : Native Win32 interface for Win NT & 2000
Gap handling : Appended to previous track

Used output format : User Defined Encoder
Selected bitrate : 1024 kBit/s
Quality : High
Add ID3 tag : No
Command line compressor : C:\Program Files (x86)\Exact Audio Copy\FLAC\FLAC.EXE
Additional command line options : -6 -V -T "COMMENT=Ripped for RRCLtd" -T "ARTIST=%artist%" -T "TITLE=%title%" -T "ALBUM=%albumtitle%" -T "DATE=%year%" -T "TRACKNUMBER=%tracknr%" -T "GENRE=%genre%" -T "BAND=%albuminterpret%" -T "ALBUMARTIST=%albuminterpret%" -T "COMPOSER=%composer%" %haslyrics%–tag-from-file=LYRICS="%lyricsfile%"%haslyrics% -T "DISCNUMBER=%cdnumber%" -T "TOTALDISCS=%totalcds%" -T "TOTALTRACKS=%numtracks%" %hascover%–picture="%coverfile%"%hascover% %source%


TOC of the extracted CD

Track | Start | Length | Start sector | End sector
––––––––––––––––––––––––––––-
1 | 0:00.00 | 3:02.46 | 0 | 13695
2 | 3:02.46 | 6:26.33 | 13696 | 42678
3 | 9:29.04 | 3:17.10 | 42679 | 57463
4 | 12:46.14 | 5:19.29 | 57464 | 81417
5 | 18:05.43 | 4:18.34 | 81418 | 100801
6 | 22:24.02 | 2:24.61 | 100802 | 111662
7 | 24:48.63 | 3:54.23 | 111663 | 129235
8 | 28:43.11 | 3:22.35 | 129236 | 144420
9 | 32:05.46 | 3:56.45 | 144421 | 162165
10 | 36:02.16 | 1:35.40 | 162166 | 169330
11 | 37:37.56 | 4:27.55 | 169331 | 189410
12 | 42:05.36 | 2:40.61 | 189411 | 201471
13 | 44:46.22 | 4:57.66 | 201472 | 223812
14 | 49:44.13 | 6:49.65 | 223813 | 254552
15 | 56:34.03 | 3:08.50 | 254553 | 268702
16 | 59:42.53 | 1:31.04 | 268703 | 275531
17 | 61:13.57 | 1:11.10 | 275532 | 280866


Track 1

Filename E:\RRCLtd Rip\01-Statement Of Intent.wav

Pre-gap length 0:00:02.00

Peak level 96.3 %
Extraction speed 1.9 X
Track quality 99.9 %
Test CRC 38141C96
Copy CRC 38141C96
Accurately ripped (confidence 7) [726E9CBB] (AR v2)
Copy OK

Track 2

Filename E:\RRCLtd Rip\02-Beautiful Libertine.wav

Pre-gap length 0:00:02.00

Peak level 99.9 %
Extraction speed 2.6 X
Track quality 99.9 %
Test CRC B347BD33
Copy CRC B347BD33
Accurately ripped (confidence 7) [3D246670] (AR v2)
Copy OK

Track 3

Filename E:\RRCLtd Rip\03-Loitering With Intent.wav

Pre-gap length 0:00:02.00

Peak level 99.9 %
Extraction speed 3.2 X
Track quality 100.0 %
Test CRC D4678872
Copy CRC D4678872
Accurately ripped (confidence 7) [D85684E7] (AR v2)
Copy OK

Track 4

Filename E:\RRCLtd Rip\04-This Town Needs Jesus.wav

Pre-gap length 0:00:02.00

Peak level 93.3 %
Extraction speed 3.0 X
Track quality 99.9 %
Test CRC DA21CB5C
Copy CRC DA21CB5C
Accurately ripped (confidence 7) [AD620AF8] (AR v2)
Copy OK

Track 5

Filename E:\RRCLtd Rip\05-The Slums We Loved.wav

Pre-gap length 0:00:00.43

Peak level 88.1 %
Extraction speed 3.9 X
Track quality 100.0 %
Test CRC 74365FCC
Copy CRC 74365FCC
Accurately ripped (confidence 7) [304D02CF] (AR v2)
Copy OK

Track 6

Filename E:\RRCLtd Rip\06-Lady Domino Bizarre.wav

Pre-gap length 0:00:00.68

Peak level 99.9 %
Extraction speed 3.7 X
Track quality 100.0 %
Test CRC CB8B100A
Copy CRC CB8B100A
Accurately ripped (confidence 7) [AFAEA5D1] (AR v2)
Copy OK

Track 7

Filename E:\RRCLtd Rip\07-(Oooh Baby, You're So) Queercore!.wav

Pre-gap length 0:00:02.00

Peak level 88.0 %
Extraction speed 4.1 X
Track quality 100.0 %
Test CRC A4F84342
Copy CRC A4F84342
Accurately ripped (confidence 7) [6DB2D2F6] (AR v2)
Copy OK

Track 8

Filename E:\RRCLtd Rip\08-Blow Jobs For Cocaine.wav

Pre-gap length 0:00:00.62

Peak level 97.2 %
Extraction speed 4.1 X
Track quality 100.0 %
Test CRC 4AC3E6CF
Copy CRC 4AC3E6CF
Accurately ripped (confidence 7) [4EF86F38] (AR v2)
Copy OK

Track 9

Filename E:\RRCLtd Rip\09-I'm Your Lover.wav

Pre-gap length 0:00:02.00

Peak level 94.5 %
Extraction speed 4.5 X
Track quality 100.0 %
Test CRC D089F34E
Copy CRC D089F34E
Accurately ripped (confidence 7) [FEC33E7C] (AR v2)
Copy OK

Track 10

Filename E:\RRCLtd Rip\10-Rupert Drinks Vodka.wav

Pre-gap length 0:00:02.00

Peak level 69.0 %
Extraction speed 3.7 X
Track quality 100.0 %
Test CRC 5DCF0D10
Copy CRC 5DCF0D10
Accurately ripped (confidence 7) [6EDA2CAD] (AR v2)
Copy OK

Track 11

Filename E:\RRCLtd Rip\11-We Were Singing Along To Liza.wav

Pre-gap length 0:00:02.00

Peak level 95.3 %
Extraction speed 4.8 X
Track quality 100.0 %
Test CRC 1A49B5DA
Copy CRC 1A49B5DA
Accurately ripped (confidence 7) [D209AB00] (AR v2)
Copy OK

Track 12

Filename E:\RRCLtd Rip\12-Photos Of Daniel.wav

Pre-gap length 0:00:03.66

Peak level 77.5 %
Extraction speed 4.6 X
Track quality 100.0 %
Test CRC 5CE8E3DF
Copy CRC 5CE8E3DF
Accurately ripped (confidence 7) [E7331097] (AR v2)
Copy OK

Track 13

Filename E:\RRCLtd Rip\13-I Am The Boy Who Smiled At You.wav

Pre-gap length 0:00:02.00

Peak level 99.9 %
Extraction speed 5.2 X
Track quality 100.0 %
Test CRC CF93B213
Copy CRC CF93B213
Accurately ripped (confidence 7) [87B85C35] (AR v2)
Copy OK

Track 14

Filename E:\RRCLtd Rip\14-Bond Street Catalogues.wav

Pre-gap length 0:00:02.00

Peak level 99.9 %
Extraction speed 5.5 X
Track quality 100.0 %
Test CRC F12281CB
Copy CRC F12281CB
Accurately ripped (confidence 7) [B50704AD] (AR v2)
Copy OK

Track 15

Filename E:\RRCLtd Rip\15-My Precious One.wav

Pre-gap length 0:00:02.00

Peak level 97.3 %
Extraction speed 5.2 X
Track quality 100.0 %
Test CRC D628AE82
Copy CRC D628AE82
Accurately ripped (confidence 7) [B868382D] (AR v2)
Copy OK

Track 16

Filename E:\RRCLtd Rip\16-To Have And To Hold.wav

Pre-gap length 0:00:02.00

Peak level 65.6 %
Extraction speed 4.5 X
Track quality 100.0 %
Test CRC 4AF12AAF
Copy CRC 4AF12AAF
Accurately ripped (confidence 7) [7C9D83D6] (AR v2)
Copy OK

Track 17

Filename E:\RRCLtd Rip\17-Statement Of Intent (Reprise).wav

Peak level 92.4 %
Extraction speed 4.2 X
Track quality 100.0 %
Test CRC 245FEADC
Copy CRC 245FEADC
Accurately ripped (confidence 7) [A123FEB1] (AR v2)
Copy OK


All tracks accurately ripped

No errors occurred

End of status report

–– CUETools DB Plugin V2.1.6

[CTDB TOCID: t0xRBuWW3CzJ0CH0e.RA.dU5aKw-] found
Submit result: t0xRBuWW3CzJ0CH0e.RA.dU5aKw- has been confirmed
Track | CTDB Status
1 | (11/11) Accurately ripped
2 | (11/11) Accurately ripped
3 | (11/11) Accurately ripped
4 | (11/11) Accurately ripped
5 | (11/11) Accurately ripped
6 | (11/11) Accurately ripped
7 | (11/11) Accurately ripped
8 | (11/11) Accurately ripped
9 | (11/11) Accurately ripped
10 | (11/11) Accurately ripped
11 | (11/11) Accurately ripped
12 | (11/11) Accurately ripped
13 | (11/11) Accurately ripped
14 | ( 9/11) Accurately ripped
15 | (11/11) Accurately ripped
16 | (11/11) Accurately ripped
17 | (11/11) Accurately ripped


==== Log checksum DA8EE1A5FF14D77F2D84C112D3FD6CF329446F4BD96758A2108831B0A0347B9D ====

[CUETools log; Date: 01.04.2020 2:05:00; Version: 2.1.4]
[CTDB TOCID: t0xRBuWW3CzJ0CH0e.RA.dU5aKw-] found.
Track | CTDB Status
1 | (14/15) Accurately ripped
2 | (15/15) Accurately ripped
3 | (15/15) Accurately ripped
4 | (15/15) Accurately ripped
5 | (15/15) Accurately ripped
6 | (15/15) Accurately ripped
7 | (15/15) Accurately ripped
8 | (15/15) Accurately ripped
9 | (15/15) Accurately ripped
10 | (15/15) Accurately ripped
11 | (15/15) Accurately ripped
12 | (15/15) Accurately ripped
13 | (15/15) Accurately ripped
14 | (13/15) Accurately ripped
15 | (15/15) Accurately ripped
16 | (15/15) Accurately ripped
17 | (15/15) Accurately ripped
[AccurateRip ID: 00294f1b-0204f59a-1e0ea011] found.
Track [ CRC | V2 ] Status
01 [fdf5378f|726e9cbb] (0+9/9) Accurately ripped
02 [d0adb02e|3d246670] (0+9/9) Accurately ripped
03 [bd3d6063|d85684e7] (0+9/9) Accurately ripped
04 [70a36e09|ad620af8] (0+9/9) Accurately ripped
05 [129d7889|304d02cf] (0+9/9) Accurately ripped
06 [78a2e5e3|afaea5d1] (0+9/9) Accurately ripped
07 [90f44e63|6db2d2f6] (0+9/9) Accurately ripped
08 [c693d930|4ef86f38] (0+9/9) Accurately ripped
09 [3f64cc52|fec33e7c] (0+9/9) Accurately ripped
10 [84f2808f|6eda2cad] (0+9/9) Accurately ripped
11 [942b5c45|d209ab00] (0+9/9) Accurately ripped
12 [efa6ac15|e7331097] (0+9/9) Accurately ripped
13 [1d695cde|87b85c35] (0+9/9) Accurately ripped
14 [73ce209d|b50704ad] (0+9/9) Accurately ripped
15 [41a61f36|b868382d] (0+9/9) Accurately ripped
16 [6bb71cf0|7c9d83d6] (0+9/9) Accurately ripped
17 [38685d75|a123feb1] (0+9/9) Accurately ripped

Track Peak [ CRC32 ] [W/O NULL] [ LOG ]
– 99,9 [7B3E1E0D] [893DF05D]
01 96,3 [38141C96] [D913E916] CRC32
02 99,9 [B347BD33] [7A9D3FFE] CRC32
03 99,9 [D4678872] [E271A8E5] CRC32
04 93,3 [DA21CB5C] [6F246D06] CRC32
05 88,1 [74365FCC] [327A4CF0] CRC32
06 99,9 [CB8B100A] [84D53CE7] CRC32
07 88,0 [A4F84342] [1CC3E873] CRC32
08 97,2 [4AC3E6CF] [F529C665] CRC32
09 94,5 [D089F34E] [6F7E035D] CRC32
10 69,0 [5DCF0D10] [B384393E] CRC32
11 95,3 [1A49B5DA] [FEEC517F] CRC32
12 77,5 [5CE8E3DF] [81A22A85] CRC32
13 99,9 [CF93B213] [A05E365C] CRC32
14 99,9 [F12281CB] [5CCFC41A] CRC32
15 97,3 [D628AE82] [5F01E74A] CRC32
16 65,6 [4AF12AAF] [4FBA49D9] CRC32
17 92,4 [245FEADC] [1DEF5516] CRC32

Thanks to RRC

See also: