Tags
Language
Tags

Angelight - Spa Музыка (Spa Music) Vol. 2-3 (2008-2010)

Posted By: gribovar
Angelight - Spa Музыка (Spa Music) Vol. 2-3 (2008-2010)

Angelight - Spa Музыка (Spa Music) Vol. 2-3 (2008-2010)
EAC Rip | FLAC (tracks+.cue+log) - 711 MB | MP3 CBR 320 kbps (LAME 3.93) - 275 MB | Covers - 203 MB
Genre: New Age | RAR 3% Rec. | Label: Angelight Records, Правительство Звука

Angelight is the pen name of Russian composer who was the founder of transformational change in the direction of music. His musical history began long before he released any musical works. He began a spiritual quest and achieved insight and the ability of clairvoyance. Soon after he discovered that he was able to cure people. During this time Angelight was enthusiastic of spirituality and psychology, and visited various scientific psychological seminars. At one of the the seminars, he presented his first music work, which opened a new page in the history of Russian music.
After this Angelight worked on 10 successive albums aimed at helping and improving mankind. Gradually, Angelight approached a new stage in his creativity. The result of this became the music series, "the appearance on light" with "Music From the World of Karlos Kastaneda" and "Gallery of Energy".
After this, Angelight wrote many articles about the technology of his transformational approach in writing music and began work on a whole new series of albums: "The Cured Powers of Music". His music is performed in concerts, through different auditoriums attended by children and retirees alike, Angelight is buoyed by the striking results that his music achieves.
Listening to his music, people become eager, sound and sure of themselves. Gradually, from different ends of Russia, come rave reviews about Angelight, his music and influence. His use of music in helping people has appeared in information to be used by teachers and doctors. Never resting, Angelight continues to sharpen his skill, and delve deeper into the secrets and mysteries of rhythms and melodies on an individual's consciousness.

Angelight - Spa Музыка (Spa Music) Vol. 2-3 (2008-2010)

Angelight - Spa Музыка Vol. 2: Красота и Здоровье (2008)
EAC Rip | FLAC (tracks+.cue+log) - 308 MB | MP3 CBR 320 kbps (LAME 3.93) - 126 MB | Covers - 123 MB
Genre: New Age | RAR 3% Rec. | Label: Angelight Records (AR CD43322)

Tracklist:
01. Утренняя Прохлада Леса
02. Лесное Благоухание
03. Тайна Природной Красоты
04. Вечная Молодость Природы
05. Просто Лес

Total time: 53:50

Exact Audio Copy V1.0 beta 3 from 29. August 2011

EAC extraction logfile from 29. December 2011, 21:04

Angelight / Spa музыка vol. 2, Красота и здоровье

Used drive : HL-DT-STDVDRAM GH22NS70 Adapter: 2 ID: 0

Read mode : Secure
Utilize accurate stream : Yes
Defeat audio cache : Yes
Make use of C2 pointers : No

Read offset correction : 667
Overread into Lead-In and Lead-Out : No
Fill up missing offset samples with silence : Yes
Delete leading and trailing silent blocks : No
Null samples used in CRC calculations : Yes
Used interface : Native Win32 interface for Win NT & 2000
Gap handling : Appended to previous track

Used output format : User Defined Encoder
Selected bitrate : 1024 kBit/s
Quality : High
Add ID3 tag : No
Command line compressor : C:\Program Files\Exact Audio Copy\Flac\flac.exe
Additional command line options : -V -8 -T "Genre=%genre%" -T "Artist=%artist%" -T "Title=%title%" -T "Album=%albumtitle%" -T "Date=%year%" -T "Tracknumber=%tracknr%" -T "Comment=%comment%" %source%


TOC of the extracted CD

Track | Start | Length | Start sector | End sector
––––––––––––––––––––––––––––-
1 | 0:00.00 | 14:36.00 | 0 | 65699
2 | 14:36.00 | 10:27.00 | 65700 | 112724
3 | 25:03.00 | 10:33.56 | 112725 | 160255
4 | 35:36.56 | 12:26.19 | 160256 | 216224
5 | 48:03.00 | 5:47.29 | 216225 | 242278


Track 1

Filename D:\Arh\Artworks\Angelight - Spa музыка vol. 2, Красота и здоровье(2008) [flac]\01 Angelight - Утренняя прохлада леса.wav

Pre-gap length 0:00:02.00

Peak level 98.3 %
Extraction speed 1.5 X
Track quality 100.0 %
Test CRC 021F9DFC
Copy CRC 021F9DFC
Track not present in AccurateRip database
Copy OK

Track 2

Filename D:\Arh\Artworks\Angelight - Spa музыка vol. 2, Красота и здоровье(2008) [flac]\02 Angelight - Лесное благоухание.wav

Peak level 98.0 %
Extraction speed 1.9 X
Track quality 100.0 %
Test CRC B88383BE
Copy CRC B88383BE
Track not present in AccurateRip database
Copy OK

Track 3

Filename D:\Arh\Artworks\Angelight - Spa музыка vol. 2, Красота и здоровье(2008) [flac]\03 Angelight - Тайна природной красоты.wav

Peak level 97.7 %
Extraction speed 2.1 X
Track quality 99.9 %
Test CRC 6A5BDBA5
Copy CRC 6A5BDBA5
Track not present in AccurateRip database
Copy OK

Track 4

Filename D:\Arh\Artworks\Angelight - Spa музыка vol. 2, Красота и здоровье(2008) [flac]\04 Angelight - Вечная молодость Природы.wav

Peak level 97.9 %
Extraction speed 2.5 X
Track quality 100.0 %
Test CRC 949D2217
Copy CRC 949D2217
Track not present in AccurateRip database
Copy OK

Track 5

Filename D:\Arh\Artworks\Angelight - Spa музыка vol. 2, Красота и здоровье(2008) [flac]\05 Angelight - Просто лес.wav

Peak level 43.5 %
Extraction speed 2.6 X
Track quality 100.0 %
Test CRC 22D32FEA
Copy CRC 22D32FEA
Track not present in AccurateRip database
Copy OK


None of the tracks are present in the AccurateRip database

No errors occurred

End of status report

==== Log checksum A41D0BEFDA4E80BF20D43633D938BF2F14CC3578153D3A858879922FC681BC88 ====

[CUETools log; Date: 04.08.2017 15:15:25; Version: 2.1.4]
[CTDB TOCID: TQV1S1TNYTv9got5Qg1JCQ2kezg-] found.
Track | CTDB Status
1 | (0/1) No match
2 | (0/1) No match
3 | (0/1) No match
4 | (0/1) No match
5 | (0/1) No match
[AccurateRip ID: 000c2a01-00379fd7-490c9e05] disk not present in database.

Track Peak [ CRC32 ] [W/O NULL] [ LOG ]
– 98,3 [D9559656] [0415F7CE]
01 98,3 [021F9DFC] [3E2B525C] CRC32
02 98,0 [B88383BE] [9C0A866D] CRC32
03 97,7 [6A5BDBA5] [2C1BD78E] CRC32
04 97,9 [949D2217] [02106FA5] CRC32
05 43,5 [22D32FEA] [8DD3B372] CRC32

Angelight - Spa Музыка (Spa Music) Vol. 2-3 (2008-2010)

Angelight - Spa Музыка Vol. 3: Блаженство и Умиротворение (2010)
EAC Rip | FLAC (tracks+.cue+log) - 403 MB | MP3 CBR 320 kbps (LAME 3.93) - 149 MB | Covers - 80 MB
Genre: New Age | RAR 3% Rec. | Label: Правительство Звука (ПРЗ CD29142)

Tracklist:
01. На закате
02. Вечное Блаженство (Релакс версия)
03. Когда Звезды Падают с Неба
04. Нежное Прикосновение Ночи
05. Космические Сны
06. У Мира Творение
07. Зачарованная Природа

Total time: 01:03:16

Exact Audio Copy V1.0 beta 3 from 29. August 2011

EAC extraction logfile from 23. January 2012, 12:00

Angelight / Spa музыка: Блаженство и умиротворение

Used drive : TSSTcorpCD-ROM TS-H192C Adapter: 0 ID: 0

Read mode : Secure
Utilize accurate stream : Yes
Defeat audio cache : Yes
Make use of C2 pointers : No

Read offset correction : 6
Overread into Lead-In and Lead-Out : No
Fill up missing offset samples with silence : Yes
Delete leading and trailing silent blocks : No
Null samples used in CRC calculations : Yes
Used interface : Native Win32 interface for Win NT & 2000
Gap handling : Appended to previous track

Used output format : User Defined Encoder
Selected bitrate : 1024 kBit/s
Quality : High
Add ID3 tag : No
Command line compressor : C:\Program Files\Exact Audio Copy\Flac\flac.exe
Additional command line options : -V -8 -T "Genre=%genre%" -T "Artist=%artist%" -T "Title=%title%" -T "Album=%albumtitle%" -T "Date=%year%" -T "Tracknumber=%tracknr%" -T "Comment=%comment%" %source%


TOC of the extracted CD

Track | Start | Length | Start sector | End sector
––––––––––––––––––––––––––––-
1 | 0:00.00 | 10:04.15 | 0 | 45314
2 | 10:04.15 | 9:53.10 | 45315 | 89799
3 | 19:57.25 | 7:02.72 | 89800 | 121521
4 | 27:00.22 | 10:54.70 | 121522 | 170641
5 | 37:55.17 | 8:46.16 | 170642 | 210107
6 | 46:41.33 | 6:06.40 | 210108 | 237597
7 | 52:47.73 | 10:28.48 | 237598 | 284745


Track 1

Filename D:\CD\Angelight - Spa музыка, Блаженство и умиротворение(2010) [flac]\01 Angelight - На закате.wav

Pre-gap length 0:00:02.00

Peak level 96.6 %
Extraction speed 2.1 X
Track quality 100.0 %
Test CRC DC5B57CE
Copy CRC DC5B57CE
Track not present in AccurateRip database
Copy OK

Track 2

Filename D:\CD\Angelight - Spa музыка, Блаженство и умиротворение(2010) [flac]\02 Angelight - Вечное Блаженство (релакс версия).wav

Peak level 96.6 %
Extraction speed 3.4 X
Track quality 100.0 %
Test CRC 25EB02DE
Copy CRC 25EB02DE
Track not present in AccurateRip database
Copy OK

Track 3

Filename D:\CD\Angelight - Spa музыка, Блаженство и умиротворение(2010) [flac]\03 Angelight - Когда звезды падают с неба.wav

Peak level 95.9 %
Extraction speed 4.7 X
Track quality 99.9 %
Test CRC 0D810ADB
Copy CRC 0D810ADB
Track not present in AccurateRip database
Copy OK

Track 4

Filename D:\CD\Angelight - Spa музыка, Блаженство и умиротворение(2010) [flac]\04 Angelight - Нежное прикосновение ночи.wav

Peak level 96.6 %
Extraction speed 5.1 X
Track quality 100.0 %
Test CRC 3E9AD5CF
Copy CRC 3E9AD5CF
Track not present in AccurateRip database
Copy OK

Track 5

Filename D:\CD\Angelight - Spa музыка, Блаженство и умиротворение(2010) [flac]\05 Angelight - Космические сны.wav

Peak level 96.6 %
Extraction speed 4.2 X
Track quality 99.9 %
Test CRC 011F27D1
Copy CRC 011F27D1
Track not present in AccurateRip database
Copy OK

Track 6

Filename D:\CD\Angelight - Spa музыка, Блаженство и умиротворение(2010) [flac]\06 Angelight - У Мира Творение.wav

Peak level 96.0 %
Extraction speed 4.3 X
Track quality 99.9 %
Test CRC A28B78E5
Copy CRC A28B78E5
Track not present in AccurateRip database
Copy OK

Track 7

Filename D:\CD\Angelight - Spa музыка, Блаженство и умиротворение(2010) [flac]\07 Angelight - Зачарованная Природа.wav

Peak level 96.6 %
Extraction speed 3.5 X
Track quality 99.9 %
Test CRC FF61C754
Copy CRC FF61C754
Track not present in AccurateRip database
Copy OK


None of the tracks are present in the AccurateRip database

No errors occurred

End of status report

==== Log checksum 0C3C0154E02796482B9B1B2D88E551701FFF16BBFA5A47D95898EACC86ADFB4A ====

[CUETools log; Date: 04.08.2017 15:15:49; Version: 2.1.4]
[CTDB TOCID: w4RvVrmtd5zm9sRvLRS9kwyXNn8-] disk not present in database.
[AccurateRip ID: 0011b233-00694d8b-5f0ed407] found.
Track [ CRC | V2 ] Status
01 [cec0961e|c0251cc8] (0+0/1) No match
02 [eb656140|fc08e470] (0+0/1) No match
03 [ac1d7ff9|495cc14a] (0+0/1) No match
04 [bd51dce3|f62a336b] (0+1/1) Accurately ripped
05 [7cc41a9e|ea46f282] (0+1/1) Accurately ripped
06 [15a5adae|d05d1040] (0+1/1) Accurately ripped
07 [45dbd439|d6cd8ac0] (0+0/1) No match

Track Peak [ CRC32 ] [W/O NULL] [ LOG ]
– 96,6 [09F56C21] [9C5BBD7F]
01 96,6 [DC5B57CE] [D5EFB2FE] CRC32
02 96,6 [25EB02DE] [B4B9A780] CRC32
03 95,9 [0D810ADB] [98C68A59] CRC32
04 96,6 [3E9AD5CF] [67B90571] CRC32
05 96,6 [011F27D1] [B7E39D02] CRC32
06 96,0 [A28B78E5] [F5EEB79E] CRC32
07 96,6 [FF61C754] [C0A3BC57] CRC32

Thanks to ser_

See also:
Angelight - 5 Albums (Intimland series) (2001-2010)