Tags
Language
Tags
March 2024
Su Mo Tu We Th Fr Sa
25 26 27 28 29 1 2
3 4 5 6 7 8 9
10 11 12 13 14 15 16
17 18 19 20 21 22 23
24 25 26 27 28 29 30
31 1 2 3 4 5 6
Attention❗ To save your time, in order to download anything on this site, you must be registered 👉 HERE. If you do not have a registration yet, it is better to do it right away. ✌

( • )( • ) ( ͡⚆ ͜ʖ ͡⚆ ) (‿ˠ‿)
SpicyMags.xyz

Ann Crumb with Harry Allen and his All-Star Jazz Band - A Broadway Diva Swings (2000)

Posted By: Designol
Ann Crumb with Harry Allen and his All-Star Jazz Band - A Broadway Diva Swings (2000)

Ann Crumb with Harry Allen and his All-Star Jazz Band - A Broadway Diva Swings (2000)
EAC | FLAC | Tracks (Cue&Log) ~ 439 Mb | Mp3 (CBR320) ~ 205 Mb | Scans included
Label: Who's Who In Jazz | # CD-21054 | Time: 01:08:56
Vocal Jazz, Mainstream Jazz, Swing

When one of Broadway's (and London's West End's) best known divas teams up with internationally known jazz musician Harry Allen (and his hot-as-a pistol saxophone), the result is pure musical magic. Add to that mix a trio of some of the country's most talented sidemen and what we have is this fantastic CD of traditional jazz and blues recordings. From the sultry "Blues in the Night" to the favorite instrumental "Smoke Get's in Your Eyes", You will love every minute of this live session.

Ann Crumb's CD is fantastic! The first song, Blues in the Night, is an incredible start. Her voice is strong and earthy. You believe the words she sings. Ruby is intriguing and heartfelt. The song that really blows my mind and which I have played more often than any other on the album is "Cry me a river." This is simply the best version of this blues/jazz song I have ever heard. After hearing this CD I wish she would do another … real soon! I would especially like her to sing "Summertime" from Porgy and Bess.

Review by ChuckDPhoto, Amazon

Ann Crumb with Harry Allen and his All-Star Jazz Band - A Broadway Diva Swings (2000)



Tracklist:

01. Blues in the Night (04:32)
02. I'm Gonna Go Fishin' (04:04)
03. Lover Man (04:41)
04. Come Rain or Come Shine (04:10)
05. Lover Come Back (Instrumental) (07:45)
06. Soon It's Gonna Rain (06:46)
07. Ruby (06:36)
08. I'm a Stranger Here Myself (03:16)
09. Smoke Gets in Your Eyes (Instrumental) (07:35)
10. Cry Me A River (04:44)
11. Deedle's Blues (02:26)
12. All Right, Okay, You Win (I'm in Love With You) (03:51)
13. Sent For You Yesterday (Instrumental) (08:24)


Exact Audio Copy V1.0 beta 3 from 29. August 2011

EAC extraction logfile from 4. May 2013, 16:49

Ann Crumb / A Broadway Diva Swings

Used drive : HL-DT-STDVD-RAM GSA-H55N Adapter: 0 ID: 2

Read mode : Secure
Utilize accurate stream : Yes
Defeat audio cache : Yes
Make use of C2 pointers : No

Read offset correction : 102
Overread into Lead-In and Lead-Out : Yes
Fill up missing offset samples with silence : Yes
Delete leading and trailing silent blocks : No
Null samples used in CRC calculations : Yes
Used interface : Native Win32 interface for Win NT & 2000
Gap handling : Appended to previous track

Used output format : User Defined Encoder
Selected bitrate : 128 kBit/s
Quality : High
Add ID3 tag : No
Command line compressor : G:\Program Files\Exact Audio Copy\Encoder\flac.exe
Additional command line options : -V -8 -T "Genre=%genre%" -T "Artist=%artist%" -T "Title=%title%" -T "Album=%albumtitle%" -T "Date=%year%" -T "Tracknumber=%tracknr%" -T "Comment=EAC1.0b3 FLAC -8" %source%


TOC of the extracted CD

Track | Start | Length | Start sector | End sector
––––––––––––––––––––––––––––-
1 | 0:00.00 | 4:32.01 | 0 | 20400
2 | 4:32.01 | 4:04.03 | 20401 | 38703
3 | 8:36.04 | 4:41.57 | 38704 | 59835
4 | 13:17.61 | 4:10.00 | 59836 | 78585
5 | 17:27.61 | 7:45.70 | 78586 | 113530
6 | 25:13.56 | 6:46.09 | 113531 | 143989
7 | 31:59.65 | 6:36.28 | 143990 | 173717
8 | 38:36.18 | 3:16.37 | 173718 | 188454
9 | 41:52.55 | 7:35.53 | 188455 | 222632
10 | 49:28.33 | 4:44.55 | 222633 | 243987
11 | 54:13.13 | 2:26.39 | 243988 | 254976
12 | 56:39.52 | 3:51.38 | 254977 | 272339
13 | 60:31.15 | 8:24.25 | 272340 | 310164


Track 1

Filename F:\WAV\01 - Blues in the Night.wav

Pre-gap length 0:00:02.00

Peak level 99.9 %
Extraction speed 4.9 X
Track quality 100.0 %
Test CRC 0E19E2A6
Copy CRC 0E19E2A6
Accurately ripped (confidence 2) [CD99C92B] (AR v1)
Copy OK

Track 2

Filename F:\WAV\02 - I'm Gonna Go Fishin'.wav

Pre-gap length 0:00:02.00

Peak level 100.0 %
Extraction speed 4.7 X
Track quality 99.9 %
Test CRC 533C4900
Copy CRC 533C4900
Accurately ripped (confidence 2) [FD444F69] (AR v1)
Copy OK

Track 3

Filename F:\WAV\03 - Lover Man.wav

Pre-gap length 0:00:02.00

Peak level 100.0 %
Extraction speed 5.8 X
Track quality 100.0 %
Test CRC 89236C75
Copy CRC 89236C75
Accurately ripped (confidence 2) [85BAFE98] (AR v1)
Copy OK

Track 4

Filename F:\WAV\04 - Come Rain or Come Shine.wav

Pre-gap length 0:00:02.01

Peak level 99.9 %
Extraction speed 5.4 X
Track quality 99.9 %
Test CRC C2D4E649
Copy CRC C2D4E649
Accurately ripped (confidence 2) [3F492DAA] (AR v1)
Copy OK

Track 5

Filename F:\WAV\05 - Lover Come Back (Instrumental).wav

Pre-gap length 0:00:02.00

Peak level 99.9 %
Extraction speed 7.0 X
Track quality 100.0 %
Test CRC FAAB6778
Copy CRC FAAB6778
Accurately ripped (confidence 1) [699023D7] (AR v1)
Copy OK

Track 6

Filename F:\WAV\06 - Soon It's Gonna Rain.wav

Pre-gap length 0:00:02.00

Peak level 99.9 %
Extraction speed 7.4 X
Track quality 100.0 %
Test CRC E1D263E7
Copy CRC E1D263E7
Accurately ripped (confidence 2) [5A9CE9C1] (AR v1)
Copy OK

Track 7

Filename F:\WAV\07 - Ruby.wav

Pre-gap length 0:00:02.00

Peak level 92.9 %
Extraction speed 7.1 X
Track quality 99.9 %
Test CRC 81842620
Copy CRC 81842620
Accurately ripped (confidence 2) [CC31EF97] (AR v1)
Copy OK

Track 8

Filename F:\WAV\08 - I'm a Stranger Here Myself.wav

Pre-gap length 0:00:02.01

Peak level 99.9 %
Extraction speed 7.3 X
Track quality 100.0 %
Test CRC B9F5345B
Copy CRC B9F5345B
Accurately ripped (confidence 2) [F20C4BAB] (AR v1)
Copy OK

Track 9

Filename F:\WAV\09 - Smoke Gets in Your Eyes (Instrumental).wav

Pre-gap length 0:00:02.00

Peak level 85.7 %
Extraction speed 8.3 X
Track quality 100.0 %
Test CRC 9973EEE0
Copy CRC 9973EEE0
Accurately ripped (confidence 1) [80046F42] (AR v1)
Copy OK

Track 10

Filename F:\WAV\10 - Cry Me A River.wav

Pre-gap length 0:00:02.00

Peak level 99.9 %
Extraction speed 8.2 X
Track quality 100.0 %
Test CRC 3A2D36A9
Copy CRC 3A2D36A9
Accurately ripped (confidence 2) [74A8401A] (AR v1)
Copy OK

Track 11

Filename F:\WAV\11 - Deedle's Blues.wav

Pre-gap length 0:00:02.01

Peak level 99.3 %
Extraction speed 7.3 X
Track quality 100.0 %
Test CRC 087ACC74
Copy CRC 087ACC74
Accurately ripped (confidence 2) [969D73B3] (AR v1)
Copy OK

Track 12

Filename F:\WAV\12 - All Right, Okay, You Win (I'm in Love With You).wav

Pre-gap length 0:00:02.00

Peak level 99.9 %
Extraction speed 8.3 X
Track quality 100.0 %
Test CRC 17A4AF43
Copy CRC 17A4AF43
Accurately ripped (confidence 2) [30EB2658] (AR v1)
Copy OK

Track 13

Filename F:\WAV\13 - Sent For You Yesterday (Instrumental).wav

Pre-gap length 0:00:02.01

Peak level 97.3 %
Extraction speed 7.4 X
Track quality 99.9 %
Test CRC BD571E2A
Copy CRC BD571E2A
Accurately ripped (confidence 1) [5128AE39] (AR v1)
Copy OK


All tracks accurately ripped

No errors occurred

End of status report

==== Log checksum F6C3C3F82E11FD67279CE0F7897A50BEB51F6A3636B880AD90B9D1A1B4CB9172 ====

foobar2000 1.2 / Dynamic Range Meter 1.1.1
log date: 2015-07-09 17:41:42

––––––––––––––––––––––––––––––––––––––––
Analyzed: Ann Crumb / A Broadway Diva Swings
––––––––––––––––––––––––––––––––––––––––

DR Peak RMS Duration Track
––––––––––––––––––––––––––––––––––––––––
DR11 0.00 dB -13.69 dB 4:32 01-Blues in the Night
DR12 0.00 dB -14.70 dB 4:04 02-I'm Gonna Go Fishin'
DR12 0.00 dB -15.05 dB 4:42 03-Lover Man
DR13 -0.01 dB -15.66 dB 4:10 04-Come Rain or Come Shine
DR11 -0.01 dB -12.61 dB 7:46 05-Lover Come Back (Instrumental)
DR12 0.00 dB -15.27 dB 6:46 06-Soon It's Gonna Rain
DR12 -0.64 dB -15.18 dB 6:36 07-Ruby
DR12 -0.01 dB -13.91 dB 3:16 08-I'm a Stranger Here Myself
DR10 -1.33 dB -14.29 dB 7:36 09-Smoke Gets in Your Eyes (Instrumental)
DR11 0.00 dB -13.37 dB 4:45 10-Cry Me A River
DR12 -0.05 dB -13.75 dB 2:27 11-Deedle's Blues
DR11 0.00 dB -12.06 dB 3:52 12-All Right, Okay, You Win (I'm in Love With You)
DR11 -0.23 dB -13.69 dB 8:24 13-Sent For You Yesterday (Instrumental)
––––––––––––––––––––––––––––––––––––––––

Number of tracks: 13
Official DR value: DR12

Samplerate: 44100 Hz
Channels: 2
Bits per sample: 16
Bitrate: 843 kbps
Codec: FLAC
================================================================================

Ann Crumb with Harry Allen and his All-Star Jazz Band - A Broadway Diva Swings (2000)

Ann Crumb with Harry Allen and his All-Star Jazz Band - A Broadway Diva Swings (2000)

All thanks to original releaser - simple.i

More interesting music in My Blog