Tags
Language
Tags

Aretha Franklin & King Curtis - Live At Fillmore West: Don't Fight The Feeling (1971) [2005, 4CDs Numbered Limited Edition]

Posted By: BlondStyle
Aretha Franklin & King Curtis - Live At Fillmore West: Don't Fight The Feeling (1971) [2005, 4CDs Numbered Limited Edition]

Aretha Franklin & King Curtis - Live At Fillmore West: Don't Fight The Feeling (1971) [4CD] (2005)
R&B, Soul, Southern Soul, Live | EAC Rip | FLAC, Tracks+CUE+LOG+Scans (JPEG) | 05:12:32 h. | 2,14 Gb
Label: Rhino Handmade (USA) | Cat.# RHM2 7890 | Released: 2005-05-03 (1971)

The four CDs in this Rhino Handmade set - available only over the Internet unfortunately - contains the complete concerts of Aretha Franklin and King Curtis' stand at the Fillmore West in March of 1971 (not February as identified on the original LPs). Franklin's performances at the Fillmore were her first, and producer Jerry Wexler came up with the idea of using studio players in lieu of her regular band. Franklin had worked with Curtis previously in the studio and the players he brought to the table included Cornell Dupree, drummer Bernard Purdie, Pancho Morales on congas, bassist Jerry Jemmont, and electric pianist Truman Thomas. In addition, the band enlisted Billy Preston to play organ and also enlisted the aid of the Memphis Horns. In other words, this was a group that could actually push the Queen of Soul out onto a ledge and was a match for her vocal power. The Mermphis Horns introduced the shows each night and then brought Curtis and his band out for an opening set. And from night one, as compiled and heard on his Live at Fillmore West album, these sets were smoking, in the pocket, and greasy, with highlights like "Whole Lotta Love," "Them Changes," "Whiter Shade of Pale," and a burning cover of "Signed, Sealed, Delivered (I'm Yours)." When Franklin does walk onto the stage, she struts and goes into high gear with "Respect." Her performance on that opening night includes amazing renditions of "Spirit in the Dark" (with Ray Charles guesting), "Bridge Over Troubled Water," "Love the One You're With" (also with Charles), and "Dr. Feelgood." The original album is augmented with tunes that didn't make the cut, including the oft-bootlegged "Call Me." In listening to these shows, what is striking is realizing that the majority of the Live at Fillmore West LP was taken from the last night of performances. The previous two evenings here then are startling in contrast, often in intensity and sometimes in sheer grit. The opening night's read of "Bridge Over Troubled Water" is superior to either of the others, though sonically it's a bit thinner. Another gem is the version of Bobby Bland's "Share Your Love With Me." That was left off the original album. In all there are 42 unreleased performances! In addition to wonderful between-song banter and inside jokes, the true flow of the shows, the enthusiasm of the audiences, and raw, in-your-face performances put this set in a league of its own. There are also a few decent photographs and an authoritative yet friendly liner essay by British critic David Nathan. This is a limited edition and most likely won't be on the Rhino Handmade shelves long. Aural history can be dry at times and of interest to those who have a penchant for such things. Aretha Franklin and King Curtis' Don't Fight the Feeling is as saucy as it gets.
~Review by Thom Jurek

Aretha Franklin & King Curtis - Live At Fillmore West: Don't Fight The Feeling (1971) [2005, 4CDs Numbered Limited Edition]

Aretha Franklin & King Curtis - Live At Fillmore West: Don't Fight The Feeling (1971) [2005, 4CDs Numbered Limited Edition]


Aretha Franklin & King Curtis - Live At Fillmore West: Don't Fight The Feeling (1971) [2005, 4CDs Numbered Limited Edition]


Release of these albums:
Aretha Franklin - Live At Fillmore West: 1971, May, 19 [LP Atlantic Records, Cat.# SD 7205, USA]
King Curtis ‎- Live At Fillmore West: 1971, August [LP ATCO Records, Cat.# SD 33-359, USA]
Release of this 4CD Set: 2005, May, 3 [CD Rhino Handmade (USA), Cat.# RHM2 7890 / UPC: 603497789023]
Notes: Limited to 5000 numbered copies. Remastered.
Compilation produced for release by Cheryl Pawelski
℗© 2005 Warner Strategic Marketing, A Warner Music Group Company
Printed in U.S.A.

Aretha Franklin & King Curtis - Live At Fillmore West: Don't Fight The Feeling (1971) [2005, 4CDs Numbered Limited Edition]


Tracklist:

Disc 1

01. Intro (0:49)
02. The Memphis Horns - Knock On Wood (05:37)
03. King Curtis - Whole Lotta Love (02:28)
04. King Curtis - Them Changes (05:33)
05. King Curtis - A Whiter Shade Of Pale (04:41)
06. Billy Preston - My Sweet Lord (02:33)
07. King Curtis - Ode To Billie Joe (04:35)
08. King Curtis - Mr. Bojangles (04:48)
09. King Curtis - Soul Serenade (04:50)
10. King Curtis - Memphis Soul Stew (05:04)
11. King Curtis - Signed, Sealed, Delivered (I'm Yours) (02:49)
12. Aretha Franklin - Respect (03:26)
13. Aretha Franklin - Call Me (06:24)
14. Aretha Franklin - Mixed-Up Girl (02:57)
15. Aretha Franklin - Love The One You're With (04:17)
16. Aretha Franklin - Bridge Over Troubled Water (06:15)
17. Aretha Franklin - Eleanor Rigby (02:36)
18. Aretha Franklin - Make It With You (04:26)
19. Aretha Franklin - Don't Play That Song (03:14)

Disc 2

01. Aretha Franklin - You're All I Need To Get By (04:50)
02. Aretha Franklin - Dr. Feelgood (06:41)
03. Aretha Franklin - Spirit In The Dark (06:44)
04. Aretha Franklin - Spirit In The Dark (Reprise) (02:39)
05. The Memphis Horns - Knock On Wood (05:03)
06. King Curtis - Them Changes (07:40)
07. King Curtis - Whole Lotta Love (02:15)
08. King Curtis - A Whiter Shade Of Pale (04:56)
09. King Curtis - I Stand Accused (06:37)
10. King Curtis - Soul Serenade (03:54)
11. King Curtis - Memphis Soul Stew (07:23)
12. Aretha Franklin - Respect (03:46)
13. Aretha Franklin - Call Me (05:09)
14. Aretha Franklin - Love The One You're With (04:23)
15. Aretha Franklin - Bridge Over Troubled Water (07:36)

Disc 3

01. Aretha Franklin - Share Your Love With Me (04:35)
02. Aretha Franklin - Eleanor Rigby (02:48)
03. Aretha Franklin - Make It With You (04:51)
04. Aretha Franklin - You're All I Need To Get By (04:52)
05. Aretha Franklin - Don't Play That Song (03:59)
06. Aretha Franklin - Dr. Feelgood (09:04)
07. Aretha Franklin - Spirit In The Dark (07:53)
08. Aretha Franklin - Spirit In The Dark (Reprise) (05:52)
09. The Memphis Horns - Knock On Wood (05:26)
10. King Curtis - Them Changes (07:01)
11. King Curtis - A Whiter Shade Of Pale (05:24)
12. King Curtis - Ode To Billie Joe (03:17)
13. King Curtis - Soul Serenade (05:31)
14. King Curtis - Memphis Soul Stew (07:41)

Disc 4

01. Aretha Franklin - Respect (04:01)
02. Aretha Franklin - Call Me (04:55)
03. Aretha Franklin - Love The One You're With (04:19)
04. Aretha Franklin - Bridge Over Troubled Water (07:26)
05. Aretha Franklin - Share Your Love With Me (04:01)
06. Aretha Franklin - Eleanor Rigby (02:39)
07. Aretha Franklin - Make It With You (04:53)
08. Aretha Franklin - Don't Play That Song (03:40)
09. Aretha Franklin - You're All I Need To Get By (04:51)
10. Aretha Franklin - Dr. Feelgood (04:22)
11. Aretha Franklin - Spirit In The Dark (07:18)
12. Aretha Franklin With Ray Charles - Spirit In The Dark (Reprise) (19:24)
13. Aretha Franklin - Reach Out And Touch (Somebody's Hand) (05:02)

Tracks 1-1 to 2-4 were recorded on March 5, 1971.
Tracks 2-5 to 3-8 were recorded on March 6, 1971.
Tracks 3-9 to 4-13 were recorded on March 7, 1971.


EAC extraction logfile from 1. December 2010, 20:57 for CD
Various Artists / Live At Fillmore West-Don't Fight The Feeling-Disc1

Used drive : HP DVD Writer 1170d Adapter: 1 ID: 1
Read mode : Secure with NO C2, accurate stream, disable cache
Read offset correction : 6
Overread into Lead-In and Lead-Out : No

Used output format : C:\Eac\Codecs\flac.exe (User Defined Encoder)
320 kBit/s
Additional command line options : -8 -V -T "artist=%a" -T "title=%t" -T "album=%g" -T "date=%y" -T "tracknumber=%n" -T "genre=%m" -T "comment=EAC Flac 1.1.2 -8" %s

Other options :
Fill up missing offset samples with silence : Yes
Delete leading and trailing silent blocks : No
Installed external ASPI interface


Track 1
Filename C:\Documents and Settings\aretha\CD 1\01 - Intro.wav

Pre-gap length 0:00:02.00

Peak level 63.5 %
Track quality 100.0 %
Test CRC E1AD4A89
Copy CRC E1AD4A89
Copy OK

Track 2
Filename C:\Documents and Settings\aretha\CD 1\02 - Knock On Wood.wav

Peak level 92.7 %
Track quality 100.0 %
Test CRC 4D77E61A
Copy CRC 4D77E61A
Copy OK

Track 3
Filename C:\Documents and Settings\aretha\CD 1\03 - Whole Lotta Love.wav

Pre-gap length 0:00:18.18

Peak level 95.6 %
Track quality 100.0 %
Test CRC 0B2A9627
Copy CRC 0B2A9627
Copy OK

Track 4
Filename C:\Documents and Settings\aretha\CD 1\04 - Them Changes.wav

Peak level 96.3 %
Track quality 99.9 %
Test CRC AFDE4FBE
Copy CRC AFDE4FBE
Copy OK

Track 5
Filename C:\Documents and Settings\aretha\CD 1\05 - A Whiter Shade of Pale.wav

Peak level 98.8 %
Track quality 100.0 %
Test CRC 06231BAE
Copy CRC 06231BAE
Copy OK

Track 6
Filename C:\Documents and Settings\aretha\CD 1\06 - My Sweet Lord.wav

Pre-gap length 0:00:15.50

Peak level 97.9 %
Track quality 100.0 %
Test CRC 00AAA502
Copy CRC 00AAA502
Copy OK

Track 7
Filename C:\Documents and Settings\aretha\CD 1\07 - Ode To Billie Joe.wav

Pre-gap length 0:00:02.40

Peak level 95.2 %
Track quality 100.0 %
Test CRC 0E1FE00E
Copy CRC 0E1FE00E
Copy OK

Track 8
Filename C:\Documents and Settings\aretha\CD 1\08 - Mr. Bojangles.wav

Pre-gap length 0:00:23.93

Peak level 91.3 %
Track quality 100.0 %
Test CRC B9730F03
Copy CRC B9730F03
Copy OK

Track 9
Filename C:\Documents and Settings\aretha\CD 1\09 - Soul Serenade.wav

Pre-gap length 0:00:15.52

Peak level 94.4 %
Track quality 100.0 %
Test CRC 0B27E5AE
Copy CRC 0B27E5AE
Copy OK

Track 10
Filename C:\Documents and Settings\aretha\CD 1\10 - Memphis Soul Stew.wav

Peak level 96.9 %
Track quality 100.0 %
Test CRC 47FE11A0
Copy CRC 47FE11A0
Copy OK

Track 11
Filename C:\Documents and Settings\aretha\CD 1\11 - Signed, Sealed, Delivered (I'm Yours).wav

Peak level 96.4 %
Track quality 100.0 %
Test CRC 748015AC
Copy CRC 748015AC
Copy OK

Track 12
Filename C:\Documents and Settings\aretha\CD 1\12 - Respect.wav

Pre-gap length 0:00:06.78

Peak level 96.2 %
Track quality 100.0 %
Test CRC F35B7646
Copy CRC F35B7646
Copy OK

Track 13
Filename C:\Documents and Settings\aretha\CD 1\13 - Call Me.wav

Peak level 95.8 %
Track quality 100.0 %
Test CRC 92BEC74B
Copy CRC 92BEC74B
Copy OK

Track 14
Filename C:\Documents and Settings\aretha\CD 1\14 - Mixed-Up Girl.wav

Pre-gap length 0:00:40.41

Peak level 90.9 %
Track quality 100.0 %
Test CRC 24F32CEC
Copy CRC 24F32CEC
Copy OK

Track 15
Filename C:\Documents and Settings\aretha\CD 1\15 - Love The One You're With.wav

Pre-gap length 0:00:30.77

Peak level 98.8 %
Track quality 99.9 %
Test CRC 40B7F8B6
Copy CRC 40B7F8B6
Copy OK

Track 16
Filename C:\Documents and Settings\aretha\CD 1\16 - Bridge Over Troubled Water.wav

Pre-gap length 0:00:03.40

Peak level 89.1 %
Track quality 100.0 %
Test CRC 5471CB3B
Copy CRC 5471CB3B
Copy OK

Track 17
Filename C:\Documents and Settings\aretha\CD 1\17 - Eleanor Rigby.wav

Peak level 98.3 %
Track quality 100.0 %
Test CRC A92BE241
Copy CRC A92BE241
Copy OK

Track 18
Filename C:\Documents and Settings\aretha\CD 1\18 - Make It With You.wav

Pre-gap length 0:00:05.68

Peak level 92.9 %
Track quality 100.0 %
Test CRC BE465F31
Copy CRC BE465F31
Copy OK

Track 19
Filename C:\Documents and Settings\aretha\CD 1\19 - Don't Play That Song.wav

Peak level 95.8 %
Track quality 100.0 %
Test CRC D0C4833C
Copy CRC D0C4833C
Copy OK

No errors occured


End of status report

––––––––––––––––––––––––––––––––––––––––
Analyzed: Aretha Franklin / Live At Fillmore West-Don't Fight The Feeling-Disc1 (1-8)
Billy Preston / Live At Fillmore West-Don't Fight The Feeling-Disc1 (9)
King Curtis / Live At Fillmore West-Don't Fight The Feeling-Disc1 (10-17)
The Memphis Horns / Live At Fillmore West-Don't Fight The Feeling-Disc1 (18)
Unknown / Live At Fillmore West-Don't Fight The Feeling-Disc1 (19)
––––––––––––––––––––––––––––––––––––––––

DR Peak RMS Duration Track
––––––––––––––––––––––––––––––––––––––––
DR11 -0.33 dB -13.57 dB 3:26 12-Respect
DR12 -0.37 dB -16.63 dB 6:24 13-Call Me
DR11 -0.82 dB -14.78 dB 2:58 14-Mixed-Up Girl
DR11 -0.10 dB -14.24 dB 4:18 15-Love The One You're With
DR12 -1.00 dB -16.69 dB 6:16 16-Bridge Over Troubled Water
DR11 -0.14 dB -13.37 dB 2:36 17-Eleanor Rigby
DR13 -0.63 dB -16.05 dB 4:26 18-Make It With You
DR11 -0.37 dB -14.27 dB 3:15 19-Don't Play That Song
DR11 -0.18 dB -12.93 dB 2:33 06-My Sweet Lord
DR11 -0.39 dB -13.22 dB 2:28 03-Whole Lotta Love
DR11 -0.32 dB -12.27 dB 5:33 04-Them Changes
DR13 -0.10 dB -16.56 dB 4:42 05-A Whiter Shade of Pale
DR11 -0.42 dB -14.48 dB 4:35 07-Ode To Billie Joe
DR12 -0.79 dB -17.11 dB 4:48 08-Mr. Bojangles
DR13 -0.50 dB -15.97 dB 4:51 09-Soul Serenade
DR11 -0.27 dB -14.94 dB 5:05 10-Memphis Soul Stew
DR11 -0.32 dB -13.51 dB 2:49 11-Signed, Sealed, Delivered (I'm Yours)
DR12 -0.65 dB -14.16 dB 5:37 02-Knock On Wood
DR14 -3.93 dB -23.41 dB 0:49 01-Intro
––––––––––––––––––––––––––––––––––––––––

Number of tracks: 19
Official DR value: DR12

Samplerate: 44100 Hz
Channels: 2
Bits per sample: 16
Bitrate: 768 kbps
Codec: FLAC
================================================================================

EAC extraction logfile from 9. December 2010, 20:09 for CD
Various Artists / Live at Fillmore West-Don't Fight The Feeling-Disc 2

Used drive : HP DVD Writer 1170d Adapter: 2 ID: 0
Read mode : Secure with NO C2, accurate stream, disable cache
Read offset correction : 6
Overread into Lead-In and Lead-Out : No

Used output format : C:\Eac\Codecs\flac.exe (User Defined Encoder)
320 kBit/s
Additional command line options : -8 -V -T "artist=%a" -T "title=%t" -T "album=%g" -T "date=%y" -T "tracknumber=%n" -T "genre=%m" -T "comment=EAC Flac 1.1.2 -8" %s

Other options :
Fill up missing offset samples with silence : Yes
Delete leading and trailing silent blocks : No
Installed external ASPI interface


Track 1
Filename C:\Documents and Settings\aretha\test\01 - You're All I Need To Get By.wav

Pre-gap length 0:00:02.00

Peak level 98.8 %
Track quality 100.0 %
Test CRC 4560A63D
Copy CRC 4560A63D
Copy OK

Track 2
Filename C:\Documents and Settings\aretha\test\02 - Dr. Feelgood.wav

Pre-gap length 0:00:06.66

Peak level 98.8 %
Track quality 100.0 %
Test CRC E7D8DE1C
Copy CRC E7D8DE1C
Copy OK

Track 3
Filename C:\Documents and Settings\aretha\test\03 - Spirit In The Dark.wav

Peak level 98.8 %
Track quality 100.0 %
Test CRC 7DF33602
Copy CRC 7DF33602
Copy OK

Track 4
Filename C:\Documents and Settings\aretha\test\04 - Spirit In The Dark (Reprise).wav

Peak level 98.8 %
Track quality 100.0 %
Test CRC C66033E4
Copy CRC C66033E4
Copy OK

Track 5
Filename C:\Documents and Settings\aretha\test\05 - Knock On Wood.wav

Peak level 98.8 %
Track quality 100.0 %
Test CRC 9E6B9E4D
Copy CRC 9E6B9E4D
Copy OK

Track 6
Filename C:\Documents and Settings\aretha\test\06 - Them Changes.wav

Pre-gap length 0:00:07.25

Peak level 96.3 %
Track quality 100.0 %
Test CRC A26C38DF
Copy CRC A26C38DF
Copy OK

Track 7
Filename C:\Documents and Settings\aretha\test\07 - Whole Lotta Love.wav

Pre-gap length 0:00:23.44

Peak level 98.8 %
Track quality 99.9 %
Test CRC 794E751A
Copy CRC 794E751A
Copy OK

Track 8
Filename C:\Documents and Settings\aretha\test\08 - A Whiter Shade Of Pale.wav

Peak level 98.8 %
Track quality 100.0 %
Test CRC 94119487
Copy CRC 94119487
Copy OK

Track 9
Filename C:\Documents and Settings\aretha\test\09 - I Stand Accused.wav

Pre-gap length 0:00:01.93

Peak level 98.8 %
Track quality 100.0 %
Test CRC 506F3606
Copy CRC 506F3606
Copy OK

Track 10
Filename C:\Documents and Settings\aretha\test\10 - Soul Serenade.wav

Peak level 97.2 %
Track quality 100.0 %
Test CRC 25177389
Copy CRC 25177389
Copy OK

Track 11
Filename C:\Documents and Settings\aretha\test\11 - Memphis Soul Stew.wav

Peak level 93.3 %
Track quality 100.0 %
Test CRC 8ADB56AF
Copy CRC 8ADB56AF
Copy OK

Track 12
Filename C:\Documents and Settings\aretha\test\12 - Respect.wav

Pre-gap length 0:00:11.10

Peak level 98.8 %
Track quality 100.0 %
Test CRC B6C74903
Copy CRC B6C74903
Copy OK

Track 13
Filename C:\Documents and Settings\aretha\test\13 - Call Me.wav

Peak level 97.3 %
Track quality 99.9 %
Test CRC 620965E5
Copy CRC 620965E5
Copy OK

Track 14
Filename C:\Documents and Settings\aretha\test\14 - Love The One You're With.wav

Pre-gap length 0:00:03.45

Peak level 98.8 %
Track quality 99.8 %
Test CRC 68C311A4
Copy CRC 68C311A4
Copy OK

Track 15
Filename C:\Documents and Settings\aretha\test\15 - Bridge Over Troubled Water.wav

Pre-gap length 0:00:07.85

Peak level 98.8 %
Track quality 99.7 %
Test CRC 2CD2F4D2
Copy CRC 7EB14C03
Copy OK

No errors occured


End of status report

––––––––––––––––––––––––––––––––––––––––
Analyzed: Aretha Franklin / Live at Fillmore West-Don't Fight The Feeling-Disc 2 (1-8)
King Curtis / Live at Fillmore West-Don't Fight The Feeling-Disc 2 (9-14)
The Memphis Horns / Live at Fillmore West-Don't Fight The Feeling-Disc 2 (15)
––––––––––––––––––––––––––––––––––––––––

DR Peak RMS Duration Track
––––––––––––––––––––––––––––––––––––––––
DR11 -0.10 dB -13.91 dB 4:50 01-You're All I Need To Get By
DR10 -0.10 dB -13.95 dB 6:42 02-Dr. Feelgood
DR10 -0.10 dB -11.37 dB 6:44 03-Spirit In The Dark
DR11 -0.10 dB -12.85 dB 2:39 04-Spirit In The Dark (Reprise)
DR10 -0.10 dB -12.88 dB 3:47 12-Respect
DR11 -0.23 dB -14.90 dB 5:09 13-Call Me
DR9 -0.10 dB -11.59 dB 4:23 14-Love The One You're With
DR12 -0.10 dB -15.28 dB 7:36 15-Bridge Over Troubled Water
DR12 -0.32 dB -14.21 dB 7:40 06-Them Changes
DR11 -0.10 dB -14.15 dB 2:15 07-Whole Lotta Love
DR14 -0.10 dB -18.09 dB 4:56 08-A Whiter Shade Of Pale
DR12 -0.10 dB -16.14 dB 6:37 09-I Stand Accused
DR12 -0.24 dB -15.09 dB 3:55 10-Soul Serenade
DR11 -0.60 dB -13.95 dB 7:24 11-Memphis Soul Stew
DR12 -0.10 dB -13.96 dB 5:04 05-Knock On Wood
––––––––––––––––––––––––––––––––––––––––

Number of tracks: 15
Official DR value: DR11

Samplerate: 44100 Hz
Channels: 2
Bits per sample: 16
Bitrate: 962 kbps
Codec: FLAC
================================================================================

EAC extraction logfile from 15. December 2010, 16:52 for CD
Various Artists / Live At Fillmore West-Don't Fight The Feeling-Disc 3

Used drive : HP DVD Writer 1170d Adapter: 1 ID: 0
Read mode : Secure with NO C2, accurate stream, disable cache
Read offset correction : 6
Overread into Lead-In and Lead-Out : No

Used output format : C:\Program Files\FLAC\flac.exe (User Defined Encoder)
320 kBit/s
Additional command line options : -V -8 -T "artist=%a" -T "title=%t" -T "album=%g" -T "date=%y" -T "tracknumber=%n" -T "genre=%m" %s

Other options :
Fill up missing offset samples with silence : Yes
Delete leading and trailing silent blocks : No
Native Win32 interface for Win NT & 2000


Track 1
Filename C:\Documents and Settings\aretha\CD 3\01 - Share Your Love With Me.wav

Pre-gap length 0:00:02.00

Peak level 100.0 %
Track quality 100.0 %
Test CRC 8FB4547B
Copy CRC 8FB4547B
Copy OK

Track 2
Filename C:\Documents and Settings\aretha\CD 3\02 - Eleanor Rigby.wav

Peak level 100.0 %
Track quality 99.9 %
Test CRC C407EAB2
Copy CRC C407EAB2
Copy OK

Track 3
Filename C:\Documents and Settings\aretha\CD 3\03 - Make It With You.wav

Pre-gap length 0:00:13.38

Peak level 91.0 %
Track quality 100.0 %
Test CRC F0390DC0
Copy CRC F0390DC0
Copy OK

Track 4
Filename C:\Documents and Settings\aretha\CD 3\04 - You're All I Need To Get By.wav

Peak level 96.0 %
Track quality 100.0 %
Test CRC EDD57C08
Copy CRC EDD57C08
Copy OK

Track 5
Filename C:\Documents and Settings\aretha\CD 3\05 - Don't Play That Song.wav

Peak level 92.1 %
Track quality 100.0 %
Test CRC F39F1D2C
Copy CRC F39F1D2C
Copy OK

Track 6
Filename C:\Documents and Settings\aretha\CD 3\06 - Dr. Feelgood.wav

Peak level 94.8 %
Track quality 100.0 %
Test CRC F08CE670
Copy CRC F08CE670
Copy OK

Track 7
Filename C:\Documents and Settings\aretha\CD 3\07 - Spirit In The Dark.wav

Peak level 99.9 %
Track quality 100.0 %
Test CRC 11F9BED5
Copy CRC 11F9BED5
Copy OK

Track 8
Filename C:\Documents and Settings\aretha\CD 3\08 - Spirit In The Dark (Reprise).wav

Peak level 98.3 %
Track quality 100.0 %
Test CRC 49FA26FC
Copy CRC 49FA26FC
Copy OK

Track 9
Filename C:\Documents and Settings\aretha\CD 3\09 - Knock On Wood.wav

Pre-gap length 0:00:52.92

Peak level 90.1 %
Track quality 100.0 %
Test CRC C5B331AA
Copy CRC C5B331AA
Copy OK

Track 10
Filename C:\Documents and Settings\aretha\CD 3\10 - Them Changes.wav

Pre-gap length 0:00:03.64

Peak level 100.0 %
Track quality 100.0 %
Test CRC CE40831C
Copy CRC CE40831C
Copy OK

Track 11
Filename C:\Documents and Settings\aretha\CD 3\11 - A Whiter Shade Of Pale.wav

Peak level 87.0 %
Track quality 100.0 %
Test CRC 04E28A5B
Copy CRC 04E28A5B
Copy OK

Track 12
Filename C:\Documents and Settings\aretha\CD 3\12 - Ode To Billie Joe.wav

Peak level 88.9 %
Track quality 99.9 %
Test CRC F59029F2
Copy CRC F59029F2
Copy OK

Track 13
Filename C:\Documents and Settings\aretha\CD 3\13 - Soul Serenade.wav

Peak level 92.2 %
Track quality 100.0 %
Test CRC 0466B5AD
Copy CRC 0466B5AD
Copy OK

Track 14
Filename C:\Documents and Settings\aretha\CD 3\14 - Memphis Soul Stew.wav

Peak level 95.1 %
Track quality 100.0 %
Test CRC F2F165F4
Copy CRC F2F165F4
Copy OK

No errors occured


End of status report

––––––––––––––––––––––––––––––––––––––––
Analyzed: Aretha Franklin / Live At Fillmore West-Don't Fight The Feeling-Disc 3 (1-8)
King Curtis / Live At Fillmore West-Don't Fight The Feeling-Disc 3 (9-13)
The Memphis Horns / Live At Fillmore West-Don't Fight The Feeling-Disc 3 (14)
––––––––––––––––––––––––––––––––––––––––

DR Peak RMS Duration Track
––––––––––––––––––––––––––––––––––––––––
DR10 0.00 dB -12.96 dB 4:36 01-Share Your Love With Me
DR12 0.00 dB -13.81 dB 2:48 02-Eleanor Rigby
DR12 -0.81 dB -16.38 dB 4:51 03-Make It With You
DR12 -0.35 dB -14.49 dB 4:53 04-You're All I Need To Get By
DR12 -0.71 dB -14.70 dB 4:00 05-Don't Play That Song
DR12 -0.46 dB -16.20 dB 9:04 06-Dr. Feelgood
DR11 0.00 dB -13.01 dB 7:54 07-Spirit In The Dark
DR12 -0.14 dB -13.99 dB 5:53 08-Spirit In The Dark (Reprise)
DR11 0.00 dB -13.04 dB 7:01 10-Them Changes
DR14 -1.20 dB -19.71 dB 5:24 11-A Whiter Shade Of Pale
DR11 -1.02 dB -14.99 dB 3:18 12-Ode To Billie Joe
DR12 -0.70 dB -17.02 dB 5:32 13-Soul Serenade
DR13 -0.43 dB -17.10 dB 7:42 14-Memphis Soul Stew
DR13 -0.90 dB -15.15 dB 5:27 09-Knock On Wood
––––––––––––––––––––––––––––––––––––––––

Number of tracks: 14
Official DR value: DR12

Samplerate: 44100 Hz
Channels: 2
Bits per sample: 16
Bitrate: 941 kbps
Codec: FLAC
================================================================================

EAC extraction logfile from 15. December 2010, 19:34 for CD
Various Artists / Live At Fillmore West-Don't Fight The Feeling-Disc 4

Used drive : HP DVD Writer 1170d Adapter: 1 ID: 0
Read mode : Secure with NO C2, accurate stream, disable cache
Read offset correction : 6
Overread into Lead-In and Lead-Out : No

Used output format : C:\Program Files\FLAC\flac.exe (User Defined Encoder)
320 kBit/s
Additional command line options : -V -8 -T "artist=%a" -T "title=%t" -T "album=%g" -T "date=%y" -T "tracknumber=%n" -T "genre=%m" %s

Other options :
Fill up missing offset samples with silence : Yes
Delete leading and trailing silent blocks : No
Native Win32 interface for Win NT & 2000


Track 1
Filename C:\Documents and Settings\aretha\CD 4\01 - Respect.wav

Pre-gap length 0:00:02.00

Peak level 92.7 %
Track quality 100.0 %
Test CRC 069AA4B3
Copy CRC 069AA4B3
Copy OK

Track 2
Filename C:\Documents and Settings\aretha\CD 4\02 - Call Me.wav

Peak level 92.8 %
Track quality 100.0 %
Test CRC 705DCF35
Copy CRC 705DCF35
Copy OK

Track 3
Filename C:\Documents and Settings\aretha\CD 4\03 - Love The One You're With.wav

Peak level 95.1 %
Track quality 99.9 %
Test CRC 5F1EE09F
Copy CRC 5F1EE09F
Copy OK

Track 4
Filename C:\Documents and Settings\aretha\CD 4\04 - Bridge Over Troubled Water.wav

Peak level 87.3 %
Track quality 100.0 %
Test CRC A6A84B3B
Copy CRC A6A84B3B
Copy OK

Track 5
Filename C:\Documents and Settings\aretha\CD 4\05 - Share Your Love With Me.wav

Peak level 91.2 %
Track quality 100.0 %
Test CRC 0A55C770
Copy CRC 0A55C770
Copy OK

Track 6
Filename C:\Documents and Settings\aretha\CD 4\06 - Eleanor Rigby.wav

Peak level 92.0 %
Track quality 100.0 %
Test CRC EF623847
Copy CRC EF623847
Copy OK

Track 7
Filename C:\Documents and Settings\aretha\CD 4\07 - Make It With You.wav

Peak level 90.0 %
Track quality 100.0 %
Test CRC 02413496
Copy CRC 02413496
Copy OK

Track 8
Filename C:\Documents and Settings\aretha\CD 4\08 - Don't Play That Song.wav

Peak level 87.8 %
Track quality 99.9 %
Test CRC D27A5B2D
Copy CRC D27A5B2D
Copy OK

Track 9
Filename C:\Documents and Settings\aretha\CD 4\09 - You're All I Need To Get By.wav

Peak level 95.3 %
Track quality 100.0 %
Test CRC C57FFAE2
Copy CRC C57FFAE2
Copy OK

Track 10
Filename C:\Documents and Settings\aretha\CD 4\10 - Dr. Feelgood.wav

Pre-gap length 0:00:06.17

Peak level 97.0 %
Track quality 100.0 %
Test CRC 934280EF
Copy CRC 934280EF
Copy OK

Track 11
Filename C:\Documents and Settings\aretha\CD 4\11 - Spirit In The Dark.wav

Peak level 91.1 %
Track quality 100.0 %
Test CRC 67D6E5F7
Copy CRC 67D6E5F7
Copy OK

Track 12
Filename C:\Documents and Settings\aretha\CD 4\12 - Spirit In The Dark (Reprise).wav

Pre-gap length 0:00:21.62

Peak level 98.8 %
Track quality 100.0 %
Test CRC 770F832F
Copy CRC 770F832F
Copy OK

Track 13
Filename C:\Documents and Settings\aretha\CD 4\13 - Reach Out And Touch (Somebody's Hand).wav

Peak level 85.4 %
Track quality 99.9 %
Test CRC 8D384946
Copy CRC 8D384946
Copy OK

No errors occured


End of status report

––––––––––––––––––––––––––––––––––––––––
Analyzed: Aretha Franklin with Ray Charles / Live At Fillmore West-Don't Fight The Feeling-Disc 4 (1)
Aretha Franklin / Live At Fillmore West-Don't Fight The Feeling-Disc 4 (2-13)
––––––––––––––––––––––––––––––––––––––––

DR Peak RMS Duration Track
––––––––––––––––––––––––––––––––––––––––
DR12 -0.10 dB -13.89 dB 19:24 12-Spirit In The Dark (Reprise)
DR12 -0.66 dB -15.24 dB 4:01 01-Respect
DR13 -0.64 dB -16.90 dB 4:56 02-Call Me
DR12 -0.43 dB -14.22 dB 4:19 03-Love The One You're With
DR13 -1.18 dB -18.04 dB 7:27 04-Bridge Over Troubled Water
DR11 -0.80 dB -14.98 dB 4:01 05-Share Your Love With Me
DR11 -0.72 dB -14.55 dB 2:40 06-Eleanor Rigby
DR13 -0.91 dB -16.96 dB 4:53 07-Make It With You
DR12 -1.13 dB -14.86 dB 3:40 08-Don't Play That Song
DR11 -0.41 dB -14.84 dB 4:52 09-You're All I Need To Get By
DR12 -0.26 dB -17.17 dB 4:22 10-Dr. Feelgood
DR12 -0.80 dB -15.50 dB 7:18 11-Spirit In The Dark
DR13 -1.36 dB -17.34 dB 5:02 13-Reach Out And Touch (Somebody's Hand)
––––––––––––––––––––––––––––––––––––––––

Number of tracks: 13
Official DR value: DR12

Samplerate: 44100 Hz
Channels: 2
Bits per sample: 16
Bitrate: 877 kbps
Codec: FLAC
================================================================================

All thanks to original releaser - stenachio


See also:



password: BlondStyle