Tags
Language
Tags
February 2024
Su Mo Tu We Th Fr Sa
28 29 30 31 1 2 3
4 5 6 7 8 9 10
11 12 13 14 15 16 17
18 19 20 21 22 23 24
25 26 27 28 29 1 2
Attention❗ To save your time, in order to download anything on this site, you must be registered 👉 HERE. If you do not have a registration yet, it is better to do it right away. ✌

( • )( • ) ( ͡⚆ ͜ʖ ͡⚆ ) (‿ˠ‿)
SpicyMags.xyz

Ariana Grande - The Remix (2015) {Japanese Edition}

Posted By: popsakov
Ariana Grande - The Remix (2015) {Japanese Edition}

Ariana Grande - The Remix (2015) {Japanese Edition}
EAC Rip | FLAC (Img) + Cue + Log ~ 520 Mb | MP3 CBR320 ~ 212 Mb
Full Scans | 00:57:56 | RAR 5% Recovery
Dance, Pop | Republic Records #UICU-1264

Ariana Grande is an American singer and actress. She began her career in the Broadway musical 13, before landing the role of Cat Valentine on the Nickelodeon television series Victorious in 2009. After four seasons, the show ended, and Grande starred on the spinoff, Sam & Cat, which ended in 2014. She has also appeared in other theatre, television and film roles and lent her voice to animated television and films.

Grande's music career began with the soundtrack Music from Victorious (2011). She signed a recording contract with Republic Records and released her debut studio album, Yours Truly in 2013, which debuted at number one on the US Billboard 200. The album's lead single, "The Way", reached the top-ten of the Billboard Hot 100, with critics comparing her wide vocal range to Mariah Carey. Her second studio album, My Everything (2014), also reached number one in the United States. With the singles "Problem", "Break Free", "Bang Bang" and "Love Me Harder" from that album, she spent 34 continuous weeks in the top 10 of the Billboard Hot 100 and had the most top 10 singles of any artist in 2014. In 2015, she is promoting My Everything with her first international tour titled The Honeymoon Tour and currently guest-starring in Fox comedy-horror TV series Scream Queens.

Some of Grande's accolades include New Artist of the Year at the 2013 American Music Awards, Music Business Association's Breakthrough Artist of the Year, "Best Pop Video" at the 2014 MTV Video Music Awards, "Best Song" and "Best Female" at the 2014 MTV Europe Music Awards.
Ariana Grande - The Remix (2015) {Japanese Edition}


***************

Ariana Grande - The Remix (2015) {Japanese Edition}

Track List:

01. The Way (Sidney Samson Remix) [feat. Mac Miller] [05:20]
02. Right There (7th Heaven Radio Edit) [feat. Big Sean] [04:05]
03. Right There (Ralphi Rosario Radio Edit) [feat. Big Sean] [03:48]
04. Baby I (Cosmic Dawn Radio Edit) [04:00]
05. Baby I (A Director's Radio Edit) [03:49]
06. Problem (Wayne G Radio Edit) [feat. Iggy Azalea] [03:09]
07. Problem (Dave Aude Twerk Edit) [feat. Iggy Azalea] [03:16]
08. Problem (Dawin Remix) [feat. Iggy Azalea] [03:26]
09. Break Free (Zedd's Extended Mix) [feat. Zedd] [04:56]
10. Bang Bang (Dada Life Remix) [Jessie J, Ariana Grande, Nicki Minaj] [03:36]
11. Bang Bang (3LAU Remix) [Jessie J, Ariana Grande, Nicki Minaj] [03:07]
12. Love Me Harder (Kassiano Remix) [Ariana Grande, The Weeknd] [03:38]
13. Love Me Harder (Gregor Salto Amsterdam Mix) [Ariana Grande, The Weeknd] [04:16]
14. Love Me Harder (DJ Class Remix) [Ariana Grande, The Weeknd] [03:30]
15. One Last Time (Gazzo Remix) [04:07]

Exact Audio Copy V1.0 beta 6 from 9. April 2015

Отчёт EAC об извлечении, выполненном 24. октября 2015, 1:22

Ariana Grande / The Remix

Дисковод: SlimtypeDVD A DS8A9SH Adapter: 1 ID: 0

Режим чтения : Достоверность
Использование точного потока : Да
Отключение кэша аудио : Да
Использование указателей C2 : Нет

Коррекция смещения при чтении : 6
Способность читать области Lead-in и Lead-out : Нет
Заполнение пропущенных сэмплов тишиной : Да
Удаление блоков с тишиной в начале и конце : Нет
При вычислениях CRC использовались нулевые сэмплы : Да
Интерфейс : Встроенный Win32-интерфейс для Win NT/2000

Выходной формат : Пользовательский кодировщик
Выбранный битрейт : 128 kBit/s
Качество : Высокий
Добавление ID3-тега : Нет
Утилита сжатия : D:\Programm Files\FLAC\FLAC.EXE
Дополнительные параметры : -V -8 -T "Date=%year%" -T "Genre=%genre%" %source%


TOC извлечённого CD

Трек | Старт | Длительность | Начальный сектор | Конечный сектор
––––––––––––––––––––––––––––––––––-
1 | 0:00.00 | 5:19.10 | 0 | 23934
2 | 5:19.10 | 4:04.13 | 23935 | 42247
3 | 9:23.23 | 3:47.40 | 42248 | 59312
4 | 13:10.63 | 3:59.33 | 59313 | 77270
5 | 17:10.21 | 3:48.68 | 77271 | 94438
6 | 20:59.14 | 3:08.30 | 94439 | 108568
7 | 24:07.44 | 3:15.40 | 108569 | 123233
8 | 27:23.09 | 3:25.41 | 123234 | 138649
9 | 30:48.50 | 4:55.31 | 138650 | 160805
10 | 35:44.06 | 3:35.14 | 160806 | 176944
11 | 39:19.20 | 3:06.36 | 176945 | 190930
12 | 42:25.56 | 3:37.17 | 190931 | 207222
13 | 46:02.73 | 4:15.69 | 207223 | 226416
14 | 50:18.67 | 3:29.25 | 226417 | 242116
15 | 53:48.17 | 4:06.70 | 242117 | 260636


Характеристики диапазона извлечения и сообщения об ошибках

Выбранный диапазон

Имя файла D:\My Rips\Audio\Ariana Grande - The Remix\Ariana Grande - The Remix.wav

Пиковый уровень 100.0 %
Скорость извлечения 4.4 X
Качество диапазона 100.0 %
CRC теста D8D38BCF
CRC копии D8D38BCF
Копирование… OK

Ошибок не произошло


AccurateRip: сводка

Трек 1 : извлечено точно (доверие 1) [31774803] (AR v2)
Трек 2 : извлечено точно (доверие 1) [D97EA10E] (AR v2)
Трек 3 : извлечено точно (доверие 1) [CA2E4AFD] (AR v2)
Трек 4 : извлечено точно (доверие 1) [E327CE44] (AR v2)
Трек 5 : извлечено точно (доверие 1) [D8045630] (AR v2)
Трек 6 : извлечено точно (доверие 1) [E97E39AE] (AR v2)
Трек 7 : извлечено точно (доверие 1) [67195662] (AR v2)
Трек 8 : извлечено точно (доверие 1) [CB813224] (AR v2)
Трек 9 : извлечено точно (доверие 1) [B7DF0DF6] (AR v2)
Трек 10 : извлечено точно (доверие 1) [DF82AEFF] (AR v2)
Трек 11 : извлечено точно (доверие 1) [2C231A33] (AR v2)
Трек 12 : извлечено точно (доверие 1) [D277F150] (AR v2)
Трек 13 : извлечено точно (доверие 1) [D27916B4] (AR v2)
Трек 14 : извлечено точно (доверие 1) [EBDB932E] (AR v2)
Трек 15 : извлечено точно (доверие 1) [038D3E43] (AR v2)

Все треки извлечены точно

Конец отчёта

==== Контрольная сумма отчёта 5E629E498F6C159D4B21322587F6892DCF35E6189063CE8D5B658596F8E8879B ====

Ariana Grande - The Remix (2015) {Japanese Edition}


See also:

Ariana Grande - Yours Truly (2013) {2014, Japanese Edition}

All thanks go to serg-82

>>> My Blog <<<

DOWNLOAD: