Tags
Language
Tags

VA - Atlantic Jazz: Best Of The '60s, Volume 2 (1994)

Posted By: Designol
VA - Atlantic Jazz: Best Of The '60s, Volume 2 (1994)

Various Artists - Atlantic Jazz: Best Of The '60s, Vol. 2 (1994)
EAC | FLAC | Tracks (Cue&Log) ~ 407 Mb | Mp3 (CBR320) ~ 160 Mb | Scans ~ 74 Mb
Label: Atlantic/Rhino | # 8122-71727-2 | Time: 01:09:52
Hard Bop, Post-Bop, Soul Jazz, Jazz-Funk, Fusion

Rhino continues with their admirable excavation of the Atlantic vaults with this, their second round of some of the label's '60s jazz highlights. In the spotlight are such instrumental heavyweights as Rahsaan Roland Kirk, Eddie Harris, Charles Mingus, Hank Crawford, and Yusef Lateef, and on the vocal end there's fine work by Betty Carter and Mose Allison. Yes, this album might have a tough time competing with similar collections from the Blue Note and Impulse! imprints. But then again, those labels would be hard-pressed to come up with a selection as varied as this: From the truly idiosyncratic Ellington musings of Kirk ("Creole Love Call") to a taste of Aquarius age jazz by Charles Lloyd ("Dreamweaver: Meditation/Dervish Dance"), this 14-track disc truly runs the '60s jazz gamut.

Review by Stephen Cook, Allmusic.com

VA - Atlantic Jazz: Best Of The '60s, Volume 2 (1994)


Tracklist:

01. Roland Kirk - The Creole Love Call (03:52)
02. Eddie Harris - Silver Cycles (05:50)
03. David Newman - Chained No More (06:25)
04. Joe Zawinul - The Soul Of A Village (Part II) (04:15)
05. Clarence Wheeler & The Enforcers - Hey Jude (07:56)
06. The Modern Jazz Quartet With Laurindo Almeida - One Note Samba (05:08)
07. Mose Allison - You Can Count On Me To Do My Part (02:13)
08. Rufus Harley - Bagpipe Blues (02:42)
09. Betty Carter - When I Fall In Love (03:01)
10. Charlie Mingus - Eat That Chicken (04:41)
11. Clifford Jordan - Dick's Holler (04:53)
12. Yusef Lateef - Buddy And Lou (03:15)
13. Hank Crawford & The Marty Paich Orchestra - Stardust (03:58)
14. The Charles Lloyd Quartet - Dream Weaver; Meditation, Dervish Dance (11:36)


Exact Audio Copy V1.0 beta 1 from 15. November 2010

EAC extraction logfile from 25. January 2015, 19:50

Various Artists / Atlantic Jazz (Best Of The '60s, Volume 2)

Used drive : TSSTcorpCDDVDW SH-224DB Adapter: 1 ID: 0

Read mode : Secure
Utilize accurate stream : Yes
Defeat audio cache : Yes
Make use of C2 pointers : No

Read offset correction : 6
Overread into Lead-In and Lead-Out : No
Fill up missing offset samples with silence : Yes
Delete leading and trailing silent blocks : No
Null samples used in CRC calculations : Yes
Used interface : Native Win32 interface for Win NT & 2000
Gap handling : Appended to previous track

Used output format : User Defined Encoder
Selected bitrate : 896 kBit/s
Quality : High
Add ID3 tag : No
Command line compressor : C:\Program Files\Exact Audio Copy\Flac\flac.exe
Additional command line options : -6 -V -T "ARTIST=%a" -T "TITLE=%t" -T "ALBUM=%g" -T "DATE=%y" -T "TRACKNUMBER=%n" -T "GENRE=%m" -T "COMMENT=%e" %s -o %d


TOC of the extracted CD

Track | Start | Length | Start sector | End sector
––––––––––––––––––––––––––––-
1 | 0:00.00 | 3:52.52 | 0 | 17451
2 | 3:52.52 | 5:50.58 | 17452 | 43759
3 | 9:43.35 | 6:25.45 | 43760 | 72679
4 | 16:09.05 | 4:15.40 | 72680 | 91844
5 | 20:24.45 | 7:56.30 | 91845 | 127574
6 | 28:21.00 | 5:08.22 | 127575 | 150696
7 | 33:29.22 | 2:13.48 | 150697 | 160719
8 | 35:42.70 | 2:42.60 | 160720 | 172929
9 | 38:25.55 | 3:01.07 | 172930 | 186511
10 | 41:26.62 | 4:41.58 | 186512 | 207644
11 | 46:08.45 | 4:53.32 | 207645 | 229651
12 | 51:02.02 | 3:15.35 | 229652 | 244311
13 | 54:17.37 | 3:58.40 | 244312 | 262201
14 | 58:16.02 | 11:36.28 | 262202 | 314429


Track 1

Filename C:\New Folder\01 - Roland Kirk - The Creole Love Call.wav

Pre-gap length 0:00:02.00

Peak level 97.7 %
Extraction speed 1.9 X
Track quality 100.0 %
Test CRC DEE5B611
Copy CRC DEE5B611
Accurately ripped (confidence 4) [227BE04A]
Copy OK

Track 2

Filename C:\New Folder\02 - Eddie Harris - Silver Cycles.wav

Pre-gap length 0:00:02.59

Peak level 97.2 %
Extraction speed 2.2 X
Track quality 100.0 %
Test CRC 9AA970DC
Copy CRC 9AA970DC
Accurately ripped (confidence 4) [EFB85116]
Copy OK

Track 3

Filename C:\New Folder\03 - David Newman - Chained No More.wav

Pre-gap length 0:00:02.58

Peak level 94.5 %
Extraction speed 2.5 X
Track quality 100.0 %
Test CRC FCB50131
Copy CRC FCB50131
Accurately ripped (confidence 4) [36D598A5]
Copy OK

Track 4

Filename C:\New Folder\04 - Joe Zawinul - The Soul Of A Village (Part II).wav

Pre-gap length 0:00:02.58

Peak level 97.7 %
Extraction speed 2.6 X
Track quality 100.0 %
Test CRC 38A71556
Copy CRC 38A71556
Accurately ripped (confidence 4) [044079F4]
Copy OK

Track 5

Filename C:\New Folder\05 - Clarence Wheeler & The Enforcers - Hey Jude.wav

Pre-gap length 0:00:02.58

Peak level 88.1 %
Extraction speed 3.0 X
Track quality 100.0 %
Test CRC E62B0120
Copy CRC E62B0120
Accurately ripped (confidence 4) [7A78AFA3]
Copy OK

Track 6

Filename C:\New Folder\06 - The Modern Jazz Quartet With Laurindo Almeida - One Note Samba.wav

Pre-gap length 0:00:02.58

Peak level 85.1 %
Extraction speed 3.1 X
Track quality 100.0 %
Test CRC 1E704019
Copy CRC 1E704019
Accurately ripped (confidence 4) [393F870F]
Copy OK

Track 7

Filename C:\New Folder\07 - Mose Allison - You Can Count On Me To Do My Part.wav

Pre-gap length 0:00:02.57

Peak level 93.2 %
Extraction speed 2.8 X
Track quality 100.0 %
Test CRC A63E03DC
Copy CRC A63E03DC
Accurately ripped (confidence 4) [7B22A767]
Copy OK

Track 8

Filename C:\New Folder\08 - Rufus Harley - Bagpipe Blues.wav

Pre-gap length 0:00:02.58

Peak level 97.0 %
Extraction speed 3.0 X
Track quality 100.0 %
Test CRC C6F70606
Copy CRC C6F70606
Accurately ripped (confidence 4) [F3385C88]
Copy OK

Track 9

Filename C:\New Folder\09 - Betty Carter - When I Fall In Love.wav

Pre-gap length 0:00:02.58

Peak level 87.2 %
Extraction speed 3.1 X
Track quality 100.0 %
Test CRC C2B5F682
Copy CRC C2B5F682
Accurately ripped (confidence 4) [166015E2]
Copy OK

Track 10

Filename C:\New Folder\10 - Charlie Mingus - Eat That Chicken.wav

Pre-gap length 0:00:02.60

Peak level 95.7 %
Extraction speed 3.4 X
Track quality 100.0 %
Test CRC D2764F82
Copy CRC D2764F82
Accurately ripped (confidence 4) [BCEB6A13]
Copy OK

Track 11

Filename C:\New Folder\11 - Clifford Jordan - Dick's Holler.wav

Pre-gap length 0:00:02.55

Peak level 97.7 %
Extraction speed 3.6 X
Track quality 100.0 %
Test CRC 27760793
Copy CRC 27760793
Accurately ripped (confidence 4) [951FD44C]
Copy OK

Track 12

Filename C:\New Folder\12 - Yusef Lateef - Buddy And Lou.wav

Pre-gap length 0:00:02.57

Peak level 97.7 %
Extraction speed 3.5 X
Track quality 100.0 %
Test CRC A736C0D1
Copy CRC A736C0D1
Accurately ripped (confidence 4) [092E2D1C]
Copy OK

Track 13

Filename C:\New Folder\13 - Hank Crawford & The Marty Paich Orchestra - Stardust.wav

Pre-gap length 0:00:02.57

Peak level 97.7 %
Extraction speed 3.7 X
Track quality 100.0 %
Test CRC 6B504A42
Copy CRC 6B504A42
Accurately ripped (confidence 4) [C22E6404]
Copy OK

Track 14

Filename C:\New Folder\14 - The Charles Lloyd Quartet - Dream Weaver; Meditation, Dervish Dance.wav

Pre-gap length 0:00:02.57

Peak level 97.7 %
Extraction speed 3.8 X
Track quality 99.9 %
Test CRC 486D7631
Copy CRC 486D7631
Accurately ripped (confidence 4) [8565DD26]
Copy OK


All tracks accurately ripped

No errors occurred

End of status report

==== Log checksum 6F8A905C17FF26FCFACACCB6ADB464B8581277B2A64514B06EF23FABE94AC33A ====

foobar2000 1.2 / Dynamic Range Meter 1.1.1
log date: 2015-03-23 20:21:30

––––––––––––––––––––––––––––––––––––––––
Analyzed: Betty Carter / Atlantic Jazz (Best Of The '60s, Volume 2) (1)
Charlie Mingus / Atlantic Jazz (Best Of The '60s, Volume 2) (2)
Clarence Wheeler & The Enforcers / Atlantic Jazz (Best Of The '60s, Volume 2) (3)
Clifford Jordan / Atlantic Jazz (Best Of The '60s, Volume 2) (4)
David Newman / Atlantic Jazz (Best Of The '60s, Volume 2) (5)
Eddie Harris / Atlantic Jazz (Best Of The '60s, Volume 2) (6)
Hank Crawford & The Marty Paich Orchestra / Atlantic Jazz (Best Of The '60s, Volume 2) (7)
Joe Zawinul / Atlantic Jazz (Best Of The '60s, Volume 2) (8)
Mose Allison / Atlantic Jazz (Best Of The '60s, Volume 2) (9)
Roland Kirk / Atlantic Jazz (Best Of The '60s, Volume 2) (10)
Rufus Harley / Atlantic Jazz (Best Of The '60s, Volume 2) (11)
The Charles Lloyd Quartet / Atlantic Jazz (Best Of The '60s, Volume 2) (12)
The Modern Jazz Quartet With Laurindo Almeida / Atlantic Jazz (Best Of The '60s, Volume 2) (13)
Yusef Lateef / Atlantic Jazz (Best Of The '60s, Volume 2) (14)
––––––––––––––––––––––––––––––––––––––––

DR Peak RMS Duration Track
––––––––––––––––––––––––––––––––––––––––
DR11 -1.19 dB -15.42 dB 3:01 09-When I Fall In Love
DR12 -0.38 dB -15.17 dB 4:42 10-Eat That Chicken
DR11 -1.09 dB -15.91 dB 7:56 05-Hey Jude
DR14 -0.20 dB -17.55 dB 4:53 11-Dick's Holler
DR13 -0.49 dB -17.48 dB 6:26 03-Chained No More
DR13 -0.24 dB -19.30 dB 5:51 02-Silver Cycles
DR10 -0.20 dB -14.46 dB 3:59 13-Stardust
DR13 -0.20 dB -15.69 dB 4:16 04-The Soul Of A Village (Part II)
DR13 -0.61 dB -17.66 dB 2:14 07-You Can Count On Me To Do My Part
DR11 -0.20 dB -14.05 dB 3:53 01-The Creole Love Call
DR11 -0.26 dB -15.03 dB 2:43 08-Bagpipe Blues
DR14 -0.20 dB -17.53 dB 11:36 14-Dream Weaver; Meditation, Dervish Dance
DR13 -1.39 dB -18.70 dB 5:08 06-One Note Samba
DR13 -0.20 dB -15.68 dB 3:15 12-Buddy And Lou
––––––––––––––––––––––––––––––––––––––––

Number of tracks: 14
Official DR value: DR12

Samplerate: 44100 Hz
Channels: 2
Bits per sample: 16
Bitrate: 834 kbps
Codec: FLAC
================================================================================

VA - Atlantic Jazz: Best Of The '60s, Volume 2 (1994)

VA - Atlantic Jazz: Best Of The '60s, Volume 2 (1994)

All thanks to original releaser - alekow

More interesting music in My Blog