Subcategories

Autumn Of Communion - Folk Etymology (2019)

Posted By: gribovar
Autumn Of Communion - Folk Etymology (2019)

Autumn Of Communion - Folk Etymology (2019)
EAC Rip | FLAC (image+.cue+log) - 235 MB | MP3 CBR 320 kbps (LAME 3.93) - 138 MB | Covers - 31 MB
Genre: Ambient | RAR 3% Rec. | Label: Neotantra (NT06)

The adventure of Lee Norris and Mick Chillage is still continuing and with "Folk Etymology" they're back in pure ambient, sounding like the best work from Tetsu Inoue or Gas.
Tracklist:
01. Ayurveda
02. Rasayana
03. Splendor Solis

Total time: 58:56

Exact Audio Copy V1.3 from 2. September 2016

EAC extraction logfile from 3. November 2019, 10:37

Autumn Of Communion / Folk Etymology

Used drive : ATAPI iHAS124 D Adapter: 1 ID: 0

Read mode : Secure
Utilize accurate stream : Yes
Defeat audio cache : Yes
Make use of C2 pointers : No

Read offset correction : 6
Overread into Lead-In and Lead-Out : No
Fill up missing offset samples with silence : Yes
Delete leading and trailing silent blocks : No
Null samples used in CRC calculations : Yes
Used interface : Native Win32 interface for Win NT & 2000

Used output format : User Defined Encoder
Selected bitrate : 128 kBit/s
Quality : High
Add ID3 tag : No
Command line compressor : C:\Program Files (x86)\Exact Audio Copy\Flac\flac.exe
Additional command line options : -8 -V -T "ARTIST=%artist%" -T "TITLE=%title%" -T "ALBUM=%albumtitle%" -T "DATE=%year%" -T "TRACKNUMBER=%tracknr%" -T "TOTALTRACKS=%numtracks%" -T "GENRE=%genre%" -T "ALBUMARTIST=%albumartist%" -T "ALBUM ARTIST=%albumartist%" -T "COMMENT=EAC Secure Mode, Test & Copy, AccurateRip, FLAC -8" %source%


TOC of the extracted CD

Track | Start | Length | Start sector | End sector
––––––––––––––––––––––––––––-
1 | 0:00.00 | 19:56.54 | 0 | 89753
2 | 19:56.54 | 26:26.56 | 89754 | 208759
3 | 46:23.35 | 12:32.16 | 208760 | 265175


Range status and errors

Selected range

Filename G:\EAC\baal1983\Label - Neotantra\(nt06) Autumn Of Communion – Folk Etymology (2019)\Autumn Of Communion - Folk Etymology.wav

Peak level 87.4 %
Extraction speed 8.7 X
Range quality 100.0 %
Test CRC 9077B993
Copy CRC 9077B993
Copy OK

No errors occurred


AccurateRip summary

Track 1 accurately ripped (confidence 2) [1D7C083E] (AR v2)
Track 2 accurately ripped (confidence 2) [7E6B1C8D] (AR v2)
Track 3 accurately ripped (confidence 2) [EE4BBFE4] (AR v2)

All tracks accurately ripped

End of status report

–– CUETools DB Plugin V2.1.6

[CTDB TOCID: cxIYHqNkzjJcCP3QCNxvUx5SKeA-] found
Submit result: already submitted
Track | CTDB Status
1 | (3/3) Accurately ripped
2 | (3/3) Accurately ripped
3 | (3/3) Accurately ripped


==== Log checksum FEA12FDAB89302A84569854B25DD9665EBF5E46697A5F4C70FCE3DA686257106 ====

[CUETools log; Date: 24.11.2019 0:40:29; Version: 2.1.4]
[CTDB TOCID: cxIYHqNkzjJcCP3QCNxvUx5SKeA-] found.
Track | CTDB Status
1 | (3/3) Accurately ripped
2 | (3/3) Accurately ripped
3 | (3/3) Accurately ripped
[AccurateRip ID: 000899ea-001c7afd-2b0dcf03] found.
Track [ CRC | V2 ] Status
01 [394b774f|1d7c083e] (0+2/2) Accurately ripped
02 [c0e4bf72|7e6b1c8d] (0+2/2) Accurately ripped
03 [e1e41d2c|ee4bbfe4] (0+2/2) Accurately ripped

Track Peak [ CRC32 ] [W/O NULL] [ LOG ]
– 87,4 [9077B993] [F35A9719] CRC32
01 87,1 [7ED75D01] [67490D89]
02 83,8 [88D141FE] [EA871551]
03 87,4 [500B115F] [4EB2E4C3]

Thanks to baal1983

See also:
Autumn Of Communion - Metal (2017)