Tags
Language
Tags

Axe - Nemesis (1983) {1997, Reissue}

Posted By: popsakov
Axe - Nemesis (1983) {1997, Reissue}

Axe - Nemesis (1983) {1997, Reissue}
EAC Rip | FLAC (Img) + Cue + Log ~ 376 Mb | MP3 CBR320 ~ 134 Mb
Full Scans (JPG, 300 dpi) ~ 46 Mb | RAR 5% Recovery
Hard Rock, Classic Rock | Axepertise Entertainment Ltd.

An electrifying stew of hard rock, biker rock, Southern rock, and keyboard rock (we're talking 1983 after all), Nemesis may easily be Axe's defining statement: The band wants nothing more than airwave domination and to come into your town to help you party down. Ripped opener "Heat in the Street" bears a similar title to "Rock 'N' Roll Party in the Streets," Axe's biggest-ever hit from their previous offering, Offering (the CD reissue erroneously christens the song "Heat in the Night" but all that matters is Nemesis made it to disc), yet despite the obvious leitmotif, nothing can touch this red-hot, hard luck, fugitive tale which takes every right turn while crashing and burning in a league with the immortal Motörhead; Axe is always geared for the radio, though, throwing in keys and vocoder for a walloping slab of two-ton American rock. "Eagle Flies Alone" soars skyward as endearingly as fellow knuckle-head Sammy Hagar's "Eagles Fly," only Axe kicks it out four years earlier. Axe also beats the Crüe to bat with the lascivious "Girls Girls Girls" (backing vocals by the Mountain Jack Sluggettes). "Foolin' Your Mama Again" sneaks around a melodic outlaw chorus, and the hard-working Edgar Winter boogie, "Keep Playing That Rock 'n' Roll" is still another great, innocuous burner. The boys prove to be utterly fearless and amiable, forcing keys on guitars while swerving through a blissful riot of clichéd lyrics. "Masquerade" almost ends the LP on a slow ride (replete with a cell-phone ring?) before the drop-dead pounder "Midnight" fires things up again. Contrary to the intimidating cover art, Nemesis remains naughty but slick, heavy but friendly; nothing more than well-done, blue collar fun.
~ Whitney Z. Gomes, All Music
Axe - Nemesis (1983) {1997, Reissue}


***************

Axe - Nemesis (1983) {1997, Reissue}

Track List:

01. Heat In The Street [2:50]
02. Young Hearts [2:47]
03. All Through The Night [3:03]
04. I Think You.ll Remember Tonight [3:49]
05. She.s Had The Power [3:09]
06. Girls,girls,girls [2:47]
07. Eagle Flies Alone [3:29]
08. Keep Playing That Rock.n.roll [3:14]
09. Foolin.your Mama Again [2:54]
10. Let The Music Come Back [4:32]
11. Masquerade [4:19]
12. Jennifer Live Bonus Track [3:50]
13. Silent Soldiers Live Bonus Track [8:54]
14. Rock.n.roll Party In The Streets Live Bonus Track [5:56]

Personnel:
Bobby Barth - Lead Guitar, Lead Vocals
Edgar Riley Jr. - Keyboards, Vocals
Michael Osbourne - Rhythm Guitar, Vocals
Teddy Mueller - Drums
Wayne Haner - Bass Guitar

Exact Audio Copy V1.3 from 2. September 2016

EAC extraction logfile from 19. February 2017, 20:48

AXE / Nemesis (1997)

Used drive : HL-DT-STDVDRAM GH22NS70 Adapter: 1 ID: 1

Read mode : Secure
Utilize accurate stream : Yes
Defeat audio cache : Yes
Make use of C2 pointers : No

Read offset correction : 667
Overread into Lead-In and Lead-Out : No
Fill up missing offset samples with silence : Yes
Delete leading and trailing silent blocks : No
Null samples used in CRC calculations : Yes
Used interface : Installed external ASPI interface

Used output format : User Defined Encoder
Selected bitrate : 128 kBit/s
Quality : High
Add ID3 tag : No
Command line compressor : C:\Program Files (x86)\Exact Audio Copy\Flac\flac.exe
Additional command line options : -V -8 -T "Date=%year%" -T "Genre=%genre%" %source%


TOC of the extracted CD

Track | Start | Length | Start sector | End sector
––––––––––––––––––––––––––––-
1 | 0:00.00 | 2:49.60 | 0 | 12734
2 | 2:49.60 | 2:46.45 | 12735 | 25229
3 | 5:36.30 | 3:02.65 | 25230 | 38944
4 | 8:39.20 | 3:49.00 | 38945 | 56119
5 | 12:28.20 | 3:08.70 | 56120 | 70289
6 | 15:37.15 | 2:47.25 | 70290 | 82839
7 | 18:24.40 | 3:29.15 | 82840 | 98529
8 | 21:53.55 | 3:14.10 | 98530 | 113089
9 | 25:07.65 | 2:53.50 | 113090 | 126114
10 | 28:01.40 | 4:32.30 | 126115 | 146544
11 | 32:33.70 | 4:18.70 | 146545 | 165964
12 | 36:52.65 | 3:49.45 | 165965 | 183184
13 | 40:42.35 | 8:54.20 | 183185 | 223254
14 | 49:36.55 | 5:56.05 | 223255 | 249959


Range status and errors

Selected range

Filename C:\Users\breaker65\Desktop\1983\AXE - Nemesis (1997).wav

Peak level 97.9 %
Extraction speed 1.8 X
Range quality 100.0 %
Test CRC 7711C2EB
Copy CRC 7711C2EB
Copy OK

No errors occurred


AccurateRip summary

Track 1 accurately ripped (confidence 1) [1006F688] (AR v2)
Track 2 accurately ripped (confidence 1) [44AF1B04] (AR v2)
Track 3 accurately ripped (confidence 1) [22100F5D] (AR v2)
Track 4 accurately ripped (confidence 1) [C64CD290] (AR v2)
Track 5 accurately ripped (confidence 1) [F285539B] (AR v2)
Track 6 accurately ripped (confidence 1) [CDB88061] (AR v2)
Track 7 accurately ripped (confidence 1) [69CD9421] (AR v2)
Track 8 accurately ripped (confidence 1) [FDBC0993] (AR v2)
Track 9 accurately ripped (confidence 1) [6276DDB8] (AR v2)
Track 10 accurately ripped (confidence 1) [82D65A49] (AR v2)
Track 11 accurately ripped (confidence 1) [353F187C] (AR v2)
Track 12 accurately ripped (confidence 1) [CACB9DE2] (AR v2)
Track 13 accurately ripped (confidence 1) [2658BBAE] (AR v2)
Track 14 accurately ripped (confidence 1) [5395845D] (AR v2)

All tracks accurately ripped

End of status report

==== Log checksum 1CC17D07DB9BE534192874AC0C7AF58145F312602DE14BF380C0A617DCD03A81 ====

foobar2000 1.3.16 / Dynamic Range Meter 1.1.1
log date: 2018-03-21 13:34:20

––––––––––––––––––––––––––––––––––––––––
Analyzed: AXE / Nemesis (1997)
––––––––––––––––––––––––––––––––––––––––

DR Peak RMS Duration Track
––––––––––––––––––––––––––––––––––––––––
DR9 -0.18 dB -10.08 dB 2:50 01-Heat In The Street
DR10 -0.47 dB -11.54 dB 2:47 02-Young Hearts
DR9 -0.28 dB -10.46 dB 3:03 03-All Through The Night
DR9 -0.39 dB -11.92 dB 3:49 04-I Think You.ll Remember Tonight
DR10 -0.70 dB -11.54 dB 3:09 05-She.s Had The Power
DR10 -0.49 dB -12.26 dB 2:47 06-Girls,girls,girls
DR10 -0.44 dB -11.82 dB 3:29 07-Eagle Flies Alone
DR10 -0.58 dB -11.06 dB 3:14 08-Keep Playing That Rock.n.roll
DR10 -0.64 dB -11.66 dB 2:54 09-Foolin.your Mama Again
DR10 -0.69 dB -13.25 dB 4:32 10-Let The Music Come Back
DR10 -0.75 dB -12.34 dB 4:19 11-Masquerade
DR8 -2.20 dB -11.73 dB 3:50 12-Jennifer Live Bonus Track
DR8 -2.20 dB -12.81 dB 8:54 13-Silent Soldiers Live Bonus Track
DR8 -2.20 dB -11.94 dB 5:56 14-Rock.n.roll Party In The Streets Live Bonus Track
––––––––––––––––––––––––––––––––––––––––

Number of tracks: 14
Official DR value: DR9

Samplerate: 44100 Hz
Channels: 2
Bits per sample: 16
Bitrate: 901 kbps
Codec: FLAC
================================================================================

[CUETools log; Date: 21.03.2018 12:50:35; Version: 2.1.6]
[CTDB TOCID: WEa1sAHv_67wwA8vggcOYBLmwg0-] found.
Track | CTDB Status
1 | (1/1) Accurately ripped
2 | (1/1) Accurately ripped
3 | (1/1) Accurately ripped
4 | (1/1) Accurately ripped
5 | (1/1) Accurately ripped
6 | (1/1) Accurately ripped
7 | (1/1) Accurately ripped
8 | (1/1) Accurately ripped
9 | (1/1) Accurately ripped
10 | (1/1) Accurately ripped
11 | (1/1) Accurately ripped
12 | (1/1) Accurately ripped
13 | (1/1) Accurately ripped
14 | (1/1) Accurately ripped
[AccurateRip ID: 00184de5-010a83c7-ba0d040e] found.
Track [ CRC | V2 ] Status
01 [590c07e7|1006f688] (0+2/2) Accurately ripped
02 [6ed58d77|44af1b04] (0+2/2) Accurately ripped
03 [39a8471f|22100f5d] (0+2/2) Accurately ripped
04 [1f16842d|c64cd290] (0+2/2) Accurately ripped
05 [a40c2ea5|f285539b] (0+2/2) Accurately ripped
06 [725d2dcd|cdb88061] (0+2/2) Accurately ripped
07 [69389d45|69cd9421] (0+2/2) Accurately ripped
08 [ce704854|fdbc0993] (0+2/2) Accurately ripped
09 [3a26a6cf|6276ddb8] (0+2/2) Accurately ripped
10 [0ff83720|82d65a49] (0+2/2) Accurately ripped
11 [7d4e77c7|353f187c] (0+2/2) Accurately ripped
12 [6ec3155a|cacb9de2] (0+2/2) Accurately ripped
13 [6e518551|2658bbae] (0+2/2) Accurately ripped
14 [e2d58558|5395845d] (0+2/2) Accurately ripped

Track Peak [ CRC32 ] [W/O NULL] [ LOG ]
– 97,9 [7711C2EB] [C7AD773A] CRC32
01 97,9 [BD002EBF] [916E6B04]
02 94,7 [0F02E4C8] [C53FF139]
03 96,8 [4B1D91BA] [F531D400]
04 95,5 [63B564BF] [B832A87F]
05 92,2 [1BABA311] [FB10AFDE]
06 94,4 [57444946] [6DDA9635]
07 95,0 [87DCC2BA] [F117EC7F]
08 93,5 [245F09EB] [6D4C73A2]
09 92,8 [01E96B4C] [C281A09A]
10 92,3 [02F75FAC] [2A143977]
11 91,7 [69E5EFC7] [7670EB2D]
12 77,6 [AAF0AB4F] [46EB7B5D]
13 77,6 [C705C353] [5EA71752]
14 77,6 [C45233EC] [E0C5F296]

Axe - Nemesis (1983) {1997, Reissue}

All thanks go to breaker65

>>> My Blog <<<

Download from icerbox.com: