Subcategories
Tags
Language
Tags

Barry White's Love Unlimited Orchestra - The Best Of Love Unlimited Orchestra (1995) [Re-Up]

Posted By: Designol
Barry White's Love Unlimited Orchestra - The Best Of Love Unlimited Orchestra (1995) [Re-Up]

Barry White's Love Unlimited Orchestra - The Best Of Love Unlimited Orchestra (1995)
EAC | FLAC | Tracks (Cue&Log) ~ 526 Mb | Mp3 (CBR320) ~ 199 Mb | Scans included
Instrumental R&B, Disco, Soul, Funk, Jazz-Funk | Label: Mercury | # 526 945-2 | 01:18:19

The Best of the Love Unlimited Orchestra collects 15 tracks by Barry White's groundbreaking instrumental support outfit. Their sound as assembled by White – thick layers of sweet strings, pulsing beats, chunky wah-wah guitars, plus tinkling piano and gently swelling horns – played a huge role in creating the blueprint for disco, not to mention countless porn soundtracks. In addition to backing White and his female protégées Love Unlimited, the Love Unlimited Orchestra also made their own recordings, naturally with White at the helm. Although they recorded up to 1983, their commercial heyday lasted from 1974-1977, when they charted regularly on the pop, R&B, and disco/club listings. They even scored a number one pop hit right out of the box with 1974's "Love's Theme," a watershed record in the history of disco. That's here, of course, plus the Orchestra's other chart hits: "Satin Soul," "Rhapsody in White," "Forever in Love," "My Sweet Summer Suite," "Bring It on Up," and their theme from the 1977 remake of King Kong. It's superbly evocative mood music, pretty much the instrumental equivalent of Barry White's trademark love-man come-ons. Anyone enamored of White's sound, or curious about the evolution of disco, would do well to pick this up.

Review by Steve Huey, Allmusic.com

Barry White's Love Unlimited Orchestra - The Best Of Love Unlimited Orchestra (1995) [Re-Up]



Tracklist:

01. My Sweet Summer Suite (12'' Version) (07:19)
02. Don't You Know How Much I Love You (05:18)
03. Brazilian Love Song (12'' Version) (06:14)
04. Rhapsody In White (03:59)
05. Love's Theme (04:10)
06. Satin Soul (04:14)
07. Theme From 'Together Brothers' (02:52)
08. Theme From 'King Kong' (12'' Version) (08:08)
09. Bring It On Up (04:24)
10. Blues Concerto (03:42)
11. Let The Music Play (Instrumental Version) (Long Version) (05:49)
12. Forever In Love (04:08)
13. Midnight And You (05:16)
14. Can't You See (07:03)
15. Baby Blues (05:37)


Exact Audio Copy V1.0 beta 1 from 15. November 2010

EAC extraction logfile from 15. August 2014, 13:11

Barry White's Love Unlimited Orchestra / The Best Of

Used drive : TSSTcorpCDDVDW SH-224DB Adapter: 1 ID: 0

Read mode : Secure
Utilize accurate stream : Yes
Defeat audio cache : Yes
Make use of C2 pointers : No

Read offset correction : 6
Overread into Lead-In and Lead-Out : No
Fill up missing offset samples with silence : Yes
Delete leading and trailing silent blocks : No
Null samples used in CRC calculations : Yes
Used interface : Native Win32 interface for Win NT & 2000
Gap handling : Appended to previous track

Used output format : User Defined Encoder
Selected bitrate : 896 kBit/s
Quality : High
Add ID3 tag : No
Command line compressor : C:\Program Files\Exact Audio Copy\Flac\flac.exe
Additional command line options : -6 -V -T "ARTIST=%a" -T "TITLE=%t" -T "ALBUM=%g" -T "DATE=%y" -T "TRACKNUMBER=%n" -T "GENRE=%m" -T "COMMENT=%e" %s -o %d


TOC of the extracted CD

Track | Start | Length | Start sector | End sector
––––––––––––––––––––––––––––-
1 | 0:00.00 | 7:19.22 | 0 | 32946
2 | 7:19.22 | 5:18.50 | 32947 | 56846
3 | 12:37.72 | 6:14.35 | 56847 | 84931
4 | 18:52.32 | 3:59.43 | 84932 | 102899
5 | 22:52.00 | 4:10.52 | 102900 | 121701
6 | 27:02.52 | 4:14.23 | 121702 | 140774
7 | 31:17.00 | 2:52.07 | 140775 | 153681
8 | 34:09.07 | 8:08.00 | 153682 | 190281
9 | 42:17.07 | 4:24.58 | 190282 | 210139
10 | 46:41.65 | 3:42.05 | 210140 | 226794
11 | 50:23.70 | 5:49.70 | 226795 | 253039
12 | 56:13.65 | 4:08.07 | 253040 | 271646
13 | 60:21.72 | 5:16.73 | 271647 | 295419
14 | 65:38.70 | 7:03.12 | 295420 | 327156
15 | 72:42.07 | 5:37.18 | 327157 | 352449


Track 1

Filename C:\New Folder\01 - My Sweet Summer Suite (12'' Version).wav

Pre-gap length 0:00:02.00

Peak level 100.0 %
Extraction speed 2.2 X
Track quality 100.0 %
Test CRC F84EFB6D
Copy CRC F84EFB6D
Accurately ripped (confidence 3) [3FDFEB11]
Copy OK

Track 2

Filename C:\New Folder\02 - Don't You Know How Much I Love You.wav

Pre-gap length 0:00:02.52

Peak level 100.0 %
Extraction speed 2.4 X
Track quality 100.0 %
Test CRC 73F77B0B
Copy CRC 73F77B0B
Accurately ripped (confidence 2) [2FD02F81]
Copy OK

Track 3

Filename C:\New Folder\03 - Brazilian Love Song (12'' Version).wav

Pre-gap length 0:00:02.57

Peak level 78.9 %
Extraction speed 2.6 X
Track quality 100.0 %
Test CRC 1811B68A
Copy CRC 1811B68A
Accurately ripped (confidence 3) [CAF934FB]
Copy OK

Track 4

Filename C:\New Folder\04 - Rhapsody In White.wav

Pre-gap length 0:00:02.57

Peak level 84.0 %
Extraction speed 2.7 X
Track quality 100.0 %
Test CRC 6CE368B7
Copy CRC 6CE368B7
Accurately ripped (confidence 3) [8230D93E]
Copy OK

Track 5

Filename C:\New Folder\05 - Love's Theme.wav

Pre-gap length 0:00:02.58

Peak level 92.4 %
Extraction speed 2.3 X
Track quality 99.9 %
Test CRC 2393FDA6
Copy CRC 2393FDA6
Accurately ripped (confidence 3) [E1DE3E2E]
Copy OK

Track 6

Filename C:\New Folder\06 - Satin Soul.wav

Pre-gap length 0:00:02.32

Peak level 100.0 %
Extraction speed 3.0 X
Track quality 100.0 %
Test CRC E20D53E0
Copy CRC E20D53E0
Accurately ripped (confidence 3) [A97CF50A]
Copy OK

Track 7

Filename C:\New Folder\07 - Theme From ''Together Brothers''.wav

Pre-gap length 0:00:02.43

Peak level 100.0 %
Extraction speed 2.9 X
Track quality 100.0 %
Test CRC A1C66CD1
Copy CRC A1C66CD1
Accurately ripped (confidence 3) [25AA26A0]
Copy OK

Track 8

Filename C:\New Folder\08 - Theme From ''King Kong'' (12'' Version).wav

Pre-gap length 0:00:02.12

Peak level 100.0 %
Extraction speed 3.5 X
Track quality 100.0 %
Test CRC 6020AFDF
Copy CRC 6020AFDF
Accurately ripped (confidence 3) [B8D0B27A]
Copy OK

Track 9

Filename C:\New Folder\09 - Bring It On Up.wav

Pre-gap length 0:00:02.22

Peak level 100.0 %
Extraction speed 3.4 X
Track quality 100.0 %
Test CRC 6AB59D31
Copy CRC 6AB59D31
Accurately ripped (confidence 2) [99444456]
Copy OK

Track 10

Filename C:\New Folder\10 - Blues Concerto.wav

Pre-gap length 0:00:02.33

Peak level 98.1 %
Extraction speed 3.4 X
Track quality 100.0 %
Test CRC 498A2D13
Copy CRC 498A2D13
Accurately ripped (confidence 3) [71592B49]
Copy OK

Track 11

Filename C:\New Folder\11 - Let The Music Play (Instrumental Version) (Long Version).wav

Pre-gap length 0:00:02.33

Peak level 100.0 %
Extraction speed 3.7 X
Track quality 100.0 %
Test CRC 44B1A3AD
Copy CRC 44B1A3AD
Accurately ripped (confidence 3) [A7764CBC]
Copy OK

Track 12

Filename C:\New Folder\12 - Forever In Love.wav

Pre-gap length 0:00:02.33

Peak level 82.2 %
Extraction speed 3.7 X
Track quality 100.0 %
Test CRC EA5DB7AE
Copy CRC EA5DB7AE
Accurately ripped (confidence 3) [B2F441AD]
Copy OK

Track 13

Filename C:\New Folder\13 - Midnight And You.wav

Pre-gap length 0:00:02.32

Peak level 99.5 %
Extraction speed 3.9 X
Track quality 100.0 %
Test CRC 1FA0C7DA
Copy CRC 1FA0C7DA
Accurately ripped (confidence 3) [6A205008]
Copy OK

Track 14

Filename C:\New Folder\14 - Can't You See.wav

Pre-gap length 0:00:02.33

Peak level 91.2 %
Extraction speed 4.2 X
Track quality 100.0 %
Test CRC 8003BF6A
Copy CRC 8003BF6A
Accurately ripped (confidence 3) [D59D8E16]
Copy OK

Track 15

Filename C:\New Folder\15 - Baby Blues.wav

Pre-gap length 0:00:02.32

Peak level 100.0 %
Extraction speed 4.2 X
Track quality 100.0 %
Test CRC E368A3E4
Copy CRC E368A3E4
Accurately ripped (confidence 3) [D19D6AEE]
Copy OK


All tracks accurately ripped

No errors occurred

End of status report

==== Log checksum B5B2F81AC4F9643312242DE691DF52F9F5740418A2D597C219B55C41E06DCF57 ====

foobar2000 1.2 / Dynamic Range Meter 1.1.1
log date: 2014-11-17 15:43:20

––––––––––––––––––––––––––––––––––––––––
Analyzed: Barry White's Love Unlimited Orchestra / The Best Of
––––––––––––––––––––––––––––––––––––––––

DR Peak RMS Duration Track
––––––––––––––––––––––––––––––––––––––––
DR13 0.00 dB -15.23 dB 7:19 01-My Sweet Summer Suite (12'' Version)
DR12 0.00 dB -13.82 dB 5:19 02-Don't You Know How Much I Love You
DR11 -2.06 dB -15.13 dB 6:14 03-Brazilian Love Song (12'' Version)
DR11 -1.51 dB -14.12 dB 4:00 04-Rhapsody In White
DR10 -0.68 dB -12.95 dB 4:11 05-Love's Theme
DR12 0.00 dB -13.16 dB 4:14 06-Satin Soul
DR13 0.00 dB -14.17 dB 2:52 07-Theme From ''Together Brothers''
DR10 0.00 dB -12.14 dB 8:08 08-Theme From ''King Kong'' (12'' Version)
DR11 0.00 dB -13.47 dB 4:25 09-Bring It On Up
DR13 -0.17 dB -15.26 dB 3:42 10-Blues Concerto
DR13 0.00 dB -14.87 dB 5:50 11-Let The Music Play (Instrumental Version) (Long Version)
DR12 -1.70 dB -15.49 dB 4:08 12-Forever In Love
DR16 -0.04 dB -17.86 dB 5:17 13-Midnight And You
DR14 -0.79 dB -17.04 dB 7:03 14-Can't You See
DR17 0.00 dB -19.10 dB 5:37 15-Baby Blues
––––––––––––––––––––––––––––––––––––––––

Number of tracks: 15
Official DR value: DR12

Samplerate: 44100 Hz
Channels: 2
Bits per sample: 16
Bitrate: 737 kbps
Codec: FLAC
================================================================================

Barry White's Love Unlimited Orchestra - The Best Of Love Unlimited Orchestra (1995) [Re-Up]

Barry White's Love Unlimited Orchestra - The Best Of Love Unlimited Orchestra (1995) [Re-Up]