Subcategories

Barry White & Friends - Cool Songs (2008)

Posted By: BlondStyle
Barry White & Friends - Cool Songs (2008)

Barry White & Friends - Cool Songs (2008)
R&B, Soul/Funk, Smooth Soul, Disco | EAC Rip | FLAC, Tracks+CUE+LOG+Scans (PNG) | 01:10:23 | 485,25 Mb
Label: Eurotrend (Austria) | Cat.# CD 157.490 | Released: 2008
Barry White & Friends - Cool Songs (2008)

Known in all circles as "The Love Man" and "The Maestro," Barry White was a man who put new boundaries on the universal language of love. He had a soul of passion and this is evident in every song that he recorded. He was an icon.
Barry White & Friends - Cool Songs (2008)

Barry White & Friends - Cool Songs (2008)




Release of this album/CD: 2008 [CD Eurotrend (Austria), Cat.# CD 157.490 / UPC: 9002986574903]
Licensed from Lollipop Music Ltd.
Made in Austria

Credits:

Written-By – A. Schroeder (tracks: 1), A. Russ (tracks: 3), B. White (tracks: 2, 4 to 16), B. Maglia (tracks: 5), F. Wilson (tracks: 14, 15), J. Ragovoy (tracks: 1), L. Simon (tracks: 2, 9), P. Politi (tracks: 14, 15), P. Radcliffe (tracks: 16), T. Sepe (tracks: 16), V. M. Cameron (tracks: 4, 8), V. Giovannelli (tracks: 5)

Tracklist:

01. Barry White & His Orchestra & Strings - Love Makin' Music (04:57)
02. Barry White & His Orchestra & Strings - Relax To The Max (03:47)
03. Barry White - The Better Love Is / The Worse It Is… (04:52)
04. Barry White - You (03:41)
05. Barry White - We Can't Let Go Of Love (03:53)
06. Barry & Glodean White & The Love Unlimited Orchestra - Gotta Be Where You Are (04:06)
07. Barry White & His Orchestra & Strings - America (05:46)
08. Barry White & His Orchestra & Strings - Let Me In And Let's Begin With Love (03:47)
09. Barry White & His Orchestra & Strings - Your Love, Your Love (04:24)
10. Barry White & His Orchestra & Strings - Our Theme, Part I (03:20)
11. Barry White & His Orchestra & Strings - Our Theme, Part II (02:41)
12. The Love Unlimited Orchestra - Bayou (04:56)
13. Barry White & His Orchestra & Strings - Don't Forget…Remember (05:47)
14. Barry & Glodean White & The Love Unlimited Orchestra - If You Want Me, Say It (05:28)
15. Barry & Glodean White & The Love Unlimited Orchestra - I'm Givin' You A Love (04:26)
16. Gloria Gaynor Feat. Isaac Hayes - You're The First, The Last, My Everything (04:32)

Exact Audio Copy V1.0 beta 3 from 29. August 2011

EAC extraction logfile from 20. March 2020, 17:26

Barry White & Friends / Cool Songs

Used drive : TSSTcorpCDDVDW SH-S202J Adapter: 0 ID: 0

Read mode : Secure
Utilize accurate stream : Yes
Defeat audio cache : Yes
Make use of C2 pointers : No

Read offset correction : 6
Overread into Lead-In and Lead-Out : No
Fill up missing offset samples with silence : Yes
Delete leading and trailing silent blocks : No
Null samples used in CRC calculations : Yes
Used interface : Native Win32 interface for Win NT & 2000
Gap handling : Appended to previous track

Used output format : User Defined Encoder
Selected bitrate : 1024 kBit/s
Quality : High
Add ID3 tag : No
Command line compressor : C:\Program Files\Exact Audio Copy\FLAC\FLAC.EXE
Additional command line options : -6 -V -T "ARTIST=%artist%" -T "TITLE=%title%" -T "ALBUM=%albumtitle%" -T "DATE=%year%" -T "TRACKNUMBER=%tracknr%" -T "GENRE=%genre%" -T "COMMENT=%comment%" -T "BAND=%albuminterpret%" -T "ALBUMARTIST=%albuminterpret%" -T "COMPOSER=%composer%" %haslyrics%–tag-from-file=LYRICS="%lyricsfile%"%haslyrics% -T "DISCNUMBER=%cdnumber%" -T "TOTALDISCS=%totalcds%" -T "TOTALTRACKS=%numtracks%" %hascover%–picture="%coverfile%"%hascover% %source% -o %dest%


TOC of the extracted CD

Track | Start | Length | Start sector | End sector
––––––––––––––––––––––––––––-
1 | 0:01.00 | 4:56.53 | 75 | 22327
2 | 4:57.53 | 3:47.11 | 22328 | 39363
3 | 8:44.64 | 4:51.73 | 39364 | 61261
4 | 13:36.62 | 3:41.04 | 61262 | 77840
5 | 17:17.66 | 3:52.48 | 77841 | 95288
6 | 21:10.39 | 4:05.64 | 95289 | 113727
7 | 25:16.28 | 5:45.67 | 113728 | 139669
8 | 31:02.20 | 3:46.64 | 139670 | 156683
9 | 34:49.09 | 4:24.11 | 156684 | 176494
10 | 39:13.20 | 3:20.04 | 176495 | 191498
11 | 42:33.24 | 2:40.59 | 191499 | 203557
12 | 45:14.08 | 4:56.28 | 203558 | 225785
13 | 50:10.36 | 5:47.21 | 225786 | 251831
14 | 55:57.57 | 5:27.40 | 251832 | 276396
15 | 61:25.22 | 4:26.27 | 276397 | 296373
16 | 65:51.49 | 4:32.32 | 296374 | 316805


Track 1

Filename G:\2020 - EAC - [FLAC] - & - \01. Barry White & His Orchestra & Strings - Love Makin' Music.wav

Pre-gap length 0:00:03.00

Peak level 99.9 %
Extraction speed 4.0 X
Track quality 100.0 %
Test CRC 1DBC5801
Copy CRC 1DBC5801
Accurately ripped (confidence 2) [F5A2FCAC] (AR v1)
Copy OK

Track 2

Filename G:\2020 - EAC - [FLAC] - & - \02. Barry White & His Orchestra & Strings - Relax To The Max.wav

Pre-gap length 0:00:02.60

Peak level 100.0 %
Extraction speed 4.2 X
Track quality 100.0 %
Test CRC A6C57DE2
Copy CRC A6C57DE2
Accurately ripped (confidence 2) [0BF848A3] (AR v1)
Copy OK

Track 3

Filename G:\2020 - EAC - [FLAC] - & - \03. Barry White - The Better Love Is , The Worse It Is….wav

Pre-gap length 0:00:02.60

Peak level 100.0 %
Extraction speed 4.7 X
Track quality 100.0 %
Test CRC B645C633
Copy CRC B645C633
Accurately ripped (confidence 2) [779CE207] (AR v1)
Copy OK

Track 4

Filename G:\2020 - EAC - [FLAC] - & - \04. Barry White - You.wav

Pre-gap length 0:00:02.60

Peak level 97.7 %
Extraction speed 4.7 X
Track quality 100.0 %
Test CRC 4E457380
Copy CRC 4E457380
Accurately ripped (confidence 2) [0DFEF324] (AR v1)
Copy OK

Track 5

Filename G:\2020 - EAC - [FLAC] - & - \05. Barry White - We Can't Let Go Of Love.wav

Pre-gap length 0:00:02.60

Peak level 97.7 %
Extraction speed 5.0 X
Track quality 100.0 %
Test CRC 51D7D751
Copy CRC 51D7D751
Accurately ripped (confidence 2) [9063A5AD] (AR v1)
Copy OK

Track 6

Filename G:\2020 - EAC - [FLAC] - & - \06. Barry & Glodean White & The Love Unlimited Orchestra - Gotta Be Where You Are.wav

Pre-gap length 0:00:02.60

Peak level 88.9 %
Extraction speed 5.2 X
Track quality 100.0 %
Test CRC A6BD1A59
Copy CRC A6BD1A59
Accurately ripped (confidence 2) [EC108ADF] (AR v1)
Copy OK

Track 7

Filename G:\2020 - EAC - [FLAC] - & - \07. Barry White & His Orchestra & Strings - America.wav

Pre-gap length 0:00:02.60

Peak level 100.0 %
Extraction speed 4.9 X
Track quality 99.9 %
Test CRC F8857D80
Copy CRC F8857D80
Accurately ripped (confidence 2) [E6289D7F] (AR v1)
Copy OK

Track 8

Filename G:\2020 - EAC - [FLAC] - & - \08. Barry White & His Orchestra & Strings - Let Me In And Let's Begin With Love.wav

Pre-gap length 0:00:02.60

Peak level 100.0 %
Extraction speed 5.7 X
Track quality 100.0 %
Test CRC 9E72A445
Copy CRC 9E72A445
Accurately ripped (confidence 2) [F78BE61D] (AR v1)
Copy OK

Track 9

Filename G:\2020 - EAC - [FLAC] - & - \09. Barry White & His Orchestra & Strings - Your Love, Your Love.wav

Pre-gap length 0:00:02.60

Peak level 100.0 %
Extraction speed 5.8 X
Track quality 100.0 %
Test CRC 1B7AE0AC
Copy CRC 1B7AE0AC
Accurately ripped (confidence 2) [314B439C] (AR v1)
Copy OK

Track 10

Filename G:\2020 - EAC - [FLAC] - & - \10. Barry White & His Orchestra & Strings - Our Theme, Part I.wav

Pre-gap length 0:00:02.60

Peak level 100.0 %
Extraction speed 5.8 X
Track quality 100.0 %
Test CRC 27C089A2
Copy CRC 27C089A2
Accurately ripped (confidence 2) [7B6F05AD] (AR v1)
Copy OK

Track 11

Filename G:\2020 - EAC - [FLAC] - & - \11. Barry White & His Orchestra & Strings - Our Theme, Part II.wav

Pre-gap length 0:00:02.60

Peak level 85.0 %
Extraction speed 5.7 X
Track quality 100.0 %
Test CRC ECDF34E1
Copy CRC ECDF34E1
Accurately ripped (confidence 2) [D82B1BB3] (AR v1)
Copy OK

Track 12

Filename G:\2020 - EAC - [FLAC] - & - \12. The Love Unlimited Orchestra - Bayou.wav

Pre-gap length 0:00:02.60

Peak level 97.5 %
Extraction speed 6.2 X
Track quality 100.0 %
Test CRC 0E6E970E
Copy CRC 0E6E970E
Accurately ripped (confidence 2) [8296DC4D] (AR v1)
Copy OK

Track 13

Filename G:\2020 - EAC - [FLAC] - & - \13. Barry White & His Orchestra & Strings - Don't Forget…Remember.wav

Pre-gap length 0:00:02.60

Peak level 100.0 %
Extraction speed 5.9 X
Track quality 99.9 %
Test CRC FB533742
Copy CRC FB533742
Accurately ripped (confidence 2) [85622501] (AR v1)
Copy OK

Track 14

Filename G:\2020 - EAC - [FLAC] - & - \14. Barry & Glodean White & The Love Unlimited Orchestra - If You Want Me, Say It.wav

Pre-gap length 0:00:02.60

Peak level 97.7 %
Extraction speed 7.0 X
Track quality 100.0 %
Test CRC D5A5AE2C
Copy CRC D5A5AE2C
Accurately ripped (confidence 2) [6AA850C1] (AR v1)
Copy OK

Track 15

Filename G:\2020 - EAC - [FLAC] - & - \15. Barry & Glodean White & The Love Unlimited Orchestra - I'm Givin' You A Love.wav

Pre-gap length 0:00:02.60

Peak level 91.3 %
Extraction speed 7.0 X
Track quality 100.0 %
Test CRC F5C4BC58
Copy CRC F5C4BC58
Accurately ripped (confidence 2) [FD792045] (AR v1)
Copy OK

Track 16

Filename G:\2020 - EAC - [FLAC] - & - \16. Gloria Gaynor Feat. Isaac Hayes - You're The First, The Last, My Everything.wav

Pre-gap length 0:00:02.60

Peak level 77.6 %
Extraction speed 7.1 X
Track quality 100.0 %
Test CRC F2FA39DD
Copy CRC F2FA39DD
Accurately ripped (confidence 2) [EA736C9F] (AR v1)
Copy OK


All tracks accurately ripped

No errors occurred

End of status report

==== Log checksum 853F7217E9A47E9F36717C6E186E4C4E690DA4A59A6A18DE8E4250BF83F2C5B3 ====

––––––––––––––––––––––––––––––––––––––––
Analyzed: Barry & Glodean White & The Love Unlimited Orchestra / Cool Songs (1-3)
Barry White & His Orchestra & Strings / Cool Songs (4-11)
Barry White / Cool Songs (12-14)
Gloria Gaynor Feat. Isaac Hayes / Cool Songs (15)
The Love Unlimited Orchestra / Cool Songs (16)
––––––––––––––––––––––––––––––––––––––––

DR Peak RMS Duration Track
––––––––––––––––––––––––––––––––––––––––
DR13 -1.02 dB -16.97 dB 4:06 06-Gotta Be Where You Are
DR13 -0.20 dB -15.00 dB 5:28 14-If You Want Me, Say It
DR13 -0.78 dB -15.98 dB 4:26 15-I'm Givin' You A Love
DR15 0.00 dB -16.74 dB 4:57 01-Love Makin' Music
DR14 0.00 dB -18.14 dB 3:47 02-Relax To The Max
DR16 0.00 dB -18.03 dB 5:46 07-America
DR14 0.00 dB -18.14 dB 3:47 08-Let Me In And Let's Begin With Love
DR13 0.00 dB -14.83 dB 4:24 09-Your Love, Your Love
DR14 0.00 dB -16.63 dB 3:20 10-Our Theme, Part I
DR13 -1.40 dB -17.53 dB 2:41 11-Our Theme, Part II
DR13 0.00 dB -15.05 dB 5:47 13-Don't Forget…Remember
DR14 0.00 dB -16.45 dB 4:52 03-The Better Love Is / The Worse It Is…
DR17 -0.20 dB -20.64 dB 3:41 04-You
DR15 -0.20 dB -16.74 dB 3:53 05-We Can't Let Go Of Love
DR11 -2.19 dB -14.28 dB 4:32 16-You're The First, The Last, My Everything
DR15 -0.21 dB -16.69 dB 4:56 12-Bayou
––––––––––––––––––––––––––––––––––––––––

Number of tracks: 16
Official DR value: DR14

Samplerate: 44100 Hz
Channels: 2
Bits per sample: 16
Bitrate: 947 kbps
Codec: FLAC
================================================================================

Thanks to tifon

See also:


♫~Welcome To My Blog~♫

password: BlondStyle