Tags
Language
Tags

Jerry Garcia - Before the Dead (2018)

Posted By: SERTiL
Jerry Garcia - Before the Dead (2018)

Jerry Garcia - Before the Dead (2018)
EAC Rip | FLAC (tracks)+cue, log - 646 MB | Scans - 976 MB
Label: Round Records ‎– JGFRR1016 | Tracks: 84 | Time: 133:09 min
Folk Rock, Bluegrass

Before The Dead brings together a rare collection of the earliest known performances by Jerry Garcia. From an informal and intimate 1691 performance of simple folk songs at a birthday party with future songwriting partner Robert Hunter to more polished coffeehouse gigs with old-timey and bluegrass bands through 1964, this collection showcases Garcia’s deep study of the folk music tradition and its influence on his musical journey leading to the formation of the Grateful Dead.

Tracklist:

Disc: 1
1. Santy Anno
2. I Got A Home In That Rock
3. Oh, Mary Don't You Weep
4. All My Trials
5. I Was Born Ten Thousand Years Ago
6. Traditional: Blow The Candles Out
7. Rake And A Rambling Boy
8. Trouble In Mind
9. Brown's Ferry Blues
10. Jesse James
11. Down In The Willow Garden
12. Long Lonesome Road
13. Railroad Bill
14. The Wagoner's Lad
15. Katie Cruel

Disc: 2
1. Cannonball Blues
2. Little Birdie
3. Sally Goodin
4. Hold That Woodpile Down
5. Legend Of The Johnson Boys
6. Shady Grove
7. Sweet Sunny South
8. Man Of Constant Sorrow
9. Band Introductions
10. Roving Gambler
11. Ground Speed
12. Pig In A Pen
13. Traditional: Standing In The Need Of Prayer
14. Flint Hill Special
15. Nine Pound Hammer
16. Handsome Molly
17. Clinch Mountain Backstep
18. Think Of What You've Done
19. Cripple Creek
20. All The Good Times Have Past And Gone
21. Billy Grimes, The Rover
22. Paddy On The Turnpike - Boys, My Money's All Gone
23. Run Mountain
24. Sugar Baby
25. Sitting On Top Of The World

Disc: 3
1. Roll In My Sweet Baby's Arms
2. Jerry's Breakdown
3. Traditional: Standing In The Need Of Prayer
4. Mule Skinner Blues
5. Saturday Night Shuffle
6. Pike County Breakdown
7. The Little Sparrow
8. We Shall Not Be Moved
9. Deep Elem Blues
10. Will The Weaver
11. I Truly UnderstanD
12. Long Black Veil
13. The Man That Wrote That Home Sweet Home Never Was A Married Man
14. Foggy Mountain Top

Disc: 4
1. Barefoot Nellie
2. She's More To Be Pitied
3. Noah's Breakdown
4. Who Will Sing For Me?
5. Salt Creek
6. Monroe's Hornpipe - Jody's Hornpipe
7. Rosa Lee McFall
8. John Hardy/Closing Theme
9. Katie Kline
10. Walkin' The Dog
11. Paddy On The Turnpike - Boys, My Money's All Gone
12. Love And Wealth
13. Traditional: Sourwood Mountain
14. If I Lose
15. Homestead On The Farm - I Wonder How The Old Folks Are At Home
16. Stoney Creek
17. Salty Dog Blues
18. Love Please Come Home
19. Make Me A Pallet On The Floor
20. Darlin' Allalee
21. In The Pines
22. Raw Hide
23. Black Mountain Rag
24. True Life Blues
25. Medley: Devil's Dream–Sailor's Hornpipe
26. Drink Up And Go Home
27. These Men Of God
28. Roll On Buddy
29. Goodbye Old Pal
30. Back Up And Push

Exact Audio Copy V1.3 from 2. September 2016

EAC extraction logfile from 7. June 2018, 20:58

Jerry Garcia / Bob And Jerry / Jerry Garcia, Marshall Leicester, And Robert Hunter / Jerry Garcia And Unknown Musician

Used drive : ATAPI iHES112 3 Adapter: 1 ID: 0

Read mode : Secure
Utilize accurate stream : Yes
Defeat audio cache : Yes
Make use of C2 pointers : No

Read offset correction : 702
Overread into Lead-In and Lead-Out : No
Fill up missing offset samples with silence : Yes
Delete leading and trailing silent blocks : No
Null samples used in CRC calculations : Yes
Used interface : Native Win32 interface for Win NT & 2000
Gap handling : Appended to previous track

Used output format : User Defined Encoder
Selected bitrate : 1024 kBit/s
Quality : High
Add ID3 tag : No
Command line compressor : D:\Tools\Exact Audio Copy\Flac\flac.exe
Additional command line options : -8 -e -p -V -T "ARTIST=%artist%" -T "TITLE=%title%" -T "ALBUM=%albumtitle%" -T "DATE=%year%" -T "TRACKNUMBER=%tracknr%" -T "GENRE=%genre%" -T "PERFORMER=%albuminterpret%" -T "COMPOSER=%composer%" %haslyrics%–tag-from-file=LYRICS="%lyricsfile%"%haslyrics% -T "ALBUMARTIST=%albumartist%" -T "DISCNUMBER=%cdnumber%" -T "TOTALDISCS=%totalcds%" -T "TOTALTRACKS=%numtracks%" -T "COMMENT=%comment%" %source% -o %dest%


TOC of the extracted CD

Track | Start | Length | Start sector | End sector
––––––––––––––––––––––––––––-
1 | 0:00.00 | 2:14.40 | 0 | 10089
2 | 2:14.40 | 1:45.50 | 10090 | 18014
3 | 4:00.15 | 3:31.18 | 18015 | 33857
4 | 7:31.33 | 4:00.52 | 33858 | 51909
5 | 11:32.10 | 2:12.12 | 51910 | 61821
6 | 13:44.22 | 2:02.00 | 61822 | 70971
7 | 15:46.22 | 1:30.58 | 70972 | 77779
8 | 17:17.05 | 3:10.73 | 77780 | 92102
9 | 20:28.03 | 2:51.23 | 92103 | 104950
10 | 23:19.26 | 4:12.44 | 104951 | 123894
11 | 27:31.70 | 1:48.17 | 123895 | 132011
12 | 29:20.12 | 2:39.15 | 132012 | 143951
13 | 31:59.27 | 3:16.60 | 143952 | 158711
14 | 35:16.12 | 2:59.43 | 158712 | 172179
15 | 38:15.55 | 3:39.66 | 172180 | 188670


Track 1

Filename K:\Music\Self-Ripped\Jerry Garcia - Before The Dead (2018) [CD-FLAC]\CD1\01 - Jerry Garcia, Robert Hunter - Bob And Jerry - Santy Anno (Traditional Sea Shanty).wav

Pre-gap length 0:00:02.00

Peak level 67.0 %
Extraction speed 4.4 X
Track quality 100.0 %
Test CRC ADFF373D
Copy CRC ADFF373D
Track not present in AccurateRip database
Copy OK

Track 2

Filename K:\Music\Self-Ripped\Jerry Garcia - Before The Dead (2018) [CD-FLAC]\CD1\02 - Jerry Garcia, Robert Hunter - Bob And Jerry - I Got A Home In That Rock (Traditional Spiritual).wav

Peak level 72.2 %
Extraction speed 4.4 X
Track quality 100.0 %
Test CRC 517B2E37
Copy CRC 517B2E37
Track not present in AccurateRip database
Copy OK

Track 3

Filename K:\Music\Self-Ripped\Jerry Garcia - Before The Dead (2018) [CD-FLAC]\CD1\03 - Jerry Garcia, Robert Hunter - Bob And Jerry - Oh, Mary Don't You Weep (Traditional Spiritual).wav

Peak level 70.7 %
Extraction speed 5.5 X
Track quality 100.0 %
Test CRC EAD18614
Copy CRC EAD18614
Track not present in AccurateRip database
Copy OK

Track 4

Filename K:\Music\Self-Ripped\Jerry Garcia - Before The Dead (2018) [CD-FLAC]\CD1\04 - Jerry Garcia, Robert Hunter - Bob And Jerry - All My Trials (Traditional Spiritual).wav

Peak level 77.1 %
Extraction speed 5.1 X
Track quality 99.9 %
Test CRC C6EDF839
Copy CRC C6EDF839
Track not present in AccurateRip database
Copy OK

Track 5

Filename K:\Music\Self-Ripped\Jerry Garcia - Before The Dead (2018) [CD-FLAC]\CD1\05 - Jerry Garcia, Robert Hunter - Bob And Jerry - I Was Born Ten Thousand Years Ago (H. C. Verner, Harry C. Clyde).wav

Peak level 73.6 %
Extraction speed 4.5 X
Track quality 99.9 %
Test CRC 7DBB77EE
Copy CRC 7DBB77EE
Track not present in AccurateRip database
Copy OK

Track 6

Filename K:\Music\Self-Ripped\Jerry Garcia - Before The Dead (2018) [CD-FLAC]\CD1\06 - Jerry Garcia, Robert Hunter - Bob and Jerry - Blow the Candles Out (Traditional, Celtic Origins).wav

Peak level 68.1 %
Extraction speed 5.8 X
Track quality 100.0 %
Test CRC 067481C4
Copy CRC 067481C4
Track not present in AccurateRip database
Copy OK

Track 7

Filename K:\Music\Self-Ripped\Jerry Garcia - Before The Dead (2018) [CD-FLAC]\CD1\07 - Jerry Garcia, Robert Hunter - Bob and Jerry - Rake And A Rambling Boy (Trad. Arr. Joan Baez).wav

Peak level 60.6 %
Extraction speed 5.3 X
Track quality 100.0 %
Test CRC 2D12B009
Copy CRC 2D12B009
Track not present in AccurateRip database
Copy OK

Track 8

Filename K:\Music\Self-Ripped\Jerry Garcia - Before The Dead (2018) [CD-FLAC]\CD1\08 - Jerry Garcia, Robert Hunter - Bob and Jerry - Trouble in Mind (Richard M. Jones).wav

Peak level 72.5 %
Extraction speed 6.9 X
Track quality 100.0 %
Test CRC 8AA732F5
Copy CRC 8AA732F5
Track not present in AccurateRip database
Copy OK

Track 9

Filename K:\Music\Self-Ripped\Jerry Garcia - Before The Dead (2018) [CD-FLAC]\CD1\09 - Jerry Garcia, Marshall Leicester, Robert Hunter - Jerry Garcia, Marshall Leicester, And Robert Hunter - Brown's Ferry Blues (Alton Delmore, Rabon Delmore).wav

Peak level 83.0 %
Extraction speed 5.6 X
Track quality 99.9 %
Test CRC BF94FAB9
Copy CRC BF94FAB9
Track not present in AccurateRip database
Copy OK

Track 10

Filename K:\Music\Self-Ripped\Jerry Garcia - Before The Dead (2018) [CD-FLAC]\CD1\10 - Jerry Garcia, Marshall Leicester, Robert Hunter - Jerry Garcia, Marshall Leicester, And Robert Hunter - Jesse James (Traditional).wav

Peak level 83.3 %
Extraction speed 7.8 X
Track quality 100.0 %
Test CRC 7CF4C837
Copy CRC 7CF4C837
Track not present in AccurateRip database
Copy OK

Track 11

Filename K:\Music\Self-Ripped\Jerry Garcia - Before The Dead (2018) [CD-FLAC]\CD1\11 - Jerry Garcia - Jerry Garcia And Unknown Musician - Down In The Willow Garden (Traditional).wav

Peak level 86.6 %
Extraction speed 4.9 X
Track quality 99.9 %
Test CRC A7697BCA
Copy CRC A7697BCA
Track not present in AccurateRip database
Copy OK

Track 12

Filename K:\Music\Self-Ripped\Jerry Garcia - Before The Dead (2018) [CD-FLAC]\CD1\12 - Jerry Garcia - Jerry Garcia And Unknown Musician - Long Lonesome Road (Traditional).wav

Peak level 72.3 %
Extraction speed 7.4 X
Track quality 100.0 %
Test CRC 305E422F
Copy CRC 305E422F
Track not present in AccurateRip database
Copy OK

Track 13

Filename K:\Music\Self-Ripped\Jerry Garcia - Before The Dead (2018) [CD-FLAC]\CD1\13 - Jerry Garcia - Jerry Garcia And Unknown Musician - Railroad Bill (Traditional).wav

Peak level 79.7 %
Extraction speed 7.4 X
Track quality 100.0 %
Test CRC 13CA12C3
Copy CRC 13CA12C3
Track not present in AccurateRip database
Copy OK

Track 14

Filename K:\Music\Self-Ripped\Jerry Garcia - Before The Dead (2018) [CD-FLAC]\CD1\14 - Jerry Garcia, Unknown Musician - Jerry Garcia And Unknown Musician - The Wagoner's Lad (Traditional).wav

Peak level 75.9 %
Extraction speed 8.4 X
Track quality 100.0 %
Test CRC 7F3E277E
Copy CRC 7F3E277E
Track not present in AccurateRip database
Copy OK

Track 15

Filename K:\Music\Self-Ripped\Jerry Garcia - Before The Dead (2018) [CD-FLAC]\CD1\15 - Jerry Garcia, Unknown Musician - Jerry Garcia And Unknown Musician - Katie Cruel (Traditional).wav

Peak level 85.4 %
Extraction speed 3.0 X
Track quality 100.0 %
Test CRC 4E71957C
Copy CRC 4E71957C
Track not present in AccurateRip database
Copy OK


None of the tracks are present in the AccurateRip database

No errors occurred

End of status report

–– CUETools DB Plugin V2.1.6

[CTDB TOCID: zDbnWslpscam_yxvJkN5a7N989g-] found
Submit result: zDbnWslpscam_yxvJkN5a7N989g- has been confirmed
Track | CTDB Status
1 | (14/14) Accurately ripped
2 | (14/14) Accurately ripped
3 | (14/14) Accurately ripped
4 | (14/14) Accurately ripped
5 | (14/14) Accurately ripped
6 | (14/14) Accurately ripped
7 | (14/14) Accurately ripped
8 | (14/14) Accurately ripped
9 | (14/14) Accurately ripped
10 | (14/14) Accurately ripped
11 | (14/14) Accurately ripped
12 | (14/14) Accurately ripped
13 | (14/14) Accurately ripped
14 | (14/14) Accurately ripped
15 | (14/14) Accurately ripped


==== Log checksum 53C4A9AD42653DA0C5CDCC4FACA9C474D316B342596DF11370A9F9887A510E65 ====

Exact Audio Copy V1.3 from 2. September 2016

EAC extraction logfile from 7. June 2018, 23:39

Jerry Garcia / Sleepy Hollow Hog Stompers / Hart Valley Drifters

Used drive : ATAPI iHES112 3 Adapter: 1 ID: 0

Read mode : Secure
Utilize accurate stream : Yes
Defeat audio cache : Yes
Make use of C2 pointers : No

Read offset correction : 702
Overread into Lead-In and Lead-Out : No
Fill up missing offset samples with silence : Yes
Delete leading and trailing silent blocks : No
Null samples used in CRC calculations : Yes
Used interface : Native Win32 interface for Win NT & 2000
Gap handling : Appended to previous track

Used output format : User Defined Encoder
Selected bitrate : 1024 kBit/s
Quality : High
Add ID3 tag : No
Command line compressor : D:\Tools\Exact Audio Copy\Flac\flac.exe
Additional command line options : -8 -e -p -V -T "ARTIST=%artist%" -T "TITLE=%title%" -T "ALBUM=%albumtitle%" -T "DATE=%year%" -T "TRACKNUMBER=%tracknr%" -T "GENRE=%genre%" -T "PERFORMER=%albuminterpret%" -T "COMPOSER=%composer%" %haslyrics%–tag-from-file=LYRICS="%lyricsfile%"%haslyrics% -T "ALBUMARTIST=%albumartist%" -T "DISCNUMBER=%cdnumber%" -T "TOTALDISCS=%totalcds%" -T "TOTALTRACKS=%numtracks%" -T "COMMENT=%comment%" %source% -o %dest%


TOC of the extracted CD

Track | Start | Length | Start sector | End sector
––––––––––––––––––––––––––––-
1 | 0:00.00 | 3:02.12 | 0 | 13661
2 | 3:02.12 | 3:17.17 | 13662 | 28453
3 | 6:19.29 | 2:05.69 | 28454 | 37897
4 | 8:25.23 | 3:32.16 | 37898 | 53813
5 | 11:57.39 | 3:09.42 | 53814 | 68030
6 | 15:07.06 | 2:48.37 | 68031 | 80667
7 | 17:55.43 | 3:12.67 | 80668 | 95134
8 | 21:08.35 | 2:25.66 | 95135 | 106075
9 | 23:34.26 | 1:12.00 | 106076 | 111475
10 | 24:46.26 | 3:45.41 | 111476 | 128391
11 | 28:31.67 | 1:28.34 | 128392 | 135025
12 | 30:00.26 | 2:15.24 | 135026 | 145174
13 | 32:15.50 | 2:08.50 | 145175 | 154824
14 | 34:24.25 | 1:59.46 | 154825 | 163795
15 | 36:23.71 | 2:42.14 | 163796 | 175959
16 | 39:06.10 | 2:18.45 | 175960 | 186354
17 | 41:24.55 | 1:17.74 | 186355 | 192203
18 | 42:42.54 | 2:40.35 | 192204 | 204238
19 | 45:23.14 | 1:23.66 | 204239 | 210529
20 | 46:47.05 | 3:07.22 | 210530 | 224576
21 | 49:54.27 | 2:42.32 | 224577 | 236758
22 | 52:36.59 | 1:37.62 | 236759 | 244095
23 | 54:14.46 | 4:10.56 | 244096 | 262901
24 | 58:25.27 | 3:52.31 | 262902 | 280332
25 | 62:17.58 | 3:36.39 | 280333 | 296571


Track 1

Filename K:\Music\Self-Ripped\Jerry Garcia - Before The Dead (2018) [CD-FLAC]\CD2\01 - Jerry Garcia, Dick Arnold, Marshall Leicester - Sleepy Hollow Hog Stompers - Cannonball Blues (A. P. Carter).wav

Pre-gap length 0:00:02.00

Peak level 95.1 %
Extraction speed 1.8 X
Track quality 100.0 %
Test CRC 7114A84F
Copy CRC 7114A84F
Track not present in AccurateRip database
Copy OK

Track 2

Filename K:\Music\Self-Ripped\Jerry Garcia - Before The Dead (2018) [CD-FLAC]\CD2\02 - Jerry Garcia, Dick Arnold, Marshall Leicester - Sleepy Hollow Hog Stompers - Little Birdie (Traditional).wav

Peak level 98.5 %
Extraction speed 1.5 X
Track quality 99.9 %
Test CRC 4948AAED
Copy CRC 4948AAED
Track not present in AccurateRip database
Copy OK

Track 3

Filename K:\Music\Self-Ripped\Jerry Garcia - Before The Dead (2018) [CD-FLAC]\CD2\03 - Jerry Garcia, Dick Arnold, Marshall Leicester - Sleepy Hollow Hog Stompers - Sally Goodin (Traditional).wav

Peak level 97.0 %
Extraction speed 1.9 X
Track quality 100.0 %
Test CRC F32DF917
Copy CRC F32DF917
Track not present in AccurateRip database
Copy OK

Track 4

Filename K:\Music\Self-Ripped\Jerry Garcia - Before The Dead (2018) [CD-FLAC]\CD2\04 - Jerry Garcia, Dick Arnold, Marshall Leicester - Sleepy Hollow Hog Stompers - Hold That Woodpile Down (Edward Harrigan, Tony Hart).wav

Peak level 98.5 %
Extraction speed 2.3 X
Track quality 100.0 %
Test CRC 8961D4F8
Copy CRC 8961D4F8
Track not present in AccurateRip database
Copy OK

Track 5

Filename K:\Music\Self-Ripped\Jerry Garcia - Before The Dead (2018) [CD-FLAC]\CD2\05 - Jerry Garcia, Dick Arnold, Marshall Leicester - Sleepy Hollow Hog Stompers - Legend Of The Johnson Boys (Traditional).wav

Peak level 97.0 %
Extraction speed 1.8 X
Track quality 99.9 %
Test CRC 27CBE7CE
Copy CRC 27CBE7CE
Track not present in AccurateRip database
Copy OK

Track 6

Filename K:\Music\Self-Ripped\Jerry Garcia - Before The Dead (2018) [CD-FLAC]\CD2\06 - Jerry Garcia, Dick Arnold, Marshall Leicester - Sleepy Hollow Hog Stompers - Shady Grove (Traditional).wav

Peak level 98.9 %
Extraction speed 2.4 X
Track quality 100.0 %
Test CRC 0D115E8D
Copy CRC 0D115E8D
Track not present in AccurateRip database
Copy OK

Track 7

Filename K:\Music\Self-Ripped\Jerry Garcia - Before The Dead (2018) [CD-FLAC]\CD2\07 - Jerry Garcia, Dick Arnold, Marshall Leicester - Sleepy Hollow Hog Stompers - Sweet Sunny South (Traditional).wav

Peak level 98.7 %
Extraction speed 1.8 X
Track quality 99.9 %
Test CRC 1BB9CF88
Copy CRC 1BB9CF88
Track not present in AccurateRip database
Copy OK

Track 8

Filename K:\Music\Self-Ripped\Jerry Garcia - Before The Dead (2018) [CD-FLAC]\CD2\08 - Jerry Garcia, Dick Arnold, Marshall Leicester - Sleepy Hollow Hog Stompers - Man Of Constant Sorrow (Traditional).wav

Peak level 90.8 %
Extraction speed 2.6 X
Track quality 100.0 %
Test CRC B567F3F7
Copy CRC B567F3F7
Track not present in AccurateRip database
Copy OK

Track 9

Filename K:\Music\Self-Ripped\Jerry Garcia - Before The Dead (2018) [CD-FLAC]\CD2\09 - Jerry Garcia, K. Frankel, R. Hunter, N. V. Maastricht, D. Nelson - Hart Valley Drifters - Band Introductions.wav

Peak level 50.9 %
Extraction speed 2.2 X
Track quality 100.0 %
Test CRC DA4D36A7
Copy CRC DA4D36A7
Track not present in AccurateRip database
Copy OK

Track 10

Filename K:\Music\Self-Ripped\Jerry Garcia - Before The Dead (2018) [CD-FLAC]\CD2\10 - Jerry Garcia, K. Frankel, R. Hunter, N. V. Maastricht, D. Nelson - Hart Valley Drifters - Roving Gambler (Traditional).wav

Peak level 86.7 %
Extraction speed 2.9 X
Track quality 100.0 %
Test CRC 7FD78A0F
Copy CRC 7FD78A0F
Track not present in AccurateRip database
Copy OK

Track 11

Filename K:\Music\Self-Ripped\Jerry Garcia - Before The Dead (2018) [CD-FLAC]\CD2\11 - Jerry Garcia, K. Frankel, R. Hunter, N. V. Maastricht, D. Nelson - Hart Valley Drifters - Ground Speed (Earl Scruggs).wav

Peak level 86.5 %
Extraction speed 2.4 X
Track quality 100.0 %
Test CRC 8E42AD21
Copy CRC 8E42AD21
Track not present in AccurateRip database
Copy OK

Track 12

Filename K:\Music\Self-Ripped\Jerry Garcia - Before The Dead (2018) [CD-FLAC]\CD2\12 - Jerry Garcia, K. Frankel, R. Hunter, N. V. Maastricht, D. Nelson - Hart Valley Drifters - Pig In A Pen (Fiddlin' Arthur Smith [traditional] arr. by J. Garcia).wav

Peak level 86.1 %
Extraction speed 2.8 X
Track quality 100.0 %
Test CRC 9C1803AD
Copy CRC 9C1803AD
Track not present in AccurateRip database
Copy OK

Track 13

Filename K:\Music\Self-Ripped\Jerry Garcia - Before The Dead (2018) [CD-FLAC]\CD2\13 - Jerry Garcia, K. Frankel, R. Hunter, N. V. Maastricht, D. Nelson - Hart Valley Drifters - Standing In The Need Of Prayer (Traditional).wav

Peak level 87.1 %
Extraction speed 2.7 X
Track quality 100.0 %
Test CRC EDE427EA
Copy CRC EDE427EA
Track not present in AccurateRip database
Copy OK

Track 14

Filename K:\Music\Self-Ripped\Jerry Garcia - Before The Dead (2018) [CD-FLAC]\CD2\14 - Jerry Garcia, K. Frankel, R. Hunter, N. V. Maastricht, D. Nelson - Hart Valley Drifters - Flint Hill Special (Earl Scruggs).wav

Peak level 85.8 %
Extraction speed 2.6 X
Track quality 100.0 %
Test CRC 9FA41777
Copy CRC 9FA41777
Track not present in AccurateRip database
Copy OK

Track 15

Filename K:\Music\Self-Ripped\Jerry Garcia - Before The Dead (2018) [CD-FLAC]\CD2\15 - Jerry Garcia, K. Frankel, R. Hunter, N. V. Maastricht, D. Nelson - Hart Valley Drifters - Nine Pound Hammer (Traditional).wav

Peak level 87.0 %
Extraction speed 2.6 X
Track quality 100.0 %
Test CRC 70B4DED9
Copy CRC 70B4DED9
Track not present in AccurateRip database
Copy OK

Track 16

Filename K:\Music\Self-Ripped\Jerry Garcia - Before The Dead (2018) [CD-FLAC]\CD2\16 - Jerry Garcia, K. Frankel, R. Hunter, N. V. Maastricht, D. Nelson - Hart Valley Drifters - Handsome Molly (G. B. Grayson, Henry Whitter).wav

Peak level 86.6 %
Extraction speed 3.0 X
Track quality 100.0 %
Test CRC B437B865
Copy CRC B437B865
Track not present in AccurateRip database
Copy OK

Track 17

Filename K:\Music\Self-Ripped\Jerry Garcia - Before The Dead (2018) [CD-FLAC]\CD2\17 - Jerry Garcia, K. Frankel, R. Hunter, N. V. Maastricht, D. Nelson - Hart Valley Drifters - Clinch Mountain Backstep (Ralph Stanley, Ruby Rakes).wav

Peak level 84.9 %
Extraction speed 1.6 X
Track quality 99.8 %
Test CRC FCF12B28
Copy CRC FCF12B28
Track not present in AccurateRip database
Copy OK

Track 18

Filename K:\Music\Self-Ripped\Jerry Garcia - Before The Dead (2018) [CD-FLAC]\CD2\18 - Jerry Garcia, K. Frankel, R. Hunter, N. V. Maastricht, D. Nelson - Hart Valley Drifters - Think Of What You've Done (Carter Stanley).wav

Peak level 86.7 %
Extraction speed 3.3 X
Track quality 100.0 %
Test CRC 21E87593
Copy CRC 21E87593
Track not present in AccurateRip database
Copy OK

Track 19

Filename K:\Music\Self-Ripped\Jerry Garcia - Before The Dead (2018) [CD-FLAC]\CD2\19 - Jerry Garcia, K. Frankel, R. Hunter, N. V. Maastricht, D. Nelson - Hart Valley Drifters - Cripple Creek (Traditional).wav

Peak level 85.9 %
Extraction speed 2.8 X
Track quality 100.0 %
Test CRC 4E8411BC
Copy CRC 4E8411BC
Track not present in AccurateRip database
Copy OK

Track 20

Filename K:\Music\Self-Ripped\Jerry Garcia - Before The Dead (2018) [CD-FLAC]\CD2\20 - Jerry Garcia, K. Frankel, R. Hunter, N. V. Maastricht, D. Nelson - Hart Valley Drifters - All the Good Times Have Past And Gone (Traditional).wav

Peak level 87.0 %
Extraction speed 3.5 X
Track quality 100.0 %
Test CRC CEC8D00D
Copy CRC CEC8D00D
Track not present in AccurateRip database
Copy OK

Track 21

Filename K:\Music\Self-Ripped\Jerry Garcia - Before The Dead (2018) [CD-FLAC]\CD2\21 - Jerry Garcia, K. Frankel, R. Hunter, N. V. Maastricht, D. Nelson - Hart Valley Drifters - Billy Grimes, The Rover (Traditional).wav

Peak level 86.1 %
Extraction speed 3.5 X
Track quality 100.0 %
Test CRC 2ACA141C
Copy CRC 2ACA141C
Track not present in AccurateRip database
Copy OK

Track 22

Filename K:\Music\Self-Ripped\Jerry Garcia - Before The Dead (2018) [CD-FLAC]\CD2\22 - Jerry Garcia, K. Frankel, R. Hunter, N. V. Maastricht, D. Nelson - Hart Valley Drifters - Paddy On The Turnpike (Boys, My Money's All Gone) (Traditional).wav

Peak level 85.9 %
Extraction speed 3.2 X
Track quality 100.0 %
Test CRC 1A3AD09F
Copy CRC 1A3AD09F
Track not present in AccurateRip database
Copy OK

Track 23

Filename K:\Music\Self-Ripped\Jerry Garcia - Before The Dead (2018) [CD-FLAC]\CD2\23 - Jerry Garcia, K. Frankel, R. Hunter, N. V. Maastricht, D. Nelson - Hart Valley Drifters - Run Mountain (J. E. Mainer).wav

Peak level 85.2 %
Extraction speed 3.8 X
Track quality 100.0 %
Test CRC 4795D907
Copy CRC 4795D907
Track not present in AccurateRip database
Copy OK

Track 24

Filename K:\Music\Self-Ripped\Jerry Garcia - Before The Dead (2018) [CD-FLAC]\CD2\24 - Jerry Garcia, K. Frankel, R. Hunter, N. V. Maastricht, D. Nelson - Hart Valley Drifters - Sugar Baby (Moran Dock Boggs).wav

Peak level 82.8 %
Extraction speed 3.0 X
Track quality 99.9 %
Test CRC 878D1E3B
Copy CRC 878D1E3B
Track not present in AccurateRip database
Copy OK

Track 25

Filename K:\Music\Self-Ripped\Jerry Garcia - Before The Dead (2018) [CD-FLAC]\CD2\25 - Jerry Garcia, K. Frankel, R. Hunter, N. V. Maastricht, D. Nelson - Hart Valley Drifters - Sitting On Top Of The World (Walter Jacobs Vinson, Lonnie Carter).wav

Peak level 86.6 %
Extraction speed 2.4 X
Track quality 100.0 %
Test CRC 7FFA3D88
Copy CRC 7FFA3D88
Track not present in AccurateRip database
Copy OK


None of the tracks are present in the AccurateRip database

No errors occurred

End of status report

–– CUETools DB Plugin V2.1.6

[CTDB TOCID: CkUphl7KrMGtkuGbxDTWULC0OXo-] found
Submit result: already submitted
Track | CTDB Status
1 | (12/12) Accurately ripped
2 | (12/12) Accurately ripped
3 | (12/12) Accurately ripped
4 | (12/12) Accurately ripped
5 | (12/12) Accurately ripped
6 | (12/12) Accurately ripped
7 | (12/12) Accurately ripped
8 | (12/12) Accurately ripped
9 | (12/12) Accurately ripped
10 | (12/12) Accurately ripped
11 | (12/12) Accurately ripped
12 | (12/12) Accurately ripped
13 | (12/12) Accurately ripped
14 | (12/12) Accurately ripped
15 | (12/12) Accurately ripped
16 | (12/12) Accurately ripped
17 | (12/12) Accurately ripped
18 | (12/12) Accurately ripped
19 | (12/12) Accurately ripped
20 | (12/12) Accurately ripped
21 | (12/12) Accurately ripped
22 | (12/12) Accurately ripped
23 | (12/12) Accurately ripped
24 | (12/12) Accurately ripped
25 | (12/12) Accurately ripped


==== Log checksum 848C5A7339014B4C2A79FFA0655E2EF3EBB6DC24BF57D882EE33B8327C123985 ====

Exact Audio Copy V1.3 from 2. September 2016

EAC extraction logfile from 8. June 2018, 0:25

Jerry Garcia / The Wildwood Boys / Jerry And Sara

Used drive : ATAPI iHES112 3 Adapter: 1 ID: 0

Read mode : Secure
Utilize accurate stream : Yes
Defeat audio cache : Yes
Make use of C2 pointers : No

Read offset correction : 702
Overread into Lead-In and Lead-Out : No
Fill up missing offset samples with silence : Yes
Delete leading and trailing silent blocks : No
Null samples used in CRC calculations : Yes
Used interface : Native Win32 interface for Win NT & 2000
Gap handling : Appended to previous track

Used output format : User Defined Encoder
Selected bitrate : 1024 kBit/s
Quality : High
Add ID3 tag : No
Command line compressor : D:\Tools\Exact Audio Copy\Flac\flac.exe
Additional command line options : -8 -e -p -V -T "ARTIST=%artist%" -T "TITLE=%title%" -T "ALBUM=%albumtitle%" -T "DATE=%year%" -T "TRACKNUMBER=%tracknr%" -T "GENRE=%genre%" -T "PERFORMER=%albuminterpret%" -T "COMPOSER=%composer%" %haslyrics%–tag-from-file=LYRICS="%lyricsfile%"%haslyrics% -T "ALBUMARTIST=%albumartist%" -T "DISCNUMBER=%cdnumber%" -T "TOTALDISCS=%totalcds%" -T "TOTALTRACKS=%numtracks%" -T "COMMENT=%comment%" %source% -o %dest%


TOC of the extracted CD

Track | Start | Length | Start sector | End sector
––––––––––––––––––––––––––––-
1 | 0:00.00 | 3:25.06 | 0 | 15380
2 | 3:25.06 | 2:07.57 | 15381 | 24962
3 | 5:32.63 | 2:38.33 | 24963 | 36845
4 | 8:11.21 | 3:22.58 | 36846 | 52053
5 | 11:34.04 | 2:04.43 | 52054 | 61396
6 | 13:38.47 | 1:44.04 | 61397 | 69200
7 | 15:22.51 | 3:25.06 | 69201 | 84581
8 | 18:47.57 | 2:41.71 | 84582 | 96727
9 | 21:29.53 | 3:16.02 | 96728 | 111429
10 | 24:45.55 | 3:13.33 | 111430 | 125937
11 | 27:59.13 | 3:19.47 | 125938 | 140909
12 | 31:18.60 | 4:28.22 | 140910 | 161031
13 | 35:47.07 | 3:38.17 | 161032 | 177398
14 | 39:25.24 | 3:13.42 | 177399 | 191915


Track 1

Filename K:\Music\Self-Ripped\Jerry Garcia - Before The Dead (2018) [CD-FLAC]\CD3\01 - Jerry Garcia, R. Hunter, D. Nelson, N. V. Maastricht - The Wildwood Boys - Roll In My Sweet Baby's Arms (Buster Carter, Preston Young).wav

Pre-gap length 0:00:02.00

Peak level 99.6 %
Extraction speed 4.1 X
Track quality 100.0 %
Test CRC 3E8C80F8
Copy CRC 3E8C80F8
Track not present in AccurateRip database
Copy OK

Track 2

Filename K:\Music\Self-Ripped\Jerry Garcia - Before The Dead (2018) [CD-FLAC]\CD3\02 - Jerry Garcia, R. Hunter, D. Nelson, N. V. Maastricht - The Wildwood Boys - Jerry's Breakdown (Jerry Garcia).wav

Peak level 99.7 %
Extraction speed 3.9 X
Track quality 100.0 %
Test CRC 87A3596E
Copy CRC 87A3596E
Track not present in AccurateRip database
Copy OK

Track 3

Filename K:\Music\Self-Ripped\Jerry Garcia - Before The Dead (2018) [CD-FLAC]\CD3\03 - Jerry Garcia, R. Hunter, D. Nelson, N. V. Maastricht - The Wildwood Boys - Standing In The Need Of Prayer (Traditional).wav

Peak level 98.9 %
Extraction speed 4.4 X
Track quality 100.0 %
Test CRC CED46EB5
Copy CRC CED46EB5
Track not present in AccurateRip database
Copy OK

Track 4

Filename K:\Music\Self-Ripped\Jerry Garcia - Before The Dead (2018) [CD-FLAC]\CD3\04 - Jerry Garcia, R. Hunter, D. Nelson, N. V. Maastricht - The Wildwood Boys - Mule Skinner Blues (Jimmie Rodgers, George Vaughn).wav

Peak level 99.9 %
Extraction speed 5.0 X
Track quality 100.0 %
Test CRC A920DDF3
Copy CRC A920DDF3
Track not present in AccurateRip database
Copy OK

Track 5

Filename K:\Music\Self-Ripped\Jerry Garcia - Before The Dead (2018) [CD-FLAC]\CD3\05 - Jerry Garcia, R. Hunter, D. Nelson, N. V. Maastricht - The Wildwood Boys - Saturday Night Shuffle (Merle Travis).wav

Peak level 98.7 %
Extraction speed 4.8 X
Track quality 100.0 %
Test CRC 70905A34
Copy CRC 70905A34
Track not present in AccurateRip database
Copy OK

Track 6

Filename K:\Music\Self-Ripped\Jerry Garcia - Before The Dead (2018) [CD-FLAC]\CD3\06 - Jerry Garcia, R. Hunter, D. Nelson, N. V. Maastricht - The Wildwood Boys - Pike Country Breakdown (Rupert Jones).wav

Peak level 99.2 %
Extraction speed 4.8 X
Track quality 100.0 %
Test CRC 3AFF64CB
Copy CRC 3AFF64CB
Track not present in AccurateRip database
Copy OK

Track 7

Filename K:\Music\Self-Ripped\Jerry Garcia - Before The Dead (2018) [CD-FLAC]\CD3\07 - Jerry Garcia, R. Hunter, D. Nelson, N. V. Maastricht - The Wildwood Boys - The Little Sparrow (Traditional).wav

Peak level 99.3 %
Extraction speed 5.6 X
Track quality 100.0 %
Test CRC 6C7C05A5
Copy CRC 6C7C05A5
Track not present in AccurateRip database
Copy OK

Track 8

Filename K:\Music\Self-Ripped\Jerry Garcia - Before The Dead (2018) [CD-FLAC]\CD3\08 - Jerry Garcia, R. Hunter, D. Nelson, N. V. Maastricht - The Wildwood Boys - We Shall Not Be Moved (Traditional).wav

Peak level 99.7 %
Extraction speed 5.4 X
Track quality 100.0 %
Test CRC E897F07E
Copy CRC E897F07E
Track not present in AccurateRip database
Copy OK

Track 9

Filename K:\Music\Self-Ripped\Jerry Garcia - Before The Dead (2018) [CD-FLAC]\CD3\09 - Jerry Garcia, Sara Garcia - Jerry And Sara - Deep Elem Blues (Joe Shelton, Robert Shelton).wav

Peak level 99.1 %
Extraction speed 6.1 X
Track quality 100.0 %
Test CRC 940F437D
Copy CRC 940F437D
Track not present in AccurateRip database
Copy OK

Track 10

Filename K:\Music\Self-Ripped\Jerry Garcia - Before The Dead (2018) [CD-FLAC]\CD3\10 - Jerry Garcia, Sara Garcia - Jerry And Sara - Will The Weaver (Traditional).wav

Peak level 99.1 %
Extraction speed 6.4 X
Track quality 100.0 %
Test CRC 8DDDD59F
Copy CRC 8DDDD59F
Track not present in AccurateRip database
Copy OK

Track 11

Filename K:\Music\Self-Ripped\Jerry Garcia - Before The Dead (2018) [CD-FLAC]\CD3\11 - Jerry Garcia, Sara Garcia - Jerry And Sara - I Truly Understand (Traditional).wav

Peak level 99.2 %
Extraction speed 6.6 X
Track quality 100.0 %
Test CRC E9277C8E
Copy CRC E9277C8E
Track not present in AccurateRip database
Copy OK

Track 12

Filename K:\Music\Self-Ripped\Jerry Garcia - Before The Dead (2018) [CD-FLAC]\CD3\12 - Jerry Garcia, Sara Garcia - Jerry And Sara - Long Black Veil (Danny Dill, Marijohn Wilkin).wav

Peak level 99.2 %
Extraction speed 7.2 X
Track quality 100.0 %
Test CRC A64CA0B0
Copy CRC A64CA0B0
Track not present in AccurateRip database
Copy OK

Track 13

Filename K:\Music\Self-Ripped\Jerry Garcia - Before The Dead (2018) [CD-FLAC]\CD3\13 - Jerry Garcia, Sara Garcia - Jerry And Sara - The Man Who Wrote Home Sweet Home Never Was A Married Man (Traditional).wav

Peak level 99.1 %
Extraction speed 7.3 X
Track quality 100.0 %
Test CRC E5BF085E
Copy CRC E5BF085E
Track not present in AccurateRip database
Copy OK

Track 14

Filename K:\Music\Self-Ripped\Jerry Garcia - Before The Dead (2018) [CD-FLAC]\CD3\14 - Jerry Garcia, Sara Garcia - Jerry And Sara - Foggy Mountain Top (A. P. Carter).wav

Peak level 99.2 %
Extraction speed 5.1 X
Track quality 99.9 %
Test CRC 67A38DF8
Copy CRC 67A38DF8
Track not present in AccurateRip database
Copy OK


None of the tracks are present in the AccurateRip database

No errors occurred

End of status report

–– CUETools DB Plugin V2.1.6

[CTDB TOCID: koAQKLR2ya01zl35mfrjGHOQudY-] found
Submit result: koAQKLR2ya01zl35mfrjGHOQudY- has been confirmed
Track | CTDB Status
1 | (11/12) Accurately ripped
2 | (11/12) Accurately ripped
3 | (12/12) Accurately ripped
4 | (12/12) Accurately ripped
5 | (12/12) Accurately ripped
6 | (12/12) Accurately ripped
7 | (12/12) Accurately ripped
8 | (12/12) Accurately ripped
9 | (12/12) Accurately ripped
10 | (12/12) Accurately ripped
11 | (12/12) Accurately ripped
12 | (12/12) Accurately ripped
13 | (12/12) Accurately ripped
14 | (12/12) Accurately ripped


==== Log checksum 20A4006EA7AFEDFE5C6D5050C2774C40D4011030718294E020B4711FDBBE2C50 ====

Exact Audio Copy V1.3 from 2. September 2016

EAC extraction logfile from 8. June 2018, 2:07

Jerry Garcia / Black Mountain Boys / Asphalt Jungle Mountain Boys

Used drive : ATAPI iHES112 3 Adapter: 1 ID: 0

Read mode : Secure
Utilize accurate stream : Yes
Defeat audio cache : Yes
Make use of C2 pointers : No

Read offset correction : 702
Overread into Lead-In and Lead-Out : No
Fill up missing offset samples with silence : Yes
Delete leading and trailing silent blocks : No
Null samples used in CRC calculations : Yes
Used interface : Native Win32 interface for Win NT & 2000
Gap handling : Appended to previous track

Used output format : User Defined Encoder
Selected bitrate : 1024 kBit/s
Quality : High
Add ID3 tag : No
Command line compressor : D:\Tools\Exact Audio Copy\Flac\flac.exe
Additional command line options : -8 -e -p -V -T "ARTIST=%artist%" -T "TITLE=%title%" -T "ALBUM=%albumtitle%" -T "DATE=%year%" -T "TRACKNUMBER=%tracknr%" -T "GENRE=%genre%" -T "PERFORMER=%albuminterpret%" -T "COMPOSER=%composer%" %haslyrics%–tag-from-file=LYRICS="%lyricsfile%"%haslyrics% -T "ALBUMARTIST=%albumartist%" -T "DISCNUMBER=%cdnumber%" -T "TOTALDISCS=%totalcds%" -T "TOTALTRACKS=%numtracks%" -T "COMMENT=%comment%" %source% -o %dest%


TOC of the extracted CD

Track | Start | Length | Start sector | End sector
––––––––––––––––––––––––––––-
1 | 0:00.00 | 3:40.52 | 0 | 16551
2 | 3:40.52 | 3:26.30 | 16552 | 32031
3 | 7:07.07 | 2:17.71 | 32032 | 42377
4 | 9:25.03 | 2:07.23 | 42378 | 51925
5 | 11:32.26 | 2:18.34 | 51926 | 62309
6 | 13:50.60 | 1:50.60 | 62310 | 70619
7 | 15:41.45 | 2:30.43 | 70620 | 81912
8 | 18:12.13 | 1:25.34 | 81913 | 88321
9 | 19:37.47 | 3:16.48 | 88322 | 103069
10 | 22:54.20 | 2:09.07 | 103070 | 112751
11 | 25:03.27 | 3:10.24 | 112752 | 127025
12 | 28:13.51 | 2:19.00 | 127026 | 137450
13 | 30:32.51 | 0:45.22 | 137451 | 140847
14 | 31:17.73 | 2:15.50 | 140848 | 151022
15 | 33:33.48 | 2:20.22 | 151023 | 161544
16 | 35:53.70 | 2:23.36 | 161545 | 172305
17 | 38:17.31 | 2:28.18 | 172306 | 183423
18 | 40:45.49 | 2:20.34 | 183424 | 193957
19 | 43:06.08 | 2:27.01 | 193958 | 204983
20 | 45:33.09 | 2:17.56 | 204984 | 215314
21 | 47:50.65 | 3:15.18 | 215315 | 229957
22 | 51:06.08 | 2:32.31 | 229958 | 241388
23 | 53:38.39 | 2:12.06 | 241389 | 251294
24 | 55:50.45 | 2:20.36 | 251295 | 261830
25 | 58:11.06 | 1:45.09 | 261831 | 269714
26 | 59:56.15 | 3:04.56 | 269715 | 283570
27 | 63:00.71 | 3:13.37 | 283571 | 298082
28 | 66:14.33 | 2:10.56 | 298083 | 307888
29 | 68:25.14 | 1:50.06 | 307889 | 316144
30 | 70:15.20 | 1:09.40 | 316145 | 321359


Track 1

Filename K:\Music\Self-Ripped\Jerry Garcia - Before The Dead (2018) [CD-FLAC]\CD4\01 - Jerry Garcia, R. Hunter, D. Nelson, E. Thompson - Black Mountain Boys - Barefoot Nellie (Don Reno, Jim Davis).wav

Pre-gap length 0:00:02.00

Peak level 94.0 %
Extraction speed 3.8 X
Track quality 100.0 %
Test CRC 3650FE80
Copy CRC 3650FE80
Track not present in AccurateRip database
Copy OK

Track 2

Filename K:\Music\Self-Ripped\Jerry Garcia - Before The Dead (2018) [CD-FLAC]\CD4\02 - Jerry Garcia, R. Hunter, D. Nelson, E. Thompson - Black Mountain Boys - She's More To Be Pitied (Carter Stanley).wav

Peak level 81.2 %
Extraction speed 4.2 X
Track quality 100.0 %
Test CRC 6436EA5D
Copy CRC 6436EA5D
Track not present in AccurateRip database
Copy OK

Track 3

Filename K:\Music\Self-Ripped\Jerry Garcia - Before The Dead (2018) [CD-FLAC]\CD4\03 - Jerry Garcia, R. Hunter, D. Nelson, E. Thompson - Black Mountain Boys - Noah's Breakdown (Noah Crase).wav

Peak level 86.5 %
Extraction speed 4.1 X
Track quality 100.0 %
Test CRC 5B5FDB16
Copy CRC 5B5FDB16
Track not present in AccurateRip database
Copy OK

Track 4

Filename K:\Music\Self-Ripped\Jerry Garcia - Before The Dead (2018) [CD-FLAC]\CD4\04 - Jerry Garcia, R. Hunter, D. Nelson, E. Thompson - Black Mountain Boys - Who Will Sing For Me (Thomas J. Farris).wav

Peak level 74.1 %
Extraction speed 4.1 X
Track quality 100.0 %
Test CRC 9509961B
Copy CRC 9509961B
Track not present in AccurateRip database
Copy OK

Track 5

Filename K:\Music\Self-Ripped\Jerry Garcia - Before The Dead (2018) [CD-FLAC]\CD4\05 - Jerry Garcia, R. Hunter, D. Nelson, E. Thompson - Black Mountain Boys - Salt Creek (Bradford Keith, Bill Monroe).wav

Peak level 90.7 %
Extraction speed 3.3 X
Track quality 99.9 %
Test CRC 2BA72ED1
Copy CRC 2BA72ED1
Track not present in AccurateRip database
Copy OK

Track 6

Filename K:\Music\Self-Ripped\Jerry Garcia - Before The Dead (2018) [CD-FLAC]\CD4\06 - Jerry Garcia, R. Hunter, D. Nelson, E. Thompson - Black Mountain Boys - Monroe's Hornpipe (Jody's Hornpipe) (Bill Monroe).wav

Peak level 74.8 %
Extraction speed 4.4 X
Track quality 100.0 %
Test CRC E85AC34B
Copy CRC E85AC34B
Track not present in AccurateRip database
Copy OK

Track 7

Filename K:\Music\Self-Ripped\Jerry Garcia - Before The Dead (2018) [CD-FLAC]\CD4\07 - Jerry Garcia, R. Hunter, D. Nelson, E. Thompson - Black Mountain Boys - Rosa Lee McFall (Charlie Monroe).wav

Peak level 98.5 %
Extraction speed 4.8 X
Track quality 100.0 %
Test CRC CB44FF14
Copy CRC CB44FF14
Track not present in AccurateRip database
Copy OK

Track 8

Filename K:\Music\Self-Ripped\Jerry Garcia - Before The Dead (2018) [CD-FLAC]\CD4\08 - Jerry Garcia, R. Hunter, D. Nelson, E. Thompson - Black Mountain Boys - John Hardy - Closing Theme (Traditional).wav

Peak level 83.6 %
Extraction speed 4.3 X
Track quality 100.0 %
Test CRC 1A8E3E5C
Copy CRC 1A8E3E5C
Track not present in AccurateRip database
Copy OK

Track 9

Filename K:\Music\Self-Ripped\Jerry Garcia - Before The Dead (2018) [CD-FLAC]\CD4\09 - Jerry Garcia, G. Levin, D. Nelson, S. Rothman - Black Mountain Boys - Katie Kline (Traditional).wav

Peak level 71.5 %
Extraction speed 5.4 X
Track quality 100.0 %
Test CRC 1C608EA8
Copy CRC 1C608EA8
Track not present in AccurateRip database
Copy OK

Track 10

Filename K:\Music\Self-Ripped\Jerry Garcia - Before The Dead (2018) [CD-FLAC]\CD4\10 - Jerry Garcia, G. Levin, D. Nelson, S. Rothman - Black Mountain Boys - Walkin' The Dog (E. M. Grimsley, W. C. Grimsley).wav

Peak level 72.3 %
Extraction speed 5.1 X
Track quality 100.0 %
Test CRC BBC48D3D
Copy CRC BBC48D3D
Track not present in AccurateRip database
Copy OK

Track 11

Filename K:\Music\Self-Ripped\Jerry Garcia - Before The Dead (2018) [CD-FLAC]\CD4\11 - Jerry Garcia, G. Levin, D. Nelson, S. Rothman - Black Mountain Boys - Paddy On The Turnpike (Boy's My Money's All Gone) (Traditional).wav

Peak level 80.6 %
Extraction speed 5.6 X
Track quality 100.0 %
Test CRC 29ADDBD5
Copy CRC 29ADDBD5
Track not present in AccurateRip database
Copy OK

Track 12

Filename K:\Music\Self-Ripped\Jerry Garcia - Before The Dead (2018) [CD-FLAC]\CD4\12 - Jerry Garcia, G. Levin, D. Nelson, S. Rothman - Black Mountain Boys - Love And Wealth (Ira Louvin, Charlie Louvin).wav

Peak level 80.0 %
Extraction speed 5.2 X
Track quality 100.0 %
Test CRC 938E5FA1
Copy CRC 938E5FA1
Track not present in AccurateRip database
Copy OK

Track 13

Filename K:\Music\Self-Ripped\Jerry Garcia - Before The Dead (2018) [CD-FLAC]\CD4\13 - Jerry Garcia, G. Levin, D. Nelson, S. Rothman - Black Mountain Boys - Sourwood Mountain (Traditional).wav

Peak level 83.1 %
Extraction speed 3.7 X
Track quality 100.0 %
Test CRC 9886ED22
Copy CRC 9886ED22
Track not present in AccurateRip database
Copy OK

Track 14

Filename K:\Music\Self-Ripped\Jerry Garcia - Before The Dead (2018) [CD-FLAC]\CD4\14 - Jerry Garcia, G. Levin, D. Nelson, S. Rothman - Black Mountain Boys - If I Lose (Ralph Stanley).wav

Peak level 87.4 %
Extraction speed 5.3 X
Track quality 100.0 %
Test CRC 36A0FCE9
Copy CRC 36A0FCE9
Track not present in AccurateRip database
Copy OK

Track 15

Filename K:\Music\Self-Ripped\Jerry Garcia - Before The Dead (2018) [CD-FLAC]\CD4\15 - Jerry Garcia, G. Levin, D. Nelson, S. Rothman - Black Mountain Boys - Homestead On The Farm (I Wonder How The Old Folks Are At Home).wav

Peak level 88.3 %
Extraction speed 5.8 X
Track quality 100.0 %
Test CRC 187794CA
Copy CRC 187794CA
Track not present in AccurateRip database
Copy OK

Track 16

Filename K:\Music\Self-Ripped\Jerry Garcia - Before The Dead (2018) [CD-FLAC]\CD4\16 - Jerry Garcia, G. Levin, D. Nelson, S. Rothman - Black Mountain Boys - Stoney Creek (Jesse McReynolds, Jim McReynolds).wav

Peak level 87.8 %
Extraction speed 6.0 X
Track quality 100.0 %
Test CRC 6D6FAEF0
Copy CRC 6D6FAEF0
Track not present in AccurateRip database
Copy OK

Track 17

Filename K:\Music\Self-Ripped\Jerry Garcia - Before The Dead (2018) [CD-FLAC]\CD4\17 - Jerry Garcia, G. Levin, D. Nelson, S. Rothman - Black Mountain Boys - Salty Dog Blues (Zeke Morris, Wiley Morris).wav

Peak level 88.3 %
Extraction speed 6.2 X
Track quality 100.0 %
Test CRC E082298D
Copy CRC E082298D
Track not present in AccurateRip database
Copy OK

Track 18

Filename K:\Music\Self-Ripped\Jerry Garcia - Before The Dead (2018) [CD-FLAC]\CD4\18 - Jerry Garcia, G. Levin, D. Nelson, S. Rothman - Black Mountain Boys - Love Please Come Home (Leon Jackson).wav

Peak level 88.3 %
Extraction speed 6.1 X
Track quality 100.0 %
Test CRC EBEE13B6
Copy CRC EBEE13B6
Track not present in AccurateRip database
Copy OK

Track 19

Filename K:\Music\Self-Ripped\Jerry Garcia - Before The Dead (2018) [CD-FLAC]\CD4\19 - Jerry Garcia, G. Levin, D. Nelson, S. Rothman - Black Mountain Boys - Make Me A Pallet On The Floor (Traditional).wav

Peak level 88.3 %
Extraction speed 6.4 X
Track quality 100.0 %
Test CRC 2B6716E0
Copy CRC 2B6716E0
Track not present in AccurateRip database
Copy OK

Track 20

Filename K:\Music\Self-Ripped\Jerry Garcia - Before The Dead (2018) [CD-FLAC]\CD4\20 - Jerry Garcia, G. Levin, D. Nelson, S. Rothman - Black Mountain Boys - Darlin' Allalee (Traditional).wav

Peak level 88.3 %
Extraction speed 4.8 X
Track quality 99.9 %
Test CRC 73BA1F51
Copy CRC 73BA1F51
Track not present in AccurateRip database
Copy OK

Track 21

Filename K:\Music\Self-Ripped\Jerry Garcia - Before The Dead (2018) [CD-FLAC]\CD4\21 - Jerry Garcia, G. Levin, D. Nelson, S. Rothman - Black Mountain Boys - In The Pines (Slim Bryant, Jimmie Davis, Clayton McMichen).wav

Peak level 79.2 %
Extraction speed 6.7 X
Track quality 100.0 %
Test CRC 869E2A66
Copy CRC 869E2A66
Track not present in AccurateRip database
Copy OK

Track 22

Filename K:\Music\Self-Ripped\Jerry Garcia - Before The Dead (2018) [CD-FLAC]\CD4\22 - Jerry Garcia, G. Levin, D. Nelson, S. Rothman - Black Mountain Boys - Raw Hide (Bill Monroe).wav

Peak level 76.9 %
Extraction speed 5.2 X
Track quality 99.9 %
Test CRC D5B295E3
Copy CRC D5B295E3
Track not present in AccurateRip database
Copy OK

Track 23

Filename K:\Music\Self-Ripped\Jerry Garcia - Before The Dead (2018) [CD-FLAC]\CD4\23 - Jerry Garcia, G. Levin, D. Nelson, S. Rothman - Black Mountain Boys - Black Mountain Rag (Traditional).wav

Peak level 77.6 %
Extraction speed 6.8 X
Track quality 100.0 %
Test CRC 9EB00451
Copy CRC 9EB00451
Track not present in AccurateRip database
Copy OK

Track 24

Filename K:\Music\Self-Ripped\Jerry Garcia - Before The Dead (2018) [CD-FLAC]\CD4\24 - Jerry Garcia, G. Levin, D. Nelson, S. Rothman - Black Mountain Boys - True Life Blues (Bill Monroe).wav

Peak level 76.4 %
Extraction speed 6.8 X
Track quality 100.0 %
Test CRC 11BB0D79
Copy CRC 11BB0D79
Track not present in AccurateRip database
Copy OK

Track 25

Filename K:\Music\Self-Ripped\Jerry Garcia - Before The Dead (2018) [CD-FLAC]\CD4\25 - Jerry Garcia, G. Levin, D. Nelson, S. Rothman - Black Mountain Boys - Medley - Devil's Dream - Sailor's Hornpipe (Traditional).wav

Peak level 76.8 %
Extraction speed 6.6 X
Track quality 100.0 %
Test CRC BF3586B6
Copy CRC BF3586B6
Track not present in AccurateRip database
Copy OK

Track 26

Filename K:\Music\Self-Ripped\Jerry Garcia - Before The Dead (2018) [CD-FLAC]\CD4\26 - Jerry Garcia, David Nelson, Sandy Rothman - Black Mountain Boys - Drink Up And Go Home (Freddie Hart).wav

Peak level 72.2 %
Extraction speed 7.0 X
Track quality 100.0 %
Test CRC 099CCAC4
Copy CRC 099CCAC4
Track not present in AccurateRip database
Copy OK

Track 27

Filename K:\Music\Self-Ripped\Jerry Garcia - Before The Dead (2018) [CD-FLAC]\CD4\27 - Jerry Garcia, H. Pedersen, J. Stecher, E. Thompson, B. Waller - Asphalt Jungle Mountain Boys - These Men Of God (R. Ellis, P. Williams, J. Williams).wav

Peak level 69.0 %
Extraction speed 7.7 X
Track quality 100.0 %
Test CRC 12098127
Copy CRC 12098127
Track not present in AccurateRip database
Copy OK

Track 28

Filename K:\Music\Self-Ripped\Jerry Garcia - Before The Dead (2018) [CD-FLAC]\CD4\28 - Jerry Garcia, H. Pedersen, J. Stecher, E. Thompson, B. Waller - Asphalt Jungle Mountain Boys - Roll On Buddy (Traditional).wav

Peak level 77.1 %
Extraction speed 7.0 X
Track quality 100.0 %
Test CRC 438E8E82
Copy CRC 438E8E82
Track not present in AccurateRip database
Copy OK

Track 29

Filename K:\Music\Self-Ripped\Jerry Garcia - Before The Dead (2018) [CD-FLAC]\CD4\29 - Jerry Garcia, H. Pedersen, J. Stecher, E. Thompson, B. Waller - Asphalt Jungle Mountain Boys - Goodbye Old Pal (Bill Monroe).wav

Peak level 94.0 %
Extraction speed 6.7 X
Track quality 100.0 %
Test CRC 6AD777FF
Copy CRC 6AD777FF
Track not present in AccurateRip database
Copy OK

Track 30

Filename K:\Music\Self-Ripped\Jerry Garcia - Before The Dead (2018) [CD-FLAC]\CD4\30 - Jerry Garcia, H. Pedersen, J. Stecher, E. Thompson, B. Waller - Asphalt Jungle Mountain Boys - Back Up And Push (Traditional).wav

Peak level 96.4 %
Extraction speed 3.6 X
Track quality 100.0 %
Test CRC EACCF0CB
Copy CRC EACCF0CB
Track not present in AccurateRip database
Copy OK


None of the tracks are present in the AccurateRip database

No errors occurred

End of status report

–– CUETools DB Plugin V2.1.6

[CTDB TOCID: kp9fApS1pGlEOegyrfpvBHB.88U-] found
Submit result: kp9fApS1pGlEOegyrfpvBHB.88U- has been confirmed
Track | CTDB Status
1 | (11/11) Accurately ripped
2 | (11/11) Accurately ripped
3 | (11/11) Accurately ripped
4 | (11/11) Accurately ripped
5 | (11/11) Accurately ripped
6 | (11/11) Accurately ripped
7 | (11/11) Accurately ripped
8 | (11/11) Accurately ripped
9 | (11/11) Accurately ripped
10 | (11/11) Accurately ripped
11 | (11/11) Accurately ripped
12 | (11/11) Accurately ripped
13 | (11/11) Accurately ripped
14 | (11/11) Accurately ripped
15 | (11/11) Accurately ripped
16 | (11/11) Accurately ripped
17 | (11/11) Accurately ripped
18 | (11/11) Accurately ripped
19 | (11/11) Accurately ripped
20 | (11/11) Accurately ripped
21 | (11/11) Accurately ripped
22 | (11/11) Accurately ripped
23 | (11/11) Accurately ripped
24 | (11/11) Accurately ripped
25 | (11/11) Accurately ripped
26 | (11/11) Accurately ripped
27 | (11/11) Accurately ripped
28 | (11/11) Accurately ripped
29 | (11/11) Accurately ripped
30 | (11/11) Accurately ripped


==== Log checksum DE37540B28DA27960F1D0E17F8E3608CFC74DB890C0059350D7462C007DC7C76 ====


Jerry Garcia - Before the Dead (2018)


Thanks to the Original customer.