Tags
Language
Tags

Bernard Herrmann - Vertigo: Original Motion Picture Soundtrack (1958) Remastered 1996

Posted By: Efgrapha
Bernard Herrmann - Vertigo: Original Motion Picture Soundtrack (1958) Remastered 1996

Bernard Herrmann - Vertigo: Original Motion Picture Soundtrack (1958) Remastered 1996
EAC | FLAC (Tracks) + cue.+log ~ 279 Mb | Mp3, CBR320 kbps ~ 151 Mb | Scans included
Soundtrack, Score | Label: Varèse Sarabande | # VSD-5759 | 01:05:02

Vertigo represents the summit of the seven-picture, nine-year association between Alfred Hitchcock and legendary composer Bernard Herrmann. Using instrumental and harmonic colour as the main paints in his repertoire, Herrmann deploys brief melodic cells and minimalist techniques to explore the obsessed world of Scotty Ferguson (James Stewart), a retired detective who has fallen in love with a woman from the past. In doing so, Herrmann broke from the post-romantic aesthetic personified by Golden Age masters such as Erich Wolfgang Korngold and Alfred Newman. Highlights include the hypnotic, dream-like "Prelude", the churning allegro con brio of "Rooftop", the haunting love music in "Madeleine's First Appearance", a memorable habanera ("Carlotta's Portrait"), and the cathartic "Scene d'Amour", which has been compared with Wagner's "Liebestod" from Tristan und Isolde. Page Cook, long-time critic for Films In Review, once wrote that Muir Mathieson's performance "remains one of the greatest pieces of film music conducting ever recorded . . . every tempo, every rhythmic nuance, every dynamic inhabits the film." In other words, this is a classic film/music amalgamation that should be in every cinema lover's collection.

Kevin Mulhall, Amazon.co.uk Editorial Review

Herrmann develops longer melodies but employs his same variation and "cell" techniques in this score, one of his finest, played here by the Sinfonia of London and conducted by Muir Mathieson. The 1958 film opens on high energy drama, with a propulsive polytonal arpeggio (E flat minor over D minor) in triplets, one of the central motifs throughout (and recalling the opening of The Day The Earth Stood Still). As an amusing touch, when the credit "Directed by Alfred Hitchcock" appears, we hear a low, rotund D note on the tuba. The Rooftop cue opens with James Stewart, as plainclothes detective Scottie Ferguson, chasing a suspect across San Francisco rooftops. He slips, hangs onto a rain gutter, and we hear a wash of harp glissandos each time he looks at the distant ground (the "vertigo" cell). A lovely melody accompanies Scottie's first sight of Madeline, whom he is hired to tail. A soft pulse on a harp D note and quiet tango rhythm accompany Scottie's realization of how a portrait of Carlotta Valdes closely resembles Madeline. In the Farewell cue, the two drive to a Spanish mission that appears in Madeline's strange dream and we hear a mix of her theme, the Prelude and the Habeñera. In The Tower cue, stabs from the brass and winds are mixed with rushing arpeggios and harp glissandos. Through a window, Scottie sees Madeline appear to fall to her death. The Nightmare is a more abstracted version of the Habeñera. Upon The Return to the mission, the "vertigo" glissandos are heard interspersed with polytonal chords in the brass, and, in the Finale, poetic justice occurs to concluding brass chords as Scottie stares at his dead love on the ground below.

"Blue" Gene Tyranny, All Music Guide

Bernard Herrmann - Vertigo: Original Motion Picture Soundtrack (1958) Remastered 1996


~ Bernard Herrmann at Allmusic
~ Bernard Herrmann at Wiki

~ Film at IMDB
~ Film at Wiki

Tracklist:

01. Prelude And Rooftop (4:44)
02. Scotty Tails Madeleine (6:19)
03. Carlotta's Portrait (1:57)
04. The Bay (2:59)
05. By The Fireside (2:56)
06. The Streets (2:25)
07. The Forest (3:48)
08. The Beach (3:31)
09. The Dream (2:46)
10. Farewell - The Tower (6:58)
11. The Nightmare - Dawn (3:33)
12. The Past - The Girl (3:14)
13. The Letter (4:16)
14. Goodnight - The Park (3:07)
15. Scene D'Amour (5:08)
16. The Necklace - The Return - Finale (7:20)


Exact Audio Copy V0.99 prebeta 4 from 23. January 2008

EAC extraction logfile from 19. March 2009, 23:07

Bernard Herrmann / Vertigo

Used drive : TSSTcorpDVD-ROM TS-H352C Adapter: 1 ID: 1

Read mode : Secure
Utilize accurate stream : Yes
Defeat audio cache : Yes
Make use of C2 pointers : No

Read offset correction : 6
Overread into Lead-In and Lead-Out : No
Fill up missing offset samples with silence : Yes
Delete leading and trailing silent blocks : No
Null samples used in CRC calculations : Yes
Used interface : Installed external ASPI interface
Gap handling : Appended to previous track

Used output format : User Defined Encoder
Selected bitrate : 192 kBit/s
Quality : High
Add ID3 tag : No
Command line compressor : C:\Program Files\FLAC\flac.exe
Additional command line options : -8 -A tukey(0.25) -A gauss(0.1875) -b 4096 -V -T "artist=%a" -T "title=%t" -T "album=%g" -T "date=%y" -T "tracknumber=%n" -T "genre=%m" %s –sector-align


TOC of the extracted CD

Track | Start | Length | Start sector | End sector
––––––––––––––––––––––––––––-
1 | 0:00.00 | 4:43.45 | 0 | 21269
2 | 4:43.45 | 6:19.00 | 21270 | 49694
3 | 11:02.45 | 1:57.13 | 49695 | 58482
4 | 12:59.58 | 2:59.00 | 58483 | 71907
5 | 15:58.58 | 2:55.45 | 71908 | 85077
6 | 18:54.28 | 2:25.25 | 85078 | 95977
7 | 21:19.53 | 3:48.05 | 95978 | 113082
8 | 25:07.58 | 3:30.70 | 113083 | 128902
9 | 28:38.53 | 2:46.12 | 128903 | 141364
10 | 31:24.65 | 6:57.45 | 141365 | 172684
11 | 38:22.35 | 3:33.03 | 172685 | 188662
12 | 41:55.38 | 3:14.22 | 188663 | 203234
13 | 45:09.60 | 4:16.33 | 203235 | 222467
14 | 49:26.18 | 3:06.65 | 222468 | 236482
15 | 52:33.08 | 5:08.15 | 236483 | 259597
16 | 57:41.23 | 7:20.15 | 259598 | 292612


Track 1

Filename N:\Music\Vertigo (1958, FLAC) - Bernard Herrmann\01 - Prelude And Rooftop.wav

Pre-gap length 0:00:02.00

Peak level 88.1 %
Track quality 99.9 %
Test CRC 0379024F
Copy CRC 0379024F
Copy OK

Track 2

Filename N:\Music\Vertigo (1958, FLAC) - Bernard Herrmann\02 - Scotty Tails Madeleine.wav

Pre-gap length 0:00:03.76

Peak level 67.9 %
Track quality 100.0 %
Test CRC 2C5CA862
Copy CRC 2C5CA862
Copy OK

Track 3

Filename N:\Music\Vertigo (1958, FLAC) - Bernard Herrmann\03 - Carlotta's Portrait.wav

Pre-gap length 0:00:03.42

Peak level 19.5 %
Track quality 100.0 %
Test CRC A9535DEA
Copy CRC A9535DEA
Copy OK

Track 4

Filename N:\Music\Vertigo (1958, FLAC) - Bernard Herrmann\04 - The Bay.wav

Pre-gap length 0:00:01.10

Peak level 92.8 %
Track quality 99.9 %
Test CRC E8119486
Copy CRC E8119486
Copy OK

Track 5

Filename N:\Music\Vertigo (1958, FLAC) - Bernard Herrmann\05 - By The Fireside.wav

Pre-gap length 0:00:02.06

Peak level 58.0 %
Track quality 100.0 %
Test CRC A74CFC6E
Copy CRC A74CFC6E
Copy OK

Track 6

Filename N:\Music\Vertigo (1958, FLAC) - Bernard Herrmann\06 - The Streets.wav

Pre-gap length 0:00:01.77

Peak level 85.9 %
Track quality 100.0 %
Test CRC 7153F12C
Copy CRC 7153F12C
Copy OK

Track 7

Filename N:\Music\Vertigo (1958, FLAC) - Bernard Herrmann\07 - The Forest.wav

Pre-gap length 0:00:02.06

Peak level 43.3 %
Track quality 100.0 %
Test CRC 54FACFED
Copy CRC 54FACFED
Copy OK

Track 8

Filename N:\Music\Vertigo (1958, FLAC) - Bernard Herrmann\08 - The Beach.wav

Pre-gap length 0:00:03.04

Peak level 91.2 %
Track quality 100.0 %
Test CRC 5A99B9DA
Copy CRC 5A99B9DA
Copy OK

Track 9

Filename N:\Music\Vertigo (1958, FLAC) - Bernard Herrmann\09 - The Dream.wav

Pre-gap length 0:00:03.77

Peak level 56.8 %
Track quality 100.0 %
Test CRC 7A584F34
Copy CRC 7A584F34
Copy OK

Track 10

Filename N:\Music\Vertigo (1958, FLAC) - Bernard Herrmann\10 - Farewell - The Tower.wav

Pre-gap length 0:00:02.69

Peak level 80.0 %
Track quality 100.0 %
Test CRC 6E047B3F
Copy CRC 6E047B3F
Copy OK

Track 11

Filename N:\Music\Vertigo (1958, FLAC) - Bernard Herrmann\11 - The Nightmare - Dawn.wav

Pre-gap length 0:00:02.82

Peak level 92.8 %
Track quality 100.0 %
Test CRC 12A0C2F6
Copy CRC 12A0C2F6
Copy OK

Track 12

Filename N:\Music\Vertigo (1958, FLAC) - Bernard Herrmann\12 - The Past - The Girl.wav

Pre-gap length 0:00:02.17

Peak level 72.2 %
Track quality 100.0 %
Test CRC DB803174
Copy CRC DB803174
Copy OK

Track 13

Filename N:\Music\Vertigo (1958, FLAC) - Bernard Herrmann\13 - The Letter.wav

Pre-gap length 0:00:02.22

Peak level 67.9 %
Track quality 100.0 %
Test CRC C32E8CB1
Copy CRC C32E8CB1
Copy OK

Track 14

Filename N:\Music\Vertigo (1958, FLAC) - Bernard Herrmann\14 - Goodnight - The Park.wav

Pre-gap length 0:00:02.60

Peak level 73.9 %
Track quality 100.0 %
Test CRC 7ACDA4B1
Copy CRC 7ACDA4B1
Copy OK

Track 15

Filename N:\Music\Vertigo (1958, FLAC) - Bernard Herrmann\15 - Scene D'Amour.wav

Pre-gap length 0:00:03.65

Peak level 87.9 %
Track quality 100.0 %
Test CRC DF9792AA
Copy CRC DF9792AA
Copy OK

Track 16

Filename N:\Music\Vertigo (1958, FLAC) - Bernard Herrmann\16 - The Necklace - The Return - Finale.wav

Pre-gap length 0:00:03.37

Peak level 94.3 %
Track quality 100.0 %
Test CRC E7854504
Copy CRC E7854504
Copy OK

No errors occurred

End of status report

[CUETools log; Date: 29.07.2018 18:47:12; Version: 2.1.4]
[CTDB TOCID: XvlLuCuucF2wcFI4EBOcfQ0uj7w-] found.
Track | CTDB Status
1 | (46/46) Accurately ripped
2 | (46/46) Accurately ripped
3 | (46/46) Accurately ripped
4 | (44/46) Accurately ripped
5 | (46/46) Accurately ripped
6 | (27/46) Accurately ripped, or (16/46) differs in 1 samples @02:20:01
7 | (46/46) Accurately ripped
8 | (26/46) Accurately ripped, or (16/46) differs in 19 samples @02:26:21,02:26:35-02:26:37,02:27:16,02:29:09,02:29:17,02:29:49,02:29:73,02:30:09,02:31:46,02:31:68,02:32:60,02:32:70,02:35:14,02:36:45,02:36:54,02:37:04-02:37:06
9 | (46/46) Accurately ripped
10 | (27/46) Accurately ripped, or (16/46) differs in 7 samples @02:55:01,02:55:29,02:56:43-02:56:47,02:56:69
11 | (45/46) Accurately ripped
12 | (27/46) Accurately ripped, or (16/46) differs in 4 samples @03:11:70
13 | (45/46) Accurately ripped
14 | (46/46) Accurately ripped
15 | (26/46) Accurately ripped, or (16/46) differs in 18 samples @03:03:10,03:04:08-03:04:09,03:04:16,03:04:24,03:04:42-03:04:43,03:04:59,03:04:70,03:05:22,03:05:34-03:05:36,03:05:48-03:05:50,03:05:68,03:06:01
16 | (46/46) Accurately ripped
[AccurateRip ID: 0023ba84-01abdfe1-e10f3d10] found.
Track [ CRC | V2 ] Status
01 [48a4be08|5c8747c5] (19+16/51) Accurately ripped
02 [c6c08939|49615763] (18+17/51) Accurately ripped
03 [f5a76d73|10428642] (19+17/52) Accurately ripped
04 [8b144f03|8a8f0a43] (18+17/51) Accurately ripped
05 [70b81e85|770bd0ee] (18+17/51) Accurately ripped
06 [97c3de90|71321a7a] (20+17/53) Accurately ripped
07 [8d28fce8|2de8ffa3] (19+17/52) Accurately ripped
08 [4bd624b5|e8926c26] (19+18/53) Accurately ripped
09 [ebfa062c|50679e98] (18+17/51) Accurately ripped
10 [a74c4a55|bad204e4] (18+16/50) Accurately ripped
11 [d8d1e61e|2813988d] (18+17/51) Accurately ripped
12 [91d7c795|2f51a5d1] (19+17/52) Accurately ripped
13 [dcdd64b9|6edb960e] (18+17/51) Accurately ripped
14 [b8434bf9|a31a9ca6] (19+17/52) Accurately ripped
15 [3abf83c0|e1e575d8] (18+17/51) Accurately ripped
16 [92101477|ed0cbef1] (18+16/49) Accurately ripped
Offsetted by 222:
01 [35768dfa] (02/51) Accurately ripped
02 [66da31d7] (02/51) Accurately ripped
03 [09439e2d] (02/52) Accurately ripped
04 [3f370d25] (02/51) Accurately ripped
05 [e6ef7d01] (02/51) Accurately ripped
06 [3e9b2b38] (02/53) Accurately ripped
07 [4eb03b42] (02/52) Accurately ripped
08 [e439c951] (02/53) Accurately ripped
09 [21fcb5b0] (02/51) Accurately ripped
10 [59719d6d] (02/50) Accurately ripped
11 [1363cd30] (02/51) Accurately ripped
12 [26be5d21] (02/52) Accurately ripped
13 [7b09600b] (02/51) Accurately ripped
14 [af9349d5] (02/52) Accurately ripped
15 [1aa7863e] (02/51) Accurately ripped
16 [8aa8d25b] (00/49) No match (V2 was not tested)
Offsetted by 1353:
01 [3b87c997] (07/51) Accurately ripped
02 [19f521a2] (07/51) Accurately ripped
03 [517e7abe] (07/52) Accurately ripped
04 [1d95063a] (07/51) Accurately ripped
05 [c13315b7] (07/51) Accurately ripped
06 [4b677ddc] (00/53) No match (V2 was not tested)
07 [f4bea5e3] (07/52) Accurately ripped
08 [e2356d57] (00/53) No match (V2 was not tested)
09 [7a567ffa] (07/51) Accurately ripped
10 [6190a229] (00/50) No match (V2 was not tested)
11 [63d57e9d] (07/51) Accurately ripped
12 [ca4e2d7f] (00/52) No match (V2 was not tested)
13 [9d65fc18] (07/51) Accurately ripped
14 [67a3e4fb] (07/52) Accurately ripped
15 [1648fab9] (00/51) No match (V2 was not tested)
16 [11ea5495] (07/49) Accurately ripped

Track Peak [ CRC32 ] [W/O NULL] [ LOG ]
– 94,3 [F53D0FBB] [C90BA4EE]
01 88,1 [0379024F] [2B334166] CRC32
02 67,9 [2C5CA862] [C577181C] CRC32
03 19,5 [A9535DEA] [8CC2BA97] CRC32
04 92,8 [E8119486] [A101BCA1] CRC32
05 58,0 [A74CFC6E] [7C4B4D1E] CRC32
06 85,9 [7153F12C] [7C5716E7] CRC32
07 43,3 [54FACFED] [2FA68EFA] CRC32
08 91,2 [5A99B9DA] [4E8A8A86] CRC32
09 56,8 [7A584F34] [6B11623A] CRC32
10 80,0 [6E047B3F] [07828725] CRC32
11 92,8 [12A0C2F6] [E4DBF16F] CRC32
12 72,2 [DB803174] [45D34759] CRC32
13 67,9 [C32E8CB1] [A5AA4402] CRC32
14 73,9 [7ACDA4B1] [814E5FCB] CRC32
15 87,9 [DF9792AA] [4BE17FC1] CRC32
16 94,3 [E7854504] [4D7C984E] CRC32

foobar2000 1.2 / Dynamic Range Meter 1.1.1
log date: 2018-07-29 19:40:05

––––––––––––––––––––––––––––––––––––––––
Analyzed: Bernard Herrmann / Vertigo
––––––––––––––––––––––––––––––––––––––––

DR Peak RMS Duration Track
––––––––––––––––––––––––––––––––––––––––
DR9 -1.10 dB -14.28 dB 4:44 01-Prelude And Rooftop
DR13 -3.36 dB -22.63 dB 6:19 02-Scotty Tails Madeleine
DR10 -14.17 dB -27.71 dB 1:57 03-Carlotta's Portrait
DR11 -0.64 dB -18.88 dB 2:59 04-The Bay
DR11 -4.73 dB -20.13 dB 2:56 05-By The Fireside
DR11 -1.31 dB -19.26 dB 2:25 06-The Streets
DR12 -7.25 dB -27.17 dB 3:48 07-The Forest
DR11 -0.80 dB -18.34 dB 3:31 08-The Beach
DR11 -4.91 dB -21.52 dB 2:46 09-The Dream
DR11 -1.93 dB -18.23 dB 6:58 10-Farewell - The Tower
DR13 -0.64 dB -20.29 dB 3:33 11-The Nightmare - Dawn
DR11 -2.83 dB -20.45 dB 3:14 12-The Past - The Girl
DR13 -3.36 dB -21.97 dB 4:16 13-The Letter
DR11 -2.62 dB -19.33 dB 3:07 14-Goodnight - The Park
DR9 -1.12 dB -16.99 dB 5:08 15-Scene D'Amour
DR11 -0.51 dB -16.66 dB 7:20 16-The Necklace - The Return - Finale
––––––––––––––––––––––––––––––––––––––––

Number of tracks: 16
Official DR value: DR11

Samplerate: 44100 Hz
Channels: 2
Bits per sample: 16
Bitrate: 656 kbps
Codec: FLAC
================================================================================

Bernard Herrmann - Vertigo: Original Motion Picture Soundtrack (1958) Remastered 1996

Bernard Herrmann - Vertigo: Original Motion Picture Soundtrack (1958) Remastered 1996

All thanks to original uploader

More Movies & Soundtracks in Efgrapha Blog