Tags
Language
Tags
July 2024
Su Mo Tu We Th Fr Sa
30 1 2 3 4 5 6
7 8 9 10 11 12 13
14 15 16 17 18 19 20
21 22 23 24 25 26 27
28 29 30 31 1 2 3

VA - Best of Southern Rock: Extended Versions (2002)

Posted By: Rtax
VA - Best of Southern Rock: Extended Versions (2002)

VA - Best of Southern Rock: Extended Versions (2002)
EAC Rip | FLAC (tracks, cue, log) - 365 MB
49:49 | Southern Rock | Label: BMG

To call this compilation Best of Southern Rock is a bit of a misnomer, because it really isn't. The performances selected here aren't exactly the highest of quality, to say nothing of the heinous omission of the Allman Brothers from this elite group of Southern rockers. Recorded live over a five-year span from 1996-2001, it features some of the most respected and iconic figures of Southern rock performing some of their greatest songs. Appropriately starting off with Lynyrd Skynyrd's classic "Sweet Home Alabama," the compilation wastes no time in getting down to business, taking cuts from .38 Special, Van Zant, the Fabulous Thunderbirds, and the always hard rockin' gurus Molly Hatchet. While the inclusion of some songs over others may leave die-hard fans scratching their heads and inquiring where the big hits are, this economically sensible compilation is a nice showcase of the genre's finest bands, and serves as a nice stepping stone into a style of rock sorely undervalued in the rock & roll catalog.

Tracklist
1. Lynyrd Skynyrd – Sweet Home Alabama
2. 38 Special – Hold On Loosely
3. Van Zant – Get What You Got Comin'
4. The Fabulous Thunderbirds – Tuff Enuff
5. Molly Hatchet – Mississippi Moon Dog
6. Lynyrd Skynyrd – Saturday Night Special
7. 38 Special – Back Where You Belong
8. Atlanta Rhythm Section – Champagne Jam
9. Molly Hatchet – Why Won't You Take Me Home
10. Van Zant – Rage
Exact Audio Copy V1.6 from 23. October 2020

EAC extraction logfile from 24. November 2020, 16:34

Various Artists / Best Of Southern Rock: Extended Versions

Used drive : hp HLDS DVDRW GUD1N Adapter: 1 ID: 1

Read mode : Secure
Utilize accurate stream : Yes
Defeat audio cache : Yes
Make use of C2 pointers : No

Read offset correction : 6
Overread into Lead-In and Lead-Out : No
Fill up missing offset samples with silence : Yes
Delete leading and trailing silent blocks : No
Null samples used in CRC calculations : Yes
Used interface : Native Win32 interface for Win NT & 2000
Gap handling : Appended to previous track

Used output format : User Defined Encoder
Selected bitrate : 1024 kBit/s
Quality : High
Add ID3 tag : No
Command line compressor : C:\Program Files (x86)\Exact Audio Copy\FLAC\FLAC.EXE
Additional command line options : -8 -V -T "ARTIST=%artist%" -T "TITLE=%title%" -T "ALBUM=%albumtitle%" -T "DATE=%year%" -T "TRACKNUMBER=%tracknr%" -T "GENRE=%genre%" -T "PERFORMER=%albuminterpret%" -T "COMPOSER=%composer%" %haslyrics%–tag-from-file=LYRICS="%lyricsfile%"%haslyrics% -T "ALBUMARTIST=%albumartist%" -T "DISCNUMBER=%cdnumber%" -T "TOTALDISCS=%totalcds%" -T "TOTALTRACKS=%numtracks%" -T "COMMENT=%comment%" %source% -o %dest%


TOC of the extracted CD

Track | Start | Length | Start sector | End sector
––––––––––––––––––––––––––––-
1 | 0:00.00 | 7:47.65 | 0 | 35089
2 | 7:47.65 | 5:03.17 | 35090 | 57831
3 | 12:51.07 | 4:15.73 | 57832 | 77029
4 | 17:07.05 | 5:46.72 | 77030 | 103051
5 | 22:54.02 | 3:48.03 | 103052 | 120154
6 | 26:42.05 | 5:35.25 | 120155 | 145304
7 | 32:17.30 | 4:31.20 | 145305 | 165649
8 | 36:48.50 | 4:53.20 | 165650 | 187644
9 | 41:41.70 | 3:23.42 | 187645 | 202911
10 | 45:05.37 | 4:44.10 | 202912 | 224221


Track 1

Filename C:\CD Rips\VA - Best Of Southern Rock-Extended Versions (2002) [FLAC] {75517468662}\01 - Lynyrd Skynyrd - Sweet Home Alabama.wav

Pre-gap length 0:00:02.00

Peak level 100.0 %
Extraction speed 1.2 X
Track quality 100.0 %
Test CRC 4C1623F4
Copy CRC 4C1623F4
Accurately ripped (confidence 2) [4CEF3153] (AR v2)
Copy OK

Track 2

Filename C:\CD Rips\VA - Best Of Southern Rock-Extended Versions (2002) [FLAC] {75517468662}\02 - 38 Special - Hold On Loosely.wav

Pre-gap length 0:00:15.93

Peak level 100.0 %
Extraction speed 1.4 X
Track quality 100.0 %
Test CRC 55ECD8DF
Copy CRC 55ECD8DF
Accurately ripped (confidence 2) [87EBD37E] (AR v2)
Copy OK

Track 3

Filename C:\CD Rips\VA - Best Of Southern Rock-Extended Versions (2002) [FLAC] {75517468662}\03 - Van Zant - Get What You Got Comin'.wav

Pre-gap length 0:00:01.96

Peak level 100.0 %
Extraction speed 1.3 X
Track quality 99.9 %
Test CRC 23A0ADFA
Copy CRC 23A0ADFA
Accurately ripped (confidence 2) [C25BB4F7] (AR v2)
Copy OK

Track 4

Filename C:\CD Rips\VA - Best Of Southern Rock-Extended Versions (2002) [FLAC] {75517468662}\04 - The Fabulous Thunderbirds - Tuff Enuff.wav

Pre-gap length 0:00:01.13

Peak level 92.2 %
Extraction speed 1.6 X
Track quality 100.0 %
Test CRC 9CC1AD4F
Copy CRC 9CC1AD4F
Accurately ripped (confidence 2) [9999ADFF] (AR v2)
Copy OK

Track 5

Filename C:\CD Rips\VA - Best Of Southern Rock-Extended Versions (2002) [FLAC] {75517468662}\05 - Molly Hatchet - Mississippi Moon Dog.wav

Pre-gap length 0:00:02.00

Peak level 94.1 %
Extraction speed 1.5 X
Track quality 99.9 %
Test CRC 73C293F8
Copy CRC 73C293F8
Accurately ripped (confidence 2) [21CAB23B] (AR v2)
Copy OK

Track 6

Filename C:\CD Rips\VA - Best Of Southern Rock-Extended Versions (2002) [FLAC] {75517468662}\06 - Lynyrd Skynyrd - Saturday Night Special.wav

Pre-gap length 0:00:01.10

Peak level 94.4 %
Extraction speed 1.7 X
Track quality 99.9 %
Test CRC FC061CBD
Copy CRC FC061CBD
Accurately ripped (confidence 2) [11586149] (AR v2)
Copy OK

Track 7

Filename C:\CD Rips\VA - Best Of Southern Rock-Extended Versions (2002) [FLAC] {75517468662}\07 - 38 Special - Back Where You Belong.wav

Pre-gap length 0:00:03.17

Peak level 94.2 %
Extraction speed 1.7 X
Track quality 99.9 %
Test CRC 7F0D2A8A
Copy CRC 7F0D2A8A
Accurately ripped (confidence 2) [E2C3DDD1] (AR v2)
Copy OK

Track 8

Filename C:\CD Rips\VA - Best Of Southern Rock-Extended Versions (2002) [FLAC] {75517468662}\08 - Atlanta Rhythm Section - Champagne Jam.wav

Pre-gap length 0:00:01.46

Peak level 99.9 %
Extraction speed 2.0 X
Track quality 100.0 %
Test CRC 022E0525
Copy CRC 022E0525
Accurately ripped (confidence 2) [EEEA1223] (AR v2)
Copy OK

Track 9

Filename C:\CD Rips\VA - Best Of Southern Rock-Extended Versions (2002) [FLAC] {75517468662}\09 - Molly Hatchet - Why Won't You Take Me Home.wav

Pre-gap length 0:00:01.26

Peak level 99.9 %
Extraction speed 2.0 X
Track quality 100.0 %
Test CRC EEBD70EC
Copy CRC EEBD70EC
Accurately ripped (confidence 2) [5AFE40CF] (AR v2)
Copy OK

Track 10

Filename C:\CD Rips\VA - Best Of Southern Rock-Extended Versions (2002) [FLAC] {75517468662}\10 - Van Zant - Rage.wav

Pre-gap length 0:00:01.89

Peak level 95.5 %
Extraction speed 2.2 X
Track quality 100.0 %
Test CRC D611554D
Copy CRC D611554D
Accurately ripped (confidence 2) [21513A8B] (AR v2)
Copy OK


All tracks accurately ripped

No errors occurred

End of status report

–– CUETools DB Plugin V2.1.6

[CTDB TOCID: fy.zpKScBC_PP5hSg_jmi.5Y4LE-] found
Submit result: fy.zpKScBC_PP5hSg_jmi.5Y4LE- has been confirmed
Track | CTDB Status
1 | (11/11) Accurately ripped
2 | (11/11) Accurately ripped
3 | (11/11) Accurately ripped
4 | (11/11) Accurately ripped
5 | (11/11) Accurately ripped
6 | (11/11) Accurately ripped
7 | (11/11) Accurately ripped
8 | (11/11) Accurately ripped
9 | (11/11) Accurately ripped
10 | (11/11) Accurately ripped


==== Log checksum BF6F62D0AC6FF6806D735DB7323AFC65443D063C10AE10BE4232B5B3182AF7A5 ====