Subcategories

Billy Boy Arnold - Ten Million Dollars (1984) {1995, Reissue}

Posted By: popsakov
Billy Boy Arnold - Ten Million Dollars (1984) {1995, Reissue}

Billy Boy Arnold - Ten Million Dollars (1984) {1995, Reissue}
EAC Rip | FLAC (Tracks) + Cue + m3u + Log ~ 313 Mb | MP3 CBR320 ~ 131 Mb
Full Scans | 00:47:42 | RAR 5% Recovery
Harmonica Blues, Modern Electric Blues, Chicago Blues | Evidence Music #ECD 26061-2

Recording opportunities were scarce for Arnold stateside in 1984. But over in France, Black & Blue welcomed the harpist into their studios to cut this set, backed by guitarist Jimmy Johnson's professional outfit. Only a handful of originals here; the set is predominated by hoary standards such as "My Babe," "Just a Little Bit," "Last Night," and "I Done Got Over It" (but at least they're played with a bit more panache than usual).

~ Bill Dahl, All Music

***************

Billy Boy Arnold - Ten Million Dollars (1984) {1995, Reissue}

Billy Boy Arnold - Ten Million Dollars (1984) {1995, Reissue}

Track List:

01. Ten Million Dollars [7:17]
02. I Wish You Would [3:10]
03. Trust My Baby [6:36]
04. My Babe [3:12]
05. Just A Little Bit [3:42]
06. Going Home [3:50]
07. Yellow Roses From Texas (Just Love Won't Do) [4:15]
08. Last Night [7:10]
09. I Done Got Over It [4:12]
10. Sugar Momma [4:20]

Personnel:
Billy Boy Arnold - Harmonica, vocals
Jimmy Johnson - Guitar (left channel)
John "Mad Dog" Watkins - Guitar (right channel)
Saint James Bryant - Piano
Larry Exum - Bass
Fred Grady - Drums

Exact Audio Copy V1.3 from 2. September 2016

EAC extraction logfile from 2. May 2019, 21:25

Billy Boy Arnold / Ten Million Dollars

Used drive : PIONEER DVD-RW DVR-219L Adapter: 1 ID: 0

Read mode : Secure
Utilize accurate stream : Yes
Defeat audio cache : Yes
Make use of C2 pointers : No

Read offset correction : 6
Overread into Lead-In and Lead-Out : No
Fill up missing offset samples with silence : Yes
Delete leading and trailing silent blocks : No
Null samples used in CRC calculations : Yes
Used interface : Native Win32 interface for Win NT & 2000
Gap handling : Appended to previous track

Used output format : User Defined Encoder
Selected bitrate : 128 kBit/s
Quality : High
Add ID3 tag : No
Command line compressor : C:\Program Files\Exact Audio Copy\Flac\flac.exe
Additional command line options : -8 -e -p -V -T "ARTIST=%artist%" -T "TITLE=%title%" -T "ALBUM=%albumtitle%" -T "DATE=%year%" -T "TRACKNUMBER=%tracknr%" -T "GENRE=%genre%" -T "PERFORMER=%albuminterpret%" -T "COMPOSER=%composer%" %haslyrics%–tag-from-file=LYRICS="%lyricsfile%"%haslyrics% -T "ALBUMARTIST=%albumartist%" -T "DISCNUMBER=%cdnumber%" -T "TOTALDISCS=%totalcds%" -T "TOTALTRACKS=%numtracks%" -T "COMMENT=%comment%" %source% -o %dest%


TOC of the extracted CD

Track | Start | Length | Start sector | End sector
––––––––––––––––––––––––––––-
1 | 0:00.00 | 7:19.37 | 0 | 32961
2 | 7:19.37 | 3:12.60 | 32962 | 47421
3 | 10:32.22 | 6:38.13 | 47422 | 77284
4 | 17:10.35 | 3:15.37 | 77285 | 91946
5 | 20:25.72 | 3:45.18 | 91947 | 108839
6 | 24:11.15 | 3:51.07 | 108840 | 126171
7 | 28:02.22 | 4:16.23 | 126172 | 145394
8 | 32:18.45 | 7:11.22 | 145395 | 177741
9 | 39:29.67 | 4:14.20 | 177742 | 196811
10 | 43:44.12 | 4:19.63 | 196812 | 216299


Track 1

Filename E:\alexbras\1984 Billy Boy Arnold ‎– Ten Million Dollars\01. Ten Million Dollars.wav

Pre-gap length 0:00:02.00

Peak level 98.8 %
Extraction speed 1.6 X
Track quality 99.9 %
Test CRC 1C3D7A65
Copy CRC 1C3D7A65
Accurately ripped (confidence 4) [CFC591CE] (AR v1)
Copy OK

Track 2

Filename E:\alexbras\1984 Billy Boy Arnold ‎– Ten Million Dollars\02. I Wish You Would.wav

Pre-gap length 0:00:02.50

Peak level 84.4 %
Extraction speed 2.0 X
Track quality 100.0 %
Test CRC 4781DE6D
Copy CRC 4781DE6D
Accurately ripped (confidence 4) [0D1511AF] (AR v1)
Copy OK

Track 3

Filename E:\alexbras\1984 Billy Boy Arnold ‎– Ten Million Dollars\03. Trust My Baby.wav

Pre-gap length 0:00:02.35

Peak level 100.0 %
Extraction speed 2.4 X
Track quality 100.0 %
Test CRC 627A4B89
Copy CRC 627A4B89
Accurately ripped (confidence 4) [492F2ADF] (AR v1)
Copy OK

Track 4

Filename E:\alexbras\1984 Billy Boy Arnold ‎– Ten Million Dollars\04. My Babe.wav

Pre-gap length 0:00:02.48

Peak level 85.2 %
Extraction speed 2.3 X
Track quality 100.0 %
Test CRC D23CBAE0
Copy CRC D23CBAE0
Accurately ripped (confidence 4) [3108FDD1] (AR v1)
Copy OK

Track 5

Filename E:\alexbras\1984 Billy Boy Arnold ‎– Ten Million Dollars\05. Just A Little Bit.wav

Pre-gap length 0:00:03.22

Peak level 86.0 %
Extraction speed 2.5 X
Track quality 100.0 %
Test CRC 90B7DDF6
Copy CRC 90B7DDF6
Accurately ripped (confidence 4) [7F2AC8AB] (AR v1)
Copy OK

Track 6

Filename E:\alexbras\1984 Billy Boy Arnold ‎– Ten Million Dollars\06. Going Home.wav

Pre-gap length 0:00:03.00

Peak level 87.4 %
Extraction speed 2.3 X
Track quality 99.9 %
Test CRC B990F9EF
Copy CRC B990F9EF
Accurately ripped (confidence 4) [A094B713] (AR v1)
Copy OK

Track 7

Filename E:\alexbras\1984 Billy Boy Arnold ‎– Ten Million Dollars\07. Yellow Roses From Texas (Just Love Won't Do).wav

Pre-gap length 0:00:01.40

Peak level 90.2 %
Extraction speed 2.5 X
Track quality 99.9 %
Test CRC 8B0C0FF2
Copy CRC 8B0C0FF2
Accurately ripped (confidence 4) [6BAD11A9] (AR v1)
Copy OK

Track 8

Filename E:\alexbras\1984 Billy Boy Arnold ‎– Ten Million Dollars\08. Last Night.wav

Pre-gap length 0:00:01.60

Peak level 89.2 %
Extraction speed 2.9 X
Track quality 99.9 %
Test CRC 51712298
Copy CRC 51712298
Accurately ripped (confidence 4) [150C9651] (AR v1)
Copy OK

Track 9

Filename E:\alexbras\1984 Billy Boy Arnold ‎– Ten Million Dollars\09. I Done Got Over It.wav

Pre-gap length 0:00:01.42

Peak level 85.8 %
Extraction speed 2.7 X
Track quality 99.9 %
Test CRC C1DA5354
Copy CRC C1DA5354
Accurately ripped (confidence 4) [AA34ED04] (AR v1)
Copy OK

Track 10

Filename E:\alexbras\1984 Billy Boy Arnold ‎– Ten Million Dollars\10. Sugar Momma.wav

Pre-gap length 0:00:02.42

Peak level 93.6 %
Extraction speed 3.2 X
Track quality 100.0 %
Test CRC CD18D036
Copy CRC CD18D036
Accurately ripped (confidence 4) [DD461D52] (AR v1)
Copy OK


All tracks accurately ripped

No errors occurred

End of status report

==== Log checksum CC45AFCE043699A20F69AC5B91223B64FBF6FCCA2D832BB6D6F34F1FFD13CB4B ====

[CUETools log; Date: 16.11.2019 12:58:06; Version: 2.1.6]
[CTDB TOCID: 3Ev_2WZb3674fV96V6Hfk0OX5PM-] found.
Track | CTDB Status
1 | (1/1) Accurately ripped
2 | (1/1) Accurately ripped
3 | (1/1) Accurately ripped
4 | (1/1) Accurately ripped
5 | (1/1) Accurately ripped
6 | (1/1) Accurately ripped
7 | (1/1) Accurately ripped
8 | (1/1) Accurately ripped
9 | (1/1) Accurately ripped
10 | (1/1) Accurately ripped
[AccurateRip ID: 0012a10d-0092d810-750b440a] found.
Track [ CRC | V2 ] Status
01 [cfc591ce|c506d914] (4+0/4) Accurately ripped
02 [0d1511af|c7c96822] (4+0/4) Accurately ripped
03 [492f2adf|bb4181de] (4+0/4) Accurately ripped
04 [3108fdd1|11a44680] (4+0/4) Accurately ripped
05 [7f2ac8ab|8bef4b9d] (4+0/4) Accurately ripped
06 [a094b713|a85128d8] (4+0/4) Accurately ripped
07 [6bad11a9|da0a021c] (4+0/4) Accurately ripped
08 [150c9651|54f85411] (4+0/4) Accurately ripped
09 [aa34ed04|9133bd00] (4+0/4) Accurately ripped
10 [dd461d52|2882cdc3] (4+0/4) Accurately ripped

Track Peak [ CRC32 ] [W/O NULL] [ LOG ]
– 100,0 [3BEB63CB] [A2531420]
01 98,8 [1C3D7A65] [E8A2CE86] CRC32
02 84,4 [4781DE6D] [500504D1] CRC32
03 100,0 [627A4B89] [7407310B] CRC32
04 85,2 [D23CBAE0] [65EFB5AA] CRC32
05 86,0 [90B7DDF6] [18CDB116] CRC32
06 87,4 [B990F9EF] [997B997D] CRC32
07 90,2 [8B0C0FF2] [55BA860A] CRC32
08 89,2 [51712298] [11982E34] CRC32
09 85,8 [C1DA5354] [3798EB6D] CRC32
10 93,6 [CD18D036] [BA098735] CRC32

Billy Boy Arnold - Ten Million Dollars (1984) {1995, Reissue}


All thanks go to alex1248

>>> My Blog <<<

DOWNLOAD: