Subcategories

Black Sabbath - Sabbath Bloody Sabbath (1973) [23PD-125, Japan CD, 1989] Repost

Posted By: Andi_Deris
Black Sabbath - Sabbath Bloody Sabbath (1973) [23PD-125, Japan CD, 1989] Repost

Black Sabbath - Sabbath Bloody Sabbath (1973) [23PD-125, Japan CD, 1989]
EAC Rip | FLAC: Image+Cue+Log | MP3 CBR 320 kbps | Scans
273 Mb | 99 Mb | 21 Mb | Time: 42:28
Vertigo/Nippon Phonogram Co., Ltd. | 23PD-125
Heavy Metal, Proto-Prog Metal

Sabbath Bloody Sabbath is the fifth studio album by English rock band Black Sabbath, released in December 1973. With 1973's Sabbath Bloody Sabbath, heavy metal godfathers Black Sabbath made a concerted effort to prove their remaining critics wrong by raising their creative stakes and dispensing unprecedented attention to the album's production standards, arrangements, and even the cover artwork. Sabbath Bloody Sabbath was arguably Black Sabbath's fifth masterpiece in four years, and remains an essential item in any heavy metal collection.

Black Sabbath - Sabbath Bloody Sabbath (1973) [23PD-125, Japan CD, 1989] Repost




Track Listing

01. Sabbath Bloody Sabbath (05:44)
02. A National Acrobat (06:13)
03. Fluff (instrumental) (04:10)
04. Sabbra Cadabra (05:54)
05. Killing Yourself To Live (05:39)
06. Who Are You? (04:11)
07. Looking For Today (05:05)
08. Spiral Architect (05:32)

Produced by Black Sabbath

The Band

• Ozzy Osbourne - vocals (all tracks except 3), synthesizer (tracks 5 and 6), handclaps (track 7)
• Tony Iommi - guitars (all tracks), piano (tracks 3, 4, and 6), synthesizer (tracks 5 and 6), harpsichord (track 3), organ (track 7), flute (track 7), handclaps (track 7), bagpipes (track 8)
• Geezer Butler - bass guitar (all tracks), synthesizer and mellotron (track 6), handclaps (track 7), nose flute (track 8)
• Bill Ward - drums (all tracks except 3), bongos (track 1), timpani (tracks 6 and 8), handclaps (track 7)

*****
Rick Wakeman - piano and Minimoog (track 4)
• The Phantom Fiddlers - strings (track 8)

Exact Audio Copy V0.99 prebeta 4 from 23. January 2008

Отчёт EAC об извлечении, выполненном 31. января 2011, 19:37

Black Sabbath / Sabbath Bloody Sabbath (23PD-125)

Дисковод: PLEXTOR DVDR PX-760A Adapter: 0 ID: 0

Режим чтения : Достоверность
Использование точного потока : Да
Отключение кэша аудио : Да
Использование указателей C2 : Нет

Коррекция смещения при чтении : 30
Способность читать области Lead-in и Lead-out : Нет
Заполнение пропущенных сэмплов тишиной : Да
Удаление блоков с тишиной в начале и конце : Нет
При вычислениях CRC использовались нулевые сэмплы : Да
Интерфейс : Установленный внешний ASPI-интерфейс

Выходной формат : Внутренние WAV-операции
Формат сэмплов : 44.100 Гц; 16 бит; стерео


TOC извлечённого CD

Трек | Старт | Длительность | Начальный сектор | Конечный сектор
––––––––––––––––––––––––––––––––––-
1 | 0:00.37 | 5:44.08 | 37 | 25844
2 | 5:44.45 | 6:13.27 | 25845 | 53846
3 | 11:57.72 | 4:09.48 | 53847 | 72569
4 | 16:07.45 | 5:54.25 | 72570 | 99144
5 | 22:01.70 | 5:39.30 | 99145 | 124599
6 | 27:41.25 | 4:10.35 | 124600 | 143384
7 | 31:51.60 | 5:04.45 | 143385 | 166229
8 | 36:56.30 | 5:31.65 | 166230 | 191119


Характеристики диапазона извлечения и сообщения об ошибках

Выбранный диапазон

Имя файла D:\kos1871\Black Sabbath - Sabbath Bloody Sabbath (23PD-125).wav

Пиковый уровень 100.0 %
Качество диапазона 99.9 %
CRC теста 0FD4623D
CRC копии 0FD4623D
Копирование… OK

Ошибок не произошло


AccurateRip: сводка

Трек 1 нет в базе данных
Трек 2 нет в базе данных
Трек 3 нет в базе данных
Трек 4 нет в базе данных
Трек 5 нет в базе данных
Трек 6 нет в базе данных
Трек 7 нет в базе данных
Трек 8 нет в базе данных

Ни одного трека нет в базе AccurateRip

Конец отчёта


Many thanks to the original uploader: bki71


Bill Ward 1990 Ward One: Along The Way

Black Sabbath 1970 Black Sabbath [23PD-133, Japan CD, 1989]
Black Sabbath 1970 Paranoid [23PD-134, Japan CD, 1989]
Black Sabbath 1971 Master Of Reality [23PD-135, Japan CD, 1989]
Black Sabbath 1972 Black Sabbath Vol. 4 [23PD-136, Japan CD, 1989]
Black Sabbath 1996 The Best Of Black Sabbath 1970-1987 [Japanese Ed.]
Black Sabbath 1996 Under Wheels Of Confusion 1970-1987 [4 CD Set]
Black Sabbath 2000 The Best Of Black Sabbath [2CD Set]
Black Sabbath 2001 The Complete 70's Replica CD Collection 1970-1978 [8-CD Box Set]
Black Sabbath 2013 13 [Deluxe 2CD Set]
Black Sabbath 2013 Live…Gathered In Their Masses [Deluxe Ltd. Ed.] Blu-Ray+2 DVD+CD Box Set

DIO 1983 Holy Diver [Japanese Ed. 1989]
DIO 1984 The Last In Line [Japanese Ed. 1991]
DIO 1985 Sacred Heart [Japanese Ed. 1989]
DIO 1986 Intermission [Germany 1st Press]
DIO 1987 Dream Evil [Japan 1st Press]
DIO 1990 Lock Up The Wolves [Japan 1st Press]
DIO 2006 Holy Diver Live [DVD]

Gillan & Glover 1988 Accidentally On Purpose [Japan (mini LP) CD, 2007]
Gillian Glover 2007 Red Handed

Ian Gillan 1986 What I Did On My Vacation
Ian Gillan 1990 Naked Thunder [Japan (mini-LP) CD, 2007]
Ian Gillan 1991 Toolbox [Japan (mini-LP) CD, 2007]

Iron Claw 1996 Dismorphophobia
Iron Claw 2009 Iron Claw

Last In Line 2016 Heavy Crown [Japanese Ed.]

Ozzy Osbourne 2014 Memoirs Of A Madman [2xDVD]

Roger Glover And The Guilty Party 2002 Snapshot
Roger Glover And The Guilty Party 2011 If Life Was Easy

Tony Martin 2005 Scream [Japanese Ed.]

V.A. 2000 Bat Head Soup: A Tribute To Ozzy [Japanese Ed.]
V.A. 2010 Magic: A Tribute To Ronnie James Dio
V.A. 2014 Ronnie James Dio - This Is Your Life
V.A. 2014 Ronnie James Dio - This Is Your Life [Japanese Ed.]




Password: pass