Tags
Language
Tags

Blackmore's Night - Here We Come A-Caroling (2020) [EP] {Japanese Edition}

Posted By: popsakov
Blackmore's Night - Here We Come A-Caroling (2020) [EP] {Japanese Edition}

Blackmore's Night - Here We Come A-Caroling (2020) [EP] {Japanese Edition}
EAC Rip | FLAC (Img) + Cue + Log ~ 160 Mb | MP3 CBR320 ~ 114 Mb
Full Scans | 00:10:12 | RAR 5% Recovery
Folk, Pop, Holiday | Ward Records #GQCS-90994

The traditional Folk-Rock band, founded in 1997 by legendary guitar icon Ritchie Blackmore and award-winning vocalist Candice Night, releases their brand-new holiday EP “Here We Come A-Caroling”. The brand-new EP features four beautiful reinterpretations of classic Christmas carols reimagined in the unique Blackmore’s Night sound. The festive songs ‘Here We Come A-Caroling’, ‘It Came Upon A Midnight Clear’, ‘O Little Town Of Bethlehem’ and the all-time classic ‘Silent Night’ evoke a warm new-yet-familiar feeling and are bound to warm the hearts and homes of many fans this holiday season.

***************

Track List:

01. Here We Come A-Caroling [2:21]
02. It Came Upon A Midnight Clear [1:58]
03. O Little Town Of Bethlehem [3:16]
04. Silent Night [2:39]

Exact Audio Copy V1.3 from 2. September 2016

Отчёт EAC об извлечении, выполненном 23. марта 2021, 19:36

Blackmore's Night / Here We Come A-Caroling

Дисковод: PLEXTOR DVDR PX-755A Adapter: 1 ID: 1

Режим чтения : Достоверность
Использование точного потока : Да
Отключение кэша аудио : Да
Использование указателей C2 : Нет

Коррекция смещения при чтении : 30
Способность читать области Lead-in и Lead-out : Нет
Заполнение пропущенных сэмплов тишиной : Да
Удаление блоков с тишиной в начале и конце : Нет
При вычислениях CRC использовались нулевые сэмплы : Да
Интерфейс : Встроенный Win32-интерфейс для Win NT/2000

Выходной формат : Пользовательский кодировщик
Выбранный битрейт : 128 kBit/s
Качество : Высокий
Добавление ID3-тега : Нет
Утилита сжатия : C:\Program Files (x86)\Exact Audio Copy\Flac\flac.exe
Дополнительные параметры : -V -8 -T "Date=%year%" -T "Genre=%genre%" %source%


TOC извлечённого CD

Трек | Старт | Длительность | Начальный сектор | Конечный сектор
––––––––––––––––––––––––––––––––––-
1 | 0:00.00 | 2:20.02 | 0 | 10501
2 | 2:20.02 | 1:57.41 | 10502 | 19317
3 | 4:17.43 | 3:15.52 | 19318 | 33994
4 | 7:33.20 | 2:38.29 | 33995 | 45873


Характеристики диапазона извлечения и сообщения об ошибках

Выбранный диапазон

Имя файла D:\РАЗДАЧА\Blackmore's Night - Here We Come A-Caroling - 2020\Blackmore's Night - Here We Come A-Caroling.wav

Пиковый уровень 100.0 %
Скорость извлечения 5.8 X
Качество диапазона 100.0 %
CRC теста AD6403C6
CRC копии AD6403C6
Копирование… OK

Ошибок не произошло


AccurateRip: сводка

Трек 1 точность не определена (достоверность 2) [0C278BEA], AccurateRip вернул [B68E5016] (AR v2)
Трек 2 точность не определена (достоверность 2) [9E041914], AccurateRip вернул [FFA1DCA9] (AR v2)
Трек 3 точность не определена (достоверность 2) [5BCB26C6], AccurateRip вернул [A9149756] (AR v2)
Трек 4 точность не определена (достоверность 2) [B3627086], AccurateRip вернул [6D0101EE] (AR v2)

Ни один трек не прошёл проверки на точность
В вашей базе может быть иной вариант штамповки диска

Конец отчёта

–– CUETools DB Plugin V2.1.6

[CTDB TOCID: zoD7dKvMP52NLXkc58tYrTnKXeg-] found
Submit result: zoD7dKvMP52NLXkc58tYrTnKXeg- has been confirmed
Track | CTDB Status
1 | (31/31) Accurately ripped
2 | (14/31) Accurately ripped, or (17/31) differs in 910 samples @00:09:05
3 | (31/31) Accurately ripped
4 | (31/31) Accurately ripped
If you are sure that your rip contains errors, you can use CUETools to repair it.


==== Контрольная сумма отчёта 81395AE036D4C7DCCEBC618116C60695DFDE747F3F52359D76417A4FBE18A3B3 ====

See also:

Blackmore's Night - Winter Carols (2006) {2013, Reissue}

Blackmore's Night - Sucellus (2018) {Japan}

Candice Night - Starlight Starbright (2015) {Enhanced CD}

All thanks go to pishin

>>> My Blog <<<

DOWNLOAD: